<?xml version="1.0" standalone="no"?>
<!DOCTYPE svg PUBLIC "-//W3C//DTD SVG 1.1//EN" "http://www.w3.org/Graphics/SVG/1.1/DTD/svg11.dtd" >
<svg xmlns="http://www.w3.org/2000/svg" xmlns:xlink="http://www.w3.org/1999/xlink" version="1.1">
<metadata></metadata>
<defs>
<font id="helvetica_neue_lt_proitalic" horiz-adv-x="1024" >
<font-face units-per-em="2048" ascent="1462" descent="-586" />
<missing-glyph horiz-adv-x="532" />
<glyph unicode="&#xfb01;" horiz-adv-x="1175" d="M115 0l176 850h-121l53 258h121l27 131q30 142 122 197t265 55q28 0 106 -3t94 -3l-51 -252h-53q-40 0 -62.5 -12t-29 -27t-10.5 -41l-11 -45h140l-54 -258h-139l-176 -850h-397zM713 0l229 1108h397l-229 -1108h-397zM961 1196l59 283h397l-59 -283h-397z" />
<glyph unicode="&#xfb02;" horiz-adv-x="1175" d="M115 0l176 850h-121l53 258h121l27 131q30 142 122 197t265 55q28 0 106 -3t94 -3l-51 -252h-53q-40 0 -62.5 -12t-29 -27t-10.5 -41l-11 -45h140l-54 -258h-139l-176 -850h-397zM713 0l303 1462h397l-303 -1462h-397z" />
<glyph />
<glyph />
<glyph horiz-adv-x="682" />
<glyph unicode="&#xd;" horiz-adv-x="0" />
<glyph unicode=" "  horiz-adv-x="532" />
<glyph unicode="&#x09;" horiz-adv-x="532" />
<glyph unicode="&#xa0;" horiz-adv-x="532" />
<glyph unicode="!" horiz-adv-x="684" d="M156 0l69 344h373l-70 -344h-372zM279 438l71 533l103 491h385l-103 -491l-149 -533h-307z" />
<glyph unicode="&#x22;" d="M231 672l164 790h348l-163 -790h-349zM723 672l164 790h348l-164 -790h-348z" />
<glyph unicode="#" horiz-adv-x="1064" d="M106 365l50 245h178l67 201h-147l51 246h180l121 364h246l-121 -364h131l121 364h246l-121 -364h145l-51 -246h-178l-68 -201h148l-49 -245h-181l-120 -365h-246l121 365h-131l-121 -365h-246l121 365h-146zM580 610h131l67 201h-131z" />
<glyph unicode="$" horiz-adv-x="1064" d="M100 383l11 43h397l-16 -74q-24 -123 75 -123q102 0 127 131q4 23 5 40t-2.5 30.5t-7 22t-14 18.5t-17.5 15t-23 16q-21 14 -50 28.5t-70 33.5t-62 30q-88 48 -117 71q-132 104 -100 298l6 32q87 433 485 455l33 158h160l-33 -158q103 -5 174.5 -30t109 -63t53 -95 t12.5 -115t-19 -133h-386l13 59q12 52 -4 85.5t-66 33.5q-45 0 -76.5 -31.5t-42.5 -81.5q-10 -51 8.5 -89t56.5 -60.5t88 -46t103 -44t100.5 -54.5t81 -78t45 -114t-7.5 -163q-26 -129 -71.5 -217t-115.5 -139.5t-156.5 -75t-206.5 -27.5l-39 -182h-160l39 182 q-201 12 -282 108t-38 304z" />
<glyph unicode="%" horiz-adv-x="1593" d="M226 842.5q-7 87.5 20 214.5q19 100 47.5 169.5t76 121.5t118.5 77t169 25q130 0 194 -45.5t71 -133t-17 -214.5q-22 -102 -50 -170t-74.5 -121t-116.5 -77.5t-170 -24.5q-131 0 -196 45.5t-72 133zM336 -63l981 1548h233l-981 -1548h-233zM488 891q-2 -34 8 -44.5 t32 -10.5q41 0 60 45t47 176q27 133 27 177t-41 44t-60 -45.5t-45 -175.5q-15 -71 -20.5 -101.5t-7.5 -64.5zM961 195q0 69 22 170q19 100 47.5 169t75 121.5t117.5 77.5t170 25q131 0 195.5 -45.5t71 -133t-17.5 -214.5q-22 -102 -50 -170t-74.5 -121.5t-117 -78 t-169.5 -24.5t-159.5 25t-85.5 77.5t-25 121.5zM1225 188.5q0 -45.5 41 -45.5t59 44.5t47 177.5q27 133 27 177t-41 44t-60 -45.5t-45 -175.5q-28 -131 -28 -176.5z" />
<glyph unicode="&#x26;" horiz-adv-x="1290" d="M78.5 295.5q0.5 42.5 9.5 85.5q56 270 367 424q-111 172 -80 323q33 162 168 256.5t315 94.5q100 0 176.5 -18t131.5 -56.5t76 -105t3 -156.5q-14 -66 -44.5 -121.5t-81 -104t-93.5 -81t-115 -80.5l103 -199q67 97 82 160h348q-36 -130 -112 -248.5t-171 -189.5l148 -279 h-430l-43 82q-87 -53 -193.5 -82t-198.5 -29q-86 0 -152.5 19t-106.5 52.5t-65.5 74t-33.5 88.5t-7.5 90.5zM477 403q-10 -53 24 -88.5t89 -35.5q72 0 133 40l-125 238q-32 -14 -71 -57t-50 -97zM715 1169q-9 -55 14 -100l41 -82q33 17 83.5 70.5t61.5 103.5q10 47 -13 71.5 t-68 24.5q-48 0 -79.5 -25t-39.5 -63z" />
<glyph unicode="'" horiz-adv-x="532" d="M231 672l164 790h348l-163 -790h-349z" />
<glyph unicode="(" horiz-adv-x="681" d="M169.5 86.5q-25.5 253.5 33.5 503.5q59 231 181.5 461.5t289.5 410.5h334q-156 -168 -268 -426t-162 -504q-31 -148 -39.5 -308.5t12.5 -323.5t74 -277h-334q-96 210 -121.5 463.5z" />
<glyph unicode=")" horiz-adv-x="681" d="M-100 -377q80 86 152 204.5t125 244.5t91.5 247t61.5 234q29 151 37 309t-12.5 321.5t-73.5 278.5h333q96 -210 121.5 -463t-33.5 -503q-59 -231 -181.5 -462t-289.5 -411h-331z" />
<glyph unicode="*" horiz-adv-x="833" d="M213 1069l109 205l231 -94l59 282h209l-59 -282l278 94l23 -205l-277 -88l117 -231l-198 -125l-113 235l-205 -235l-145 125l219 231z" />
<glyph unicode="+" horiz-adv-x="1228" d="M172 371l61 295h371l78 370h295l-78 -370h371l-62 -295h-370l-76 -371h-295l76 371h-371z" />
<glyph unicode="," horiz-adv-x="532" d="M10 -360l39 184q74 5 109.5 41.5t62.5 146.5h-133l86 418h361l-66 -315q-20 -95 -40 -159t-54.5 -127t-81 -100.5t-117.5 -61.5t-166 -27z" />
<glyph unicode="-" horiz-adv-x="757" d="M135 428l70 332h663l-69 -332h-664z" />
<glyph unicode="." horiz-adv-x="532" d="M86 0l90 434h361l-91 -434h-360z" />
<glyph unicode="/" horiz-adv-x="720" d="M-37 -29l768 1520h332l-770 -1520h-330z" />
<glyph unicode="0" horiz-adv-x="1064" d="M117 246.5q-8 75.5 5.5 182t51.5 282.5q56 263 103.5 389t128.5 207q78 76 181 109.5t247 33.5t232 -33t134 -110q33 -55 41 -131t-5 -183t-50 -282q-56 -261 -104.5 -388t-129.5 -208q-77 -77 -179.5 -110.5t-246.5 -33.5t-233 33.5t-135 110.5q-33 56 -41 131.5z M512 299q0 -70 68 -70q69 0 96 70q37 103 100 412q70 337 70 411q3 70 -66 70q-67 0 -98 -70q-27 -73 -98 -411q-72 -351 -72 -412z" />
<glyph unicode="1" horiz-adv-x="1064" d="M295 969l53 258h53q126 0 234 55.5t151 167.5h295l-301 -1450h-409l200 969h-276z" />
<glyph unicode="2" horiz-adv-x="1064" d="M41 0q40 161 112 291.5t197 238.5l299 256q119 104 144 158q6 8 10.5 18.5t7 17t6.5 20.5t5 19t4.5 23.5t4.5 22.5q15 60 3.5 93.5t-62.5 33.5q-85 0 -115 -143l-18 -91h-385q53 263 184 377q132 115 398 115q116 0 199 -20.5t129 -57t66.5 -81t20.5 -99.5 q0 -75 -14 -141q-31 -146 -94 -244.5t-162 -177.5q-25 -20 -89.5 -70t-100 -78.5t-89.5 -77t-100 -96.5h485l-63 -307h-983z" />
<glyph unicode="3" horiz-adv-x="1064" d="M110 296.5q2 67.5 21 149.5h397l-12 -55q-7 -32 -10 -55t-0.5 -50.5t19.5 -42t48 -14.5t52.5 13t35 41t21 53t17.5 68q2 9 3 14q15 70 16 113t-29 62t-107 19h-58l51 246h58q60 0 92 13t56.5 56.5t43.5 133.5q6 28 7.5 45.5t-0.5 40t-18 34t-44 11.5q-57 0 -81.5 -40.5 t-45.5 -139.5h-373q31 125 80.5 210t124 135t166.5 71.5t217 21.5q243 0 323.5 -97.5t41.5 -295.5q-22 -107 -92.5 -193.5t-174.5 -105.5v-4q110 -24 147 -112t11 -214q-52 -243 -200.5 -350t-395.5 -107q-60 0 -110 5.5t-98.5 20t-84.5 38t-63.5 60.5t-40.5 85.5t-11 116z " />
<glyph unicode="4" horiz-adv-x="1064" d="M63 250l64 307l633 864h459l-181 -864h129l-63 -307h-129l-51 -250h-373l51 250h-539zM444 557h222l92 447h-4z" />
<glyph unicode="5" horiz-adv-x="1064" d="M111.5 271.5q0.5 53.5 13.5 115.5l12 57h385l-12 -57q-28 -158 55 -158q63 0 90 53t54 197q33 129 26.5 188.5t-67.5 59.5q-46 0 -74 -34t-37 -81h-373l193 809h872l-63 -307h-559l-62 -231h4q41 55 119 91t158 36q94 0 157 -23.5t97 -64t45 -106.5t4.5 -140t-27.5 -176 q-30 -137 -73 -232t-112 -163.5t-169 -101t-238 -32.5q-36 0 -66 1.5t-69 6.5t-71 14t-66 25t-59 37t-46.5 53t-31.5 71t-9.5 92.5z" />
<glyph unicode="6" horiz-adv-x="1064" d="M114 282.5q-5 46.5 3.5 117t18 123t26.5 130.5q25 120 39 181t44 161t59.5 152.5t80 120.5t110.5 101t146.5 57t192.5 24q81 0 142.5 -7.5t112 -25.5t81 -47t50.5 -71t20.5 -99t-9.5 -131h-385l8 43q18 80 -70 80q-57 0 -82 -42t-47 -153l-28 -135h4q97 103 258 103 q66 0 116 -15.5t81 -40t50 -61.5t26 -74.5t6 -84t-6.5 -84t-14.5 -81.5q-29 -144 -75 -244t-119 -171t-178 -104.5t-249 -33.5q-90 0 -160 14t-115 44t-76.5 64.5t-43.5 88.5t-17 100.5zM508 280q9 -51 72 -51q28 0 49 10.5t34 25.5t24.5 47.5t17.5 59t16 77.5 q24 125 22 159q-4 55 -56 61q-8 1 -17 1q-28 0 -49 -10.5t-34.5 -25.5t-24.5 -47t-17.5 -59.5t-16.5 -78.5q-1 -4 -3 -13q-23 -121 -17 -156z" />
<glyph unicode="7" horiz-adv-x="1064" d="M227 0q233 680 613 1073l2 4h-568l72 344h963l-64 -303q-125 -136 -248 -348.5t-202 -396t-146 -373.5h-422z" />
<glyph unicode="8" horiz-adv-x="1064" d="M111 414q10 44 23 82.5t26.5 68t32 54.5t33 42.5t35.5 33t34 24t34.5 17.5t31.5 12t29.5 9t23.5 7v4q-84 28 -118 110.5t-13 184.5q19 91 59 159.5t91.5 111t119 69.5t135 37t146.5 10q48 0 90.5 -4t84 -12.5t74.5 -24t62 -36.5t48 -51t30 -67.5t10.5 -86t-12.5 -105.5 q-21 -102 -89.5 -184.5t-164.5 -110.5v-4q2 -1 25.5 -9t33.5 -12.5t32.5 -19t33.5 -29.5t25 -42t17.5 -58.5t1.5 -78t-14 -101.5q-50 -235 -188 -339t-408 -104t-366.5 104t-48.5 339zM507 286q3 -30 21 -43.5t52 -13.5q28 0 49 10.5t33.5 23.5t23.5 44t16 53.5t15 69.5 q6 29 9.5 45t7 39.5t4 36t-0.5 28.5t-6.5 24.5t-14 16.5t-21.5 11.5t-31 3.5t-33 -3t-27 -12.5t-20 -16t-16.5 -25t-13 -28t-11.5 -36.5t-9.5 -38.5t-9.5 -45.5q-12 -52 -16 -83t-1 -61zM650 909q10 -43 61 -43q24 0 43 10t30 23.5t20.5 38.5t14 43t10.5 49q18 91 12 119 q-11 42 -61 43q-30 0 -51 -12.5t-34 -39t-19 -49t-14 -61.5q-18 -92 -12 -121z" />
<glyph unicode="9" horiz-adv-x="1064" d="M118 240.5q-2 51.5 11 115.5h385l-10 -47q-15 -80 71 -80q56 0 80.5 40.5t49.5 154.5l26 135h-4q-96 -102 -258 -102q-66 0 -116 15.5t-80.5 40t-49.5 61.5t-26 74t-5.5 83.5t7 84t14.5 81.5q29 144 75 244t119 171t178 104.5t249 33.5q90 0 160 -14t114.5 -44.5 t75.5 -64.5t43 -88.5t17 -100.5t-4 -117.5t-18 -122t-26 -130.5q-25 -121 -38.5 -181.5t-44 -161.5t-59.5 -153t-79.5 -120t-110.5 -100.5t-146 -56.5t-192 -24q-69 0 -124 5.5t-102 18.5t-79.5 33.5t-57 50.5t-34 70t-11.5 91.5zM615 814q4 -55 56 -61q8 -1 17 -1 q28 0 49 10.5t34 25.5t24.5 47.5t17.5 59.5t16 78q26 127 22 163q-12 54 -71 56q-28 0 -49 -10.5t-34.5 -25.5t-25 -46.5t-18 -59.5t-16.5 -77q-24 -125 -22 -159z" />
<glyph unicode=":" horiz-adv-x="532" d="M86 0l90 434h361l-91 -434h-360zM225 674l90 434h361l-90 -434h-361z" />
<glyph unicode=";" horiz-adv-x="532" d="M10 -360l39 184q74 5 109.5 41.5t62.5 146.5h-133l86 418h361l-66 -315q-20 -95 -40 -159t-54.5 -127t-81 -100.5t-117.5 -61.5t-166 -27zM225 674l90 434h361l-90 -434h-361z" />
<glyph unicode="&#x3c;" horiz-adv-x="1228" d="M172 365l64 307l1118 393l-60 -283l-762 -264l652 -264l-58 -283z" />
<glyph unicode="=" horiz-adv-x="1228" d="M125 141l61 295h1037l-62 -295h-1036zM219 600l62 295h1036l-62 -295h-1036z" />
<glyph unicode="&#x3e;" horiz-adv-x="1228" d="M90 -29l57 283l762 264l-651 264l59 283l955 -393l-64 -307z" />
<glyph unicode="?" d="M264 999q18 79 28.5 117.5t40 102.5t70.5 108q151 164 424 164q18 0 35.5 -1t46 -4t53 -9.5t54.5 -16.5t54.5 -26.5t48.5 -38t39.5 -52t25.5 -67.5t9 -86.5t-13 -106.5q-36 -176 -172 -303l-166 -153q-8 -7 -14.5 -15t-12.5 -19t-10.5 -18.5t-9.5 -22.5t-7.5 -20.5 t-7 -24t-5.5 -22.5t-6 -25t-5 -22h-361q28 133 62.5 222.5t95.5 146.5l168 154q62 59 86 161q11 51 -1.5 87t-51.5 36q-41 0 -72.5 -39.5t-42.5 -93.5l-22 -113h-361zM309 0l70 344h373l-70 -344h-373z" />
<glyph unicode="@" horiz-adv-x="1638" d="M195.5 529q-8.5 97 15.5 202q32 155 121.5 295.5t212 242.5t275.5 162t308 60q150 0 278.5 -44t217.5 -122t127 -195.5t8 -255.5q-21 -100 -73 -190t-120 -154.5t-146.5 -112.5t-155 -71.5t-142.5 -23.5q-48 0 -76 24t-24 66h-8q-43 -42 -105.5 -66t-130.5 -24 q-130 0 -197.5 99t-35.5 255q18 90 64 174t110.5 149.5t150 104.5t177.5 39q161 0 231 -125l33 76h188l-172 -432q-13 -28 -35 -95q-9 -45 27 -45q62 0 126.5 81.5t98.5 240.5q43 210 -73.5 324t-354.5 114q-249 0 -429 -152.5t-230 -400.5q-56 -260 72.5 -404.5 t392.5 -144.5q245 0 415 107h226q-144 -159 -326.5 -237.5t-423.5 -78.5q-103 0 -196.5 27t-166 76.5t-129 119t-87 154t-39 181.5zM797 709q-14 -71 14 -118.5t92 -47.5q89 0 157.5 62t86.5 151q17 74 -15 120t-104 46q-83 0 -147.5 -64.5t-83.5 -148.5z" />
<glyph unicode="A" horiz-adv-x="1175" d="M-14 0l649 1462h514l41 -1462h-422v223h-274l-86 -223h-422zM604 543h187l36 600h-4z" />
<glyph unicode="B" horiz-adv-x="1175" d="M80 0l303 1462h590q196 0 284 -91q61 -64 62 -171q0 -46 -12 -100q-14 -66 -41 -120.5t-58 -89.5t-69 -61.5t-69.5 -39t-63.5 -19.5l-2 -4q22 -3 40 -6.5t45 -14t46.5 -25.5t38.5 -42q18 -26 28 -60q10 -35 11 -88q0 -49 -13 -108q-43 -212 -177 -317t-331 -105h-612z M549 295h72q66 0 107.5 42t55.5 116q9 37 9 67q1 34 -11 60q-22 48 -90 49h-74zM674 887h61q49 0 91.5 33t56.5 106q5 25 5 46q0 95 -102 95h-55z" />
<glyph unicode="C" horiz-adv-x="1099" d="M129 328q1 40 13 120q12 82 22 132.5t31 150.5q19 95 30.5 147t32.5 131t39 122.5t48 102.5t63.5 91t80.5 69t103 54.5t128.5 30t158.5 12.5q91 0 161 -14t115.5 -37.5t75 -59t43.5 -73.5q14 -37 16 -87q1 -16 0 -33q0 -32 -3 -61q-5 -44 -17 -98l-23 -106h-397l24 118 q7 29 10.5 55.5t2.5 57.5t-16 49.5t-44 18.5q-77 0 -108.5 -76.5t-98.5 -395.5l-1.5 -6t-1 -5.5t-1.5 -6.5q-67 -304 -67 -405q0 -48 18.5 -66t57.5 -18q50 0 82 55.5t61 191.5l25 113h397l-21 -92q-54 -266 -199 -402.5t-407 -136.5q-87 0 -154 12t-116 28.5t-80.5 54 t-52 67t-25.5 90.5q-6 67 -6 105z" />
<glyph unicode="D" horiz-adv-x="1175" d="M80 0l303 1462h590q263 0 327 -190q25 -69 25 -150q0 -16 -1 -33q-6 -100 -58 -358q-14 -65 -24 -109.5t-28 -110.5t-35.5 -112t-45 -103.5t-57.5 -96.5t-72 -79.5t-89.5 -64.5t-108.5 -39.5t-130 -15.5h-596zM549 295h84q37 0 66 18.5t48 53t30.5 69.5t21.5 82l88 426 q15 74 17 124q0 3 1 5q0 46 -26 69q-27 25 -88 25h-60z" />
<glyph unicode="E" d="M80 0l303 1462h881l-70 -332h-471l-47 -225h440l-65 -319h-441l-53 -254h490l-68 -332h-899z" />
<glyph unicode="F" horiz-adv-x="985" d="M80 0l303 1462h881l-70 -332h-471l-47 -225h440l-65 -319h-441l-121 -586h-409z" />
<glyph unicode="G" horiz-adv-x="1138" d="M147 264q-2 18 -2 40q0 45 7 104q10 90 21.5 153.5t33.5 167.5q23 107 39.5 175t46 157.5t61.5 144.5t83 115t112.5 93.5t147 55t190.5 21.5q119 0 202 -24t128.5 -65t64.5 -106q18 -57 18 -119v-17q-3 -71 -22 -165h-385l12 60q10 45 10 77q0 28 -7 47q-16 42 -74 42 q-28 0 -50.5 -10.5t-37 -27t-25.5 -41.5t-17.5 -48t-11.5 -54l-125 -602q-5 -31 -7.5 -47.5t-4.5 -43.5t1.5 -42t11.5 -31.5t24.5 -24t40.5 -7.5q68 0 100.5 46t52.5 138l21 100h-117l55 271h502l-164 -797h-284l14 119h-4q-66 -88 -146.5 -118t-185.5 -30q-87 0 -150 23 t-100.5 57t-56 96t-23.5 117z" />
<glyph unicode="H" horiz-adv-x="1175" d="M80 0l303 1462h410l-111 -528h197l110 528h410l-303 -1462h-410l121 590h-197l-121 -590h-409z" />
<glyph unicode="I" horiz-adv-x="528" d="M59 0l303 1462h410l-303 -1462h-410z" />
<glyph unicode="J" d="M67 254.5q0 42.5 4 68t11 52.5l20 100h373l-22 -108q-8 -31 -8 -55q0 -20 6 -36q12 -34 57 -34q51 0 75 40.5t46 145.5l215 1034h409l-219 -1052q-91 -439 -581 -439q-92 0 -162.5 18t-112 45t-67 66.5t-35 75.5t-9.5 78.5z" />
<glyph unicode="K" horiz-adv-x="1175" d="M80 0l303 1462h410l-117 -557h4l352 557h445l-494 -643l236 -819h-461l-109 485l-84 -112l-76 -373h-409z" />
<glyph unicode="L" horiz-adv-x="948" d="M80 0l303 1462h410l-236 -1130h447l-68 -332h-856z" />
<glyph unicode="M" horiz-adv-x="1593" d="M80 0l303 1462h594l-66 -895h4l320 895h582l-304 -1462h-385l222 1065h-4l-402 -1065h-295l41 1065h-4l-221 -1065h-385z" />
<glyph unicode="N" horiz-adv-x="1214" d="M86 0l303 1462h445l22 -893h4l187 893h385l-304 -1462h-438l-41 901h-4l-186 -901h-373z" />
<glyph unicode="O" horiz-adv-x="1138" d="M129 328q1 40 13 120q12 82 22 132.5t31 150.5q19 95 30.5 147t32.5 131t39 122.5t48 102.5t63.5 91t80.5 69t103 54.5t128.5 30t158.5 12.5q292 0 381 -134q49 -72 49 -205q0 -50 -7 -108q-10 -86 -55 -313q-27 -129 -41.5 -191.5t-45 -161t-59.5 -145t-79 -108 t-111.5 -88t-149 -46.5t-198.5 -20q-87 0 -154 12t-116 28.5t-80.5 54t-52 67t-25.5 90.5q-6 67 -6 105zM551 326q0 -48 16 -66t51 -18q24 0 40 5.5t33 27t29 50.5t29.5 90t33.5 130.5t42 185.5q23 112 37 185q12 74 20 132q7 54 8 85q0 33 -10 55q-8 20 -22 26.5t-37 6.5 t-39.5 -6t-33 -26.5t-30 -51.5t-30 -89t-33 -131.5t-39.5 -185.5q-65 -295 -65 -405z" />
<glyph unicode="P" horiz-adv-x="1138" d="M80 0l303 1462h543q240 0 334 -108q62 -71 62 -199q0 -66 -17 -147q-24 -119 -79 -208.5t-132.5 -143t-169 -79.5t-197.5 -26h-125l-113 -551h-409zM664 846h45q34 0 56.5 5t46.5 20.5t41.5 49.5t29.5 87q8 33 8 58q0 101 -115 101h-45z" />
<glyph unicode="Q" horiz-adv-x="1138" d="M129 328q0 41 13 120q12 83 22 133t31 150q19 95 30.5 147t32.5 131t39 122.5t48 102.5t63.5 91t80.5 69t103 54.5t128.5 30t158.5 12.5q292 0 381 -134q49 -72 49 -205q0 -50 -7 -108q-10 -86 -55 -313q-5 -24 -19 -86.5t-19.5 -85.5t-18 -75t-20.5 -76t-21.5 -65.5 t-26 -65.5t-29 -55t-35 -55t-40.5 -46l135 -176l-291 -211l-164 246q-3 0 -25 -3t-36 -4q-10 -2 -35 -2h-39q-87 0 -154 12t-116 28.5t-80.5 54t-52 67t-25.5 90.5q-6 67 -6 105zM551 326q0 -48 16 -66t51 -18q24 0 40 5.5t33 27t29 50.5t29.5 90t33.5 130.5t42 185.5 q23 112 36.5 185.5t20.5 131.5q8 54 8 85q0 34 -10 55q-8 21 -22 27t-37 6t-39.5 -6t-33 -26.5t-30 -51.5t-30 -89t-33 -131.5t-39.5 -185.5q-65 -295 -65 -405z" />
<glyph unicode="R" horiz-adv-x="1175" d="M80 0l303 1462h614q209 0 286 -97q51 -64 52 -169q0 -53 -14 -117q-65 -313 -317 -352v-4q62 -5 107 -34.5t63 -82.5q10 -28 9 -69q0 -44 -4 -77q-4 -29 -15 -87q-2 -11 -3 -17l-26 -120q-20 -99 -20 -146q0 -17 3 -27q9 -33 35 -43l-4 -20h-434q-9 14 -9 53t6 79t15 79 q7 36 19.5 108.5t19.5 108.5q9 42 9 70q0 32 -11 48q-21 30 -80 29h-76l-119 -575h-409zM664 846h59q136 0 176 172q7 31 7 55q0 42 -20 62q-32 32 -108 32h-47z" />
<glyph unicode="S" horiz-adv-x="1099" d="M121 399l8 39h397l-14 -67q-4 -22 -5 -41q0 -30 12 -52q18 -36 69 -36q52 0 83.5 37t43.5 92q7 27 6.5 48.5t-3 33.5t-16 26t-19.5 18.5t-26 18.5q-25 16 -87 46.5t-95 49.5q-63 35 -103 64.5t-69 64t-40.5 74.5t-11.5 89.5t13 115.5q21 99 56.5 174.5t79 123t100.5 83.5 q147 90 352 90q408 0 408 -277q0 -75 -19 -172h-385l12 60q5 22 5 41q0 25 -9 45q-16 34 -67 33q-45 0 -75.5 -31.5t-41.5 -79.5q-4 -18 -4 -35q0 -31 12 -56q18 -39 56.5 -62.5t88 -47t102 -44.5t100 -55.5t81.5 -79.5q32 -45 44 -117q4 -27 5 -58q0 -50 -12 -109 q-54 -253 -202.5 -364t-432.5 -111q-81 0 -143.5 9.5t-114 30t-84.5 53.5q-32 32 -52 80q-19 46 -19 108q0 64 16 147z" />
<glyph unicode="T" horiz-adv-x="950" d="M223 1118l72 344h967l-72 -344h-279l-231 -1118h-410l232 1118h-279z" />
<glyph unicode="U" horiz-adv-x="1138" d="M148 199q-6 38 -7 83q0 93 27 214l201 966h409l-217 -1044q-16 -64 -16 -103q0 -19 4 -32q11 -41 69 -41q57 0 84 38.5t48 137.5l217 1044h409l-200 -966q-58 -269 -202.5 -397t-410.5 -128q-197 0 -296 55.5t-119 172.5z" />
<glyph unicode="V" horiz-adv-x="1099" d="M281 1462h442l-102 -1130h4l368 1130h432l-612 -1462h-528z" />
<glyph unicode="W" horiz-adv-x="1593" d="M231 0l64 1462h397l-119 -1036h5l344 1036h360l-70 -1036h5l303 1036h385l-545 -1462h-438l79 983h-4l-319 -983h-447z" />
<glyph unicode="X" horiz-adv-x="1138" d="M-23 0l502 741l-170 721h453l20 -424h4l197 424h453l-469 -721l194 -741h-467l-30 449h-5l-215 -449h-467z" />
<glyph unicode="Y" horiz-adv-x="1101" d="M281 1462h454l10 -510h5l233 510h444l-553 -887l-118 -575h-410l119 575z" />
<glyph unicode="Z" horiz-adv-x="985" d="M39 0l57 281l609 849h-402l70 332h876l-59 -284l-621 -846h443l-68 -332h-905z" />
<glyph unicode="[" horiz-adv-x="681" d="M51 -377l383 1839h574l-60 -282h-213l-264 -1274h213l-59 -283h-574z" />
<glyph unicode="\" horiz-adv-x="720" d="M276 1491h332l140 -1520h-332z" />
<glyph unicode="]" horiz-adv-x="681" d="M-100 -377l59 283h211l264 1274h-213l60 282h573l-383 -1839h-571z" />
<glyph unicode="^" horiz-adv-x="1228" d="M227 674l512 747h340l201 -747h-301l-123 489l-328 -489h-301z" />
<glyph unicode="_" d="M-51 -256l20 102h1022l-20 -102h-1022z" />
<glyph unicode="`" horiz-adv-x="532" d="M297 1511h360l13 -294h-244z" />
<glyph unicode="a" d="M88 299q18 89 50.5 152.5t78.5 102t94.5 59t112.5 34.5l194 43q65 14 94.5 38t39.5 77q4 15 4 27q0 21 -11 36q-17 23 -51 23q-103 0 -123 -127h-348q39 191 164.5 282t360.5 91q88 0 154.5 -11.5t109 -33.5t68.5 -50t36 -66q9 -34 9 -68v-7q-1 -38 -11 -84l-135 -653 q-8 -37 -8 -74q0 -45 12 -90h-373q-3 16 -3 37q0 33 7 80l-2 2q-98 -148 -290 -148q-158 0 -214 82q-35 50 -34 131q0 51 14 115zM483 352q-5 -22 -5 -40q0 -24 8 -40q14 -30 55 -30q29 0 50.5 11.5t35.5 33t22 42t15 48.5l32 160q-39 -20 -106 -43q-50 -17 -72.5 -51 t-34.5 -91z" />
<glyph unicode="b" horiz-adv-x="1062" d="M55 0l303 1462h398l-101 -483h4q42 73 119.5 115.5t159.5 42.5q67 0 115 -20t74.5 -58.5t40.5 -88.5q13 -46 12 -106v-10q-1 -66 -10 -133t-27 -150q-46 -212 -83 -305q-90 -228 -268 -279q-55 -16 -120 -16q-61 0 -102.5 15.5t-60 43.5t-25 48.5t-9.5 48.5h-4l-25 -127 h-391zM530 330.5q2 -20.5 9 -36t20 -22t33 -6.5q57 0 84.5 59.5t64.5 229.5q12 56 18.5 93.5t10.5 72.5t2 55.5t-8.5 36.5t-19.5 22.5t-33 6.5q-56 0 -86 -61.5t-64 -225.5q-12 -57 -18.5 -95t-10.5 -73.5t-2 -56z" />
<glyph unicode="c" horiz-adv-x="985" d="M108 303q1 63 9 120.5t24 131.5t31.5 130.5t41 120t56 109.5t76.5 90t102 71.5t132 44t168 16.5q179 0 268 -47.5t108 -151.5q6 -35 7 -77q0 -82 -25 -191h-367l13 51q11 51 11 85q0 22 -5 36q-12 36 -62 37q-38 0 -61.5 -23t-45.5 -91.5t-50 -209.5q-12 -54 -19.5 -92 t-13.5 -73.5t-8 -57.5t-1 -41.5t5 -30t12 -18.5t18.5 -10.5t26.5 -2.5q58 0 85.5 48t62.5 198h360q-30 -140 -72 -232.5t-106 -150.5q-130 -121 -383 -121q-92 0 -161.5 16.5t-114.5 44t-72 71.5q-28 45 -40 91q-11 43 -10 99v10z" />
<glyph unicode="d" horiz-adv-x="1062" d="M112 224q-1 12 -1 27q1 36 7 88q8 73 16 114.5t24 117.5q18 85 36 150t44.5 133.5t59 116.5t75 87.5t99 59t124.5 19.5q82 0 141.5 -42.5t71.5 -115.5h4l100 483h398l-303 -1462h-392l25 127h-4q-14 -28 -29 -48.5t-44.5 -48.5t-77 -43.5t-107.5 -15.5q-72 0 -123.5 21 t-81.5 50.5t-44 84.5t-18 97zM520 330.5q2 -20.5 9 -36t20 -22t33 -6.5q57 0 84.5 59.5t64.5 229.5q12 56 18.5 93.5t10.5 72.5t2 55.5t-9 36.5t-20 22.5t-33 6.5q-56 0 -85.5 -61t-63.5 -226q-12 -57 -18.5 -95t-10.5 -73.5t-2 -56z" />
<glyph unicode="e" horiz-adv-x="985" d="M108 303q1 63 9 120.5t24 131.5t31.5 130.5t41 120t56 109.5t76.5 90t102 71.5t132 44t168 16.5q74 0 132.5 -11t100 -27.5t69 -49t44.5 -60t22 -77.5q6 -56 6 -90q0 -35 -9 -96q-9 -65 -17 -104.5t-23 -113.5l-4 -19h-545l-30 -145q-4 -26 -6 -38t-2 -35.5t6 -35 t20.5 -21t38.5 -9.5q55 0 80 43t45 141h360q-44 -219 -186 -321q-132 -97 -344 -97q-92 0 -161.5 16.5t-114.5 44t-72 71.5q-28 45 -40 91q-11 43 -10 99v10zM567 698h172l15 66q9 44 9 73q-1 23 -7 37q-14 28 -62 29q-44 0 -69.5 -30t-42.5 -109z" />
<glyph unicode="f" horiz-adv-x="645" d="M115 0l176 850h-121l53 258h121l27 131q30 142 122 197t265 55q28 0 106 -3t94 -3l-51 -252h-53q-40 0 -62.5 -12t-29 -27t-10.5 -41l-11 -45h140l-54 -258h-139l-176 -850h-397z" />
<glyph unicode="g" horiz-adv-x="1062" d="M51 -162q0 56 6 105h361q-7 -36 4 -62q18 -24 61 -24q52 0 79.5 23t37.5 79l47 219h-4q-93 -141 -283 -141q-63 0 -109 21.5t-71.5 61.5t-38.5 90q-13 47 -13 107q0 63 8 129q7 61 22 129q12 61 24 111t32.5 110t44.5 106.5t59.5 92t77.5 75.5t99 48.5t123 18.5 q92 0 140.5 -40t66.5 -126h4l29 137h379l-221 -1063q-19 -95 -57.5 -167.5t-90 -120.5t-120 -78t-143.5 -43t-165 -13q-110 0 -189 18t-121 49.5t-60.5 67.5t-18.5 80zM530 378q6 -59 60 -59q56 0 85 54t56 182q12 56 18.5 93.5t10.5 72.5t2 55.5t-9 36.5t-20 22.5t-33 6.5 q-56 0 -85.5 -61t-63.5 -226q-23 -95 -23 -152q0 -13 2 -25z" />
<glyph unicode="h" horiz-adv-x="1062" d="M55 0l303 1462h398l-101 -481h4q117 156 314 156q115 1 178 -69q43 -47 43 -128q0 -38 -10 -84l-176 -856h-398l152 733q6 29 6 49q0 23 -8 36q-14 24 -53.5 24t-65.5 -29.5t-37 -79.5l-151 -733h-398z" />
<glyph unicode="i" horiz-adv-x="528" d="M66 0l229 1108h397l-229 -1108h-397zM313 1196l60 283h397l-59 -283h-398z" />
<glyph unicode="j" horiz-adv-x="528" d="M-141 -352l55 268q48 -6 59 -6q21 0 35.5 4t31 23.5t23.5 54.5l232 1116h397l-231 -1116q-23 -111 -50 -175.5t-75.5 -106t-115.5 -56t-177 -14.5q-77 0 -184 8zM313 1196l60 283h397l-59 -283h-398z" />
<glyph unicode="k" horiz-adv-x="1062" d="M55 0l303 1462h404l-146 -694h5l260 340h422l-402 -459l201 -649h-422l-94 362l-78 -90l-55 -272h-398z" />
<glyph unicode="l" horiz-adv-x="528" d="M66 0l303 1462h397l-303 -1462h-397z" />
<glyph unicode="m" horiz-adv-x="1630" d="M61 0l230 1108h385l-27 -127h4q117 156 326 156q183 0 231 -156q114 156 324 156q115 1 178 -69q43 -47 43 -128q0 -38 -10 -84l-176 -856h-398l152 733q6 29 6 49q1 23 -7 36q-14 24 -54 24t-66 -29.5t-37 -79.5l-151 -733h-398l152 733q6 29 6 49q0 23 -8 36 q-14 24 -53.5 24t-65.5 -29.5t-37 -79.5l-151 -733h-398z" />
<glyph unicode="n" horiz-adv-x="1062" d="M55 0l230 1108h385l-27 -127h4q117 156 326 156q115 1 178 -69q43 -47 43 -128q0 -38 -10 -84l-176 -856h-398l152 733q6 29 6 49q0 23 -8 36q-14 24 -53.5 24t-65.5 -29.5t-37 -79.5l-151 -733h-398z" />
<glyph unicode="o" d="M108 303q1 63 9 120.5t24 131.5t31.5 130.5t41 120t56 109.5t76.5 90t102 71.5t132 44t168 16.5q91 0 160.5 -16.5t114 -44t72 -71t39.5 -89.5q11 -43 11 -100v-10q-1 -63 -9 -120t-24 -131q-16 -75 -31.5 -131.5t-41 -120.5t-56 -110t-76 -90t-101.5 -71.5t-132 -44 t-168 -16.5t-161.5 16.5t-114.5 44t-72 71.5q-28 45 -40 91q-11 43 -10 99v10zM502 296q2 -39 15.5 -53t41.5 -14q54 0 84 64t72 262q21 101 30 161q7 47 7 81v17q-2 38 -16 52.5t-42 14.5q-54 0 -83.5 -63.5t-71.5 -262.5q-21 -100 -31 -160q-8 -48 -7 -82q0 -9 1 -17z" />
<glyph unicode="p" horiz-adv-x="1062" d="M-18 -360l303 1468h391l-27 -127h4q8 19 19 37.5t33 41t49 39t68.5 27.5t90.5 11q72 0 123.5 -21t81.5 -50.5t44.5 -83.5t17.5 -98q2 -12 2 -27q0 -37 -6 -88q-9 -72 -17 -114.5t-24 -117.5q-22 -103 -44.5 -180t-59 -153.5t-81 -124.5t-109.5 -78t-145 -30 q-82 0 -142.5 42.5t-70.5 115.5h-4l-102 -489h-395zM530 331.5q2 -20.5 9 -36.5t20 -22.5t33 -6.5q56 0 85.5 61t63.5 226q12 58 18.5 95.5t10.5 73t2 55.5t-8.5 36t-19.5 22.5t-33 6.5q-57 0 -85.5 -60t-64.5 -229q-12 -56 -18.5 -93.5t-10.5 -72.5t-2 -55.5z" />
<glyph unicode="q" horiz-adv-x="1062" d="M113 288q4 61 13 119t24 130q45 217 87 317q95 232 288 273q45 10 96 10q49 0 85.5 -11.5t55.5 -27t31.5 -39.5t16 -40t5.5 -38h4l27 127h391l-305 -1468h-397l102 489h-4q-43 -73 -120 -115.5t-159 -42.5q-59 0 -102.5 15.5t-71.5 41.5t-44 67.5t-22 86.5q-3 27 -3 58 q0 23 2 48zM520 331.5q2 -20.5 9 -36.5t20 -22.5t33 -6.5q56 0 85.5 61t63.5 226q12 57 18.5 95t10.5 73.5t2 56t-9 36t-20 22t-33 6.5q-57 0 -84.5 -59.5t-64.5 -229.5q-12 -56 -18.5 -93.5t-10.5 -72.5t-2 -55.5z" />
<glyph unicode="r" horiz-adv-x="757" d="M55 0l230 1108h385l-35 -164h4q50 84 124 138.5t152 54.5q17 0 66 -7l-76 -362q-13 3 -47 6q-10 2 -31 2h-45q-98 0 -143.5 -49t-67.5 -154l-118 -573h-398z" />
<glyph unicode="s" horiz-adv-x="948" d="M81 237q0 53 13 119h348q-6 -46 -6 -74q0 -23 4 -34q13 -43 74 -43q33 0 56.5 18t31 34t12.5 34q7 25 0 44t-35.5 35.5t-95.5 41.5q-55 20 -94.5 36t-76.5 36t-60.5 39.5t-42 44.5t-25.5 53.5t-7 64t9 78.5q39 176 165 274.5t347 98.5q88 0 156 -13.5t108.5 -33.5t67 -51 t37 -58.5t12.5 -64.5t-0.5 -59.5t-7.5 -52.5q-1 -7 -2 -11h-336q6 28 5.5 47.5t-5.5 31.5q-13 31 -74 31q-83 0 -100 -76q-1 -5 -1 -10q0 -33 40 -56q46 -27 221 -91q28 -10 45.5 -18t43 -23t41 -30.5t31.5 -40.5q16 -24 22 -54q6 -27 6 -65v-7q0 -42 -11 -90 q-21 -99 -72 -172.5t-123 -116t-155 -62.5t-180 -20q-64 0 -114.5 5t-95 17t-76.5 31.5t-55.5 49.5t-34 70t-10.5 93z" />
<glyph unicode="t" horiz-adv-x="645" d="M153 118.5q-3 24.5 0.5 55t10.5 68.5l127 608h-121l53 258h121l68 326h397l-68 -326h140l-54 -258h-139l-102 -494q-8 -32 -8 -53q0 -15 4 -25q10 -24 57 -24q42 0 66 6l-56 -264q-66 -12 -198 -12q-41 0 -65.5 0.5t-57 2t-50.5 5.5t-41 10.5t-34.5 16t-24.5 23.5 t-17.5 33t-7.5 43.5z" />
<glyph unicode="u" horiz-adv-x="1062" d="M102 122q-4 22 -4 47q0 37 8 83l179 856h397l-152 -733q-6 -28 -6 -49q0 -24 8 -36q14 -24 54 -24q39 0 65 29.5t37 79.5l152 733h397l-229 -1108h-385l24 127h-4q-117 -156 -324 -156q-55 0 -99 15.5t-76 48.5t-42 87z" />
<glyph unicode="v" horiz-adv-x="985" d="M221 1108h410l-68 -764h4l258 764h398l-502 -1108h-467z" />
<glyph unicode="w" horiz-adv-x="1554" d="M225 0l2 1108h398l-82 -764h4l266 764h410l-58 -764h4l244 764h373l-451 -1108h-458l55 715h-4l-246 -715h-457z" />
<glyph unicode="x" d="M-8 0l422 573l-168 535h397l43 -270l162 270h409l-397 -535l172 -573h-397l-51 299l-183 -299h-409z" />
<glyph unicode="y" horiz-adv-x="985" d="M31 -342l53 258q52 -6 102 -6t78 31q27 27 35 59l-78 1108h410l-39 -672h4l229 672h398l-512 -1098q-37 -76 -60.5 -120t-57 -92t-65.5 -73t-78 -47t-103 -30t-132 -8q-99 0 -184 18z" />
<glyph unicode="z" horiz-adv-x="948" d="M37 0l61 303l477 498h-354l64 307h841l-61 -295l-496 -506h406l-64 -307h-874z" />
<glyph unicode="{" horiz-adv-x="681" d="M76 371l71 344q33 0 56.5 7t46.5 27t40 59t29 99l56 275q29 136 123.5 208t228.5 72h258l-59 -282h-72q-120 0 -145 -127l-54 -260q-25 -121 -87.5 -179.5t-184.5 -68.5l-2 -4q120 -10 157.5 -68.5t12.5 -179.5l-53 -260q-13 -63 8 -95t84 -32h72l-60 -283h-258 q-134 0 -198 72.5t-35 208.5l57 274q10 62 11 99.5t-14 58.5t-35.5 28t-53.5 7z" />
<glyph unicode="|" horiz-adv-x="569" d="M131 -29l315 1520h295l-315 -1520h-295z" />
<glyph unicode="}" horiz-adv-x="681" d="M-78 -377l60 283h69q121 0 146 127l53 260q25 121 87.5 179.5t184.5 68.5l2 4q-120 10 -157.5 68.5t-12.5 179.5l54 260q13 63 -8 95t-85 32h-71l59 282h258q134 0 198.5 -72t35.5 -208l-56 -275q-10 -61 -11.5 -99t13.5 -58.5t35 -27.5t53 -7l-71 -344q-68 0 -107.5 -39 t-62.5 -154l-58 -274q-29 -136 -123.5 -208.5t-228.5 -72.5h-256z" />
<glyph unicode="~" horiz-adv-x="1228" d="M256 555q126 180 293 180q52 0 113 -21.5t106 -48t97 -48t89 -21.5q39 0 80 23t67 49t66 71l19 -262q-40 -43 -64.5 -66.5t-63.5 -53t-79.5 -43t-85.5 -13.5q-55 0 -112 21.5t-97.5 48t-94 48t-102.5 21.5q-36 0 -67.5 -12t-59 -36t-44 -43.5t-40.5 -51.5z" />
<glyph unicode="&#xa1;" horiz-adv-x="684" d="M76 -348l102 491l150 533h307l-72 -533l-102 -491h-385zM315 770l72 344h373l-72 -344h-373z" />
<glyph unicode="&#xa2;" horiz-adv-x="1064" d="M162 162q-43 127 14 393q14 70 29 124.5t38 114.5t50.5 105t67.5 88t88.5 72.5t114 50t143.5 27.5l34 172h160l-35 -172q144 -11 214.5 -63t82.5 -151.5t-22 -252.5h-367l12 51q18 86 5.5 122t-62.5 36q-39 0 -62 -23.5t-44.5 -91t-49.5 -209.5q-12 -54 -19.5 -92.5 t-13 -73t-7.5 -57t-1.5 -42t5 -30t12.5 -18.5t18.5 -10.5t26.5 -2.5q58 0 85 47.5t62 198.5h361q-30 -141 -72 -234t-106 -151q-109 -101 -299 -115l-39 -188h-160l39 184q-249 19 -303 191z" />
<glyph unicode="&#xa3;" horiz-adv-x="1064" d="M57 203q71 31 178 139t125 199q5 16 2 32h-223l47 232h136q-54 144 -31 268q25 125 107.5 212t191 126t235.5 39q122 0 207.5 -21.5t132 -57t67 -92t20 -116t-16.5 -139.5h-361l11 45q5 32 4.5 62t-19.5 51.5t-55 21.5q-34 0 -59 -13t-38 -34t-19 -39.5t-9 -38.5 q-17 -86 41 -274h348l-47 -232h-278q-18 -87 -70 -153q-27 -35 -54.5 -60.5t-46.5 -38.5t-81 -53l2 -4q50 12 71 12q49 0 80 -14q85 -33 131 -33q81 0 224 78l51 -239q-163 -97 -338 -97q-78 0 -191 31q-150 43 -194 43q-26 0 -52 -3t-42 -6t-41 -11.5t-33.5 -12t-35 -15 t-30.5 -13.5z" />
<glyph unicode="&#xa4;" horiz-adv-x="1064" d="M94 369l129 104q-49 111 -24 238q23 117 129 245l-88 109l182 145l86 -104q132 74 268 74q141 0 240 -74l127 104l125 -145l-133 -109q50 -122 26 -245q-24 -122 -123 -238l84 -104l-176 -158l-88 111q-132 -80 -276 -80t-244 80l-133 -111zM469 711q-19 -88 29.5 -149.5 t136.5 -61.5q87 0 160.5 61.5t95.5 149.5q17 88 -31.5 149.5t-136.5 61.5q-87 0 -162 -62t-92 -149z" />
<glyph unicode="&#xa5;" horiz-adv-x="1064" d="M135 231l45 222h252l31 147h-252l47 221h152l-138 600h410l25 -565h4l262 565h409l-387 -600h152l-47 -221h-252l-31 -147h252l-45 -222h-252l-47 -231h-385l47 231h-252z" />
<glyph unicode="&#xa6;" horiz-adv-x="569" d="M131 -29l127 611h295l-127 -611h-295zM319 881l127 610h295l-127 -610h-295z" />
<glyph unicode="&#xa7;" horiz-adv-x="1064" d="M57.5 -10q2.5 34 5.5 53t9 45l4 14h373q-19 -92 -14 -122q9 -50 65 -50q25 0 44.5 9.5t30 21t19.5 30.5t11 27t5 23q18 85 -65 117l-211 82q-120 45 -166.5 125t-17.5 210q18 90 86 186.5t145 127.5q-101 84 -68 235q38 187 180 277t355 90q69 0 125.5 -8t96.5 -19.5 t69 -32.5t47 -40t28 -49t14 -52t2 -56.5t-4.5 -55.5t-8.5 -56h-349l9 35q21 88 -74 88q-41 0 -71.5 -21.5t-37.5 -60.5q-12 -53 35 -80q41 -25 175 -72.5t179 -80.5q124 -89 80 -305q-19 -87 -73.5 -164.5t-133.5 -128.5q108 -89 68 -271q-17 -86 -58 -152.5t-94.5 -108 t-123.5 -68t-139.5 -37t-147.5 -10.5q-76 0 -137.5 10.5t-104 26.5t-73.5 42t-49 50.5t-27.5 58t-12 58.5t0 59zM469 637q-7 -40 7.5 -60.5t51.5 -33.5l215 -92l25 18q53 42 68 113q5 31 -8 53.5t-29 32t-49 24.5l-170 72q-3 -2 -17.5 -14.5t-20 -17.5t-18.5 -16.5 t-19.5 -19.5t-15.5 -18.5t-13.5 -20.5t-6.5 -20z" />
<glyph unicode="&#xa8;" horiz-adv-x="532" d="M180 1217l62 294h295l-62 -294h-295zM553 1217l61 294h295l-61 -294h-295z" />
<glyph unicode="&#xa9;" horiz-adv-x="1638" d="M195.5 529q-8.5 97 15.5 202q32 155 121.5 295.5t212 242.5t275.5 162t308 60q103 0 196.5 -27t166 -76.5t129.5 -119t87.5 -154t39 -181.5t-15.5 -202q-32 -155 -122 -295.5t-213 -242.5t-276 -162t-307 -60q-103 0 -196.5 27t-166 76.5t-129 119t-87 154t-39 181.5z M448.5 504q18.5 -100 73 -169t141 -105.5t195.5 -36.5q223 0 398.5 144.5t228.5 393.5q35 165 -8 288.5t-146.5 187t-249.5 63.5q-223 0 -397 -145.5t-227 -393.5q-27 -127 -8.5 -227zM588 723q37 188 168 302t323 114q146 0 222.5 -76.5t66.5 -226.5h-215q0 106 -135 106 q-77 0 -131 -57.5t-78 -159.5q-20 -95 14.5 -158t108.5 -63q62 0 109 28t67 82h221q-52 -153 -162 -230t-256 -77q-190 0 -275.5 115.5t-47.5 300.5z" />
<glyph unicode="&#xaa;" horiz-adv-x="665" d="M215 948q23 104 75 146.5t146 62.5l125 25q45 11 63 24.5t25 44.5q5 20 -6 36t-33 16q-8 0 -15.5 -1.5t-13 -3t-10.5 -5.5t-8.5 -6t-8 -8t-6 -8.5t-5.5 -10.5t-4.5 -9.5t-4.5 -11t-4 -10.5h-233q24 113 106 167t240 54q69 0 118.5 -10t75.5 -28t40 -42t12.5 -53t-6.5 -60 l-82 -391q-8 -46 4 -100h-242q-6 32 4 72h-4q-36 -49 -84 -68q-49 -18 -102 -18q-107 0 -145 48t-17 148zM479 981q-14 -70 37 -70q60 0 80 84l18 97q-23 -13 -67 -27q-33 -11 -47 -31t-21 -53z" />
<glyph unicode="&#xab;" horiz-adv-x="909" d="M143 344l103 490l391 206l-72 -344l-209 -102l166 -102l-71 -345zM557 344l102 490l392 206l-72 -344l-209 -102l166 -102l-72 -345z" />
<glyph unicode="&#xac;" horiz-adv-x="1228" d="M219 600l62 295h1036l-139 -674h-295l78 379h-742z" />
<glyph unicode="&#xad;" horiz-adv-x="757" d="M135 428l70 332h663l-69 -332h-664z" />
<glyph unicode="&#xae;" horiz-adv-x="1638" d="M195.5 529q-8.5 97 15.5 202q32 155 121.5 295.5t212 242.5t275.5 162t308 60q103 0 196.5 -27t166 -76.5t129.5 -119t87.5 -154t39 -181.5t-15.5 -202q-32 -155 -122 -295.5t-213 -242.5t-276 -162t-307 -60q-103 0 -196.5 27t-166 76.5t-129 119t-87 154t-39 181.5z M448.5 504q18.5 -100 73 -169t141 -105.5t195.5 -36.5q223 0 398.5 144.5t228.5 393.5q35 165 -8 288.5t-146.5 187t-249.5 63.5q-223 0 -397 -145.5t-227 -393.5q-27 -127 -8.5 -227zM598 340l164 784h307q161 0 231.5 -54t42.5 -191q-43 -198 -245 -226l123 -313h-220 l-116 303h-27l-63 -303h-197zM891 803h139q100 0 117 78q11 42 -12.5 63t-85.5 21h-125z" />
<glyph unicode="&#xaf;" horiz-adv-x="532" d="M188 1260l43 208h668l-43 -208h-668z" />
<glyph unicode="&#xb0;" horiz-adv-x="819" d="M317 1124q29 135 144 230.5t250 95.5t211 -95.5t47 -230.5t-144 -230t-250 -95t-211 95t-47 230zM502 1124q-12 -60 19 -100.5t91 -40.5t110 40.5t62 100.5t-20 101t-92 41t-109 -41t-61 -101z" />
<glyph unicode="&#xb1;" horiz-adv-x="1228" d="M96 0l60 295h1036l-59 -295h-1037zM211 555l61 295h371l39 186h295l-39 -186h371l-62 -295h-370l-39 -186h-295l39 186h-371z" />
<glyph unicode="&#xb2;" horiz-adv-x="692" d="M150 573q45 183 210 326l172 154q89 78 107 161q9 35 1 55.5t-38 20.5q-61 0 -76 -86l-10 -49h-246q35 165 115 231q78 64 258 64q275 0 275 -154q0 -38 -9 -79q-16 -75 -57 -135.5t-86 -97.5t-117 -97.5t-123 -116.5h295l-41 -197h-630z" />
<glyph unicode="&#xb3;" horiz-adv-x="692" d="M193 739q1 44 12 103h258l-4 -19q-6 -35 -6 -63q0 -29 36 -29q20 0 33 7.5t21 24.5t11.5 30.5t8.5 40.5q17 54 2 78t-86 24h-41l35 172h41q58 0 85 19t40 81q17 70 -37 70q-14 0 -24 -5t-16.5 -11.5t-12.5 -22t-9 -26t-8 -33.5h-245q16 66 42.5 114.5t58 78t74 47 t84.5 24t95 6.5q169 0 226.5 -58.5t31.5 -179.5q-13 -66 -58 -117.5t-114 -62.5v-4q72 -13 98.5 -66t8.5 -128q-30 -146 -124.5 -210.5t-248.5 -64.5q-46 0 -82.5 4.5t-72.5 16.5t-58 32t-39 51.5t-16 75.5z" />
<glyph unicode="&#xb4;" horiz-adv-x="532" d="M358 1217l136 294h360l-252 -294h-244z" />
<glyph unicode="&#xb5;" horiz-adv-x="1062" d="M-18 -360l303 1468h397l-152 -733q-13 -60 1.5 -84.5t54.5 -24.5q39 0 65 29.5t37 79.5l152 733h397l-229 -1108h-385l24 127h-4q-80 -156 -168 -156q-9 0 -29 4l-69 -335h-395z" />
<glyph unicode="&#xb6;" horiz-adv-x="1269" d="M212 887.5q-16 74.5 3 175.5q39 187 172.5 293t341.5 106h787l-361 -1728h-319l311 1495h-195l-311 -1495h-319l194 930q-73 0 -135 24.5t-107.5 74.5t-61.5 124.5z" />
<glyph unicode="&#xb7;" horiz-adv-x="532" d="M190 569q17 80 86 136.5t148 56.5t123.5 -56.5t27.5 -136.5q-15 -79 -83 -135.5t-148 -56.5t-125.5 56.5t-28.5 135.5z" />
<glyph unicode="&#xb8;" horiz-adv-x="532" d="M-74 -444l72 120q51 -32 152 -32q39 0 65.5 17t32.5 46q6 28 -16 46t-56 18q-20 0 -57 -13l-51 43l145 199h133l-98 -127q31 10 74 10q72 0 110.5 -51t24.5 -121q-13 -65 -64.5 -112.5t-115.5 -69t-130 -21.5q-57 0 -120 14.5t-101 33.5z" />
<glyph unicode="&#xb9;" horiz-adv-x="692" d="M297 1143l35 172q228 0 278 135h191l-183 -877h-270l119 570h-170z" />
<glyph unicode="&#xba;" horiz-adv-x="665" d="M228.5 992q4.5 45 17.5 110q13 63 28 108.5t44 93.5t68.5 78t102.5 49t146 19q60 0 105 -10t74 -26t47 -42.5t25.5 -54t7 -65.5t-5.5 -71.5t-14 -78.5t-18.5 -79.5t-25.5 -72.5t-35 -65.5t-48 -54t-65 -42.5t-85 -26t-108 -10q-83 0 -138.5 19t-82.5 48.5t-35.5 78.5 t-4 94zM480 947.5q2 -36.5 42 -36.5q38 0 53 32.5t41 158.5q28 136 24 161q-12 25 -40 27q-38 0 -54.5 -33t-41.5 -155q-26 -118 -24 -154.5z" />
<glyph unicode="&#xbb;" horiz-adv-x="909" d="M102 147l72 345l211 102l-168 102l72 344l305 -206l-102 -490zM516 147l72 345l211 102l-168 102l71 344l306 -206l-103 -490z" />
<glyph unicode="&#xbc;" horiz-adv-x="1593" d="M231 -63l1115 1548h233l-1114 -1548h-234zM297 1143l35 172q228 0 278 135h191l-183 -877h-270l119 570h-170zM870 141l41 197l404 522h330l-109 -522h68l-41 -197h-68l-29 -141h-270l29 141h-355zM1130 338h148l59 289h-4z" />
<glyph unicode="&#xbd;" horiz-adv-x="1593" d="M203 -63l1114 1548h233l-1114 -1548h-233zM297 1143l35 172q228 0 278 135h191l-183 -877h-270l119 570h-170zM903 0q45 182 211 326l172 153q89 78 107 162q8 35 0.5 55.5t-37.5 20.5q-61 0 -76 -86l-10 -49h-246q34 168 115 231q42 35 102 49.5t154 14.5 q82 0 139 -14.5t85.5 -36.5t41 -55.5t11.5 -62t-9 -65.5q-16 -75 -57.5 -135.5t-86.5 -97t-117.5 -97t-123.5 -116.5h295l-39 -197h-631z" />
<glyph unicode="&#xbe;" horiz-adv-x="1593" d="M193 739q1 44 12 103h258l-4 -19q-6 -35 -6 -63q0 -29 36 -29q20 0 33 7.5t21 24.5t11.5 30.5t8.5 40.5q17 54 2 78t-86 24h-41l35 172h41q58 0 85 19t40 81q17 70 -37 70q-14 0 -24 -5t-16.5 -11.5t-12.5 -22t-9 -26t-8 -33.5h-245q16 66 42.5 114.5t58 78t74 47 t84.5 24t95 6.5q169 0 226.5 -58.5t31.5 -179.5q-13 -66 -58 -117.5t-114 -62.5v-4q72 -13 98.5 -66t8.5 -128q-30 -146 -124.5 -210.5t-248.5 -64.5q-46 0 -82.5 4.5t-72.5 16.5t-58 32t-39 51.5t-16 75.5zM295 -63l1114 1548h233l-1114 -1548h-233zM899 141l41 197 l403 522h330l-108 -522h67l-41 -197h-67l-29 -141h-270l28 141h-354zM1159 338h148l59 289h-4z" />
<glyph unicode="&#xbf;" d="M61 -75.5q1 49.5 13 106.5q36 176 172 303l166 153q9 8 16.5 18.5t13 19t11.5 23.5t9 23.5t8 27t6.5 25t6.5 27t6 25.5h361q-28 -133 -62.5 -222.5t-95.5 -146.5l-168 -153q-62 -62 -86 -162q-11 -51 2 -87t52 -36q41 0 72 39t42 94l23 113h360q-16 -71 -29 -116.5 t-42 -106t-68 -105.5q-151 -164 -424 -164q-18 0 -35.5 1t-45.5 4t-53 9.5t-55 16.5t-54 26.5t-48 38t-39.5 52t-25.5 67.5t-9 86.5zM502 770l71 344h373l-72 -344h-372z" />
<glyph unicode="&#xc0;" horiz-adv-x="1175" d="M-14 0l649 1462h514l41 -1462h-422v223h-274l-86 -223h-422zM604 543h187l36 600h-4zM686 1851h361l12 -295h-244z" />
<glyph unicode="&#xc1;" horiz-adv-x="1175" d="M-14 0l649 1462h514l41 -1462h-422v223h-274l-86 -223h-422zM604 543h187l36 600h-4zM743 1556l136 295h360l-252 -295h-244z" />
<glyph unicode="&#xc2;" horiz-adv-x="1175" d="M-14 0l649 1462h514l41 -1462h-422v223h-274l-86 -223h-422zM569 1556l179 295h421l60 -295h-271l-24 166l-107 -166h-258zM604 543h187l36 600h-4z" />
<glyph unicode="&#xc3;" horiz-adv-x="1175" d="M-14 0l649 1462h514l41 -1462h-422v223h-274l-86 -223h-422zM526 1556q36 122 107 208.5t162 86.5q45 0 123 -36q7 -3 22 -10.5t22.5 -11t19 -7.5t20.5 -6t18 -2q48 0 72 73h184q-27 -121 -106 -208t-189 -87q-47 0 -88.5 18.5t-71.5 37t-49 18.5q-42 0 -61 -74h-185z M604 543h187l36 600h-4z" />
<glyph unicode="&#xc4;" horiz-adv-x="1175" d="M-14 0l649 1462h514l41 -1462h-422v223h-274l-86 -223h-422zM567 1556l62 295h295l-62 -295h-295zM604 543h187l36 600h-4zM940 1556l61 295h295l-61 -295h-295z" />
<glyph unicode="&#xc5;" horiz-adv-x="1175" d="M-14 0l649 1462h514l41 -1462h-422v223h-274l-86 -223h-422zM604 543h187l36 600h-4zM664 1767q25 113 116 185.5t205 72.5q108 0 172 -73t39 -185q-23 -107 -117 -188q-77 -66 -192 -66q-123 0 -186 70t-37 184zM813 1765q-10 -49 16 -82.5t76 -33.5t92 34.5t52 83.5 t-17.5 84t-77.5 35q-49 0 -89.5 -35.5t-51.5 -85.5z" />
<glyph unicode="&#xc6;" horiz-adv-x="1630" d="M-14 0l848 1462h1036l-70 -332h-416l-47 -225h385l-65 -319h-385l-53 -254h434l-68 -332h-819l45 223h-283l-112 -223h-430zM686 543h193l125 600h-13z" />
<glyph unicode="&#xc7;" horiz-adv-x="1099" d="M130.5 347q0.5 41 13 118t22 125t29.5 141q19 95 30.5 147t32.5 131t39 122.5t48 102.5t63.5 91t80.5 69t103 54.5t128.5 30t158.5 12.5q91 0 161 -14t115.5 -37.5t75 -59t43 -73.5t16 -87.5t-2.5 -93.5t-17 -98l-23 -106h-397l24 118q7 29 10.5 55.5t2.5 57.5t-16 49.5 t-44 18.5q-77 0 -108.5 -76.5t-98.5 -395.5l-1.5 -6t-1 -5.5t-1.5 -6.5q-67 -304 -67 -405q0 -48 18.5 -66t57.5 -18q50 0 82 55.5t61 191.5l25 113h397l-21 -92q-41 -200 -130 -325t-240 -179q-77 -27 -178 -33l-76 -100q31 10 73 10q72 0 111 -51t25 -121 q-13 -65 -64.5 -112.5t-115.5 -69t-130 -21.5q-57 0 -120 14.5t-101 33.5l72 120q51 -32 151 -32q39 0 66 17t33 46q6 28 -16 46t-56 18q-20 0 -57 -13l-51 43l124 172q-69 5 -143 23q-53 14 -93 36t-64 58t-39.5 68.5t-17.5 90t-1.5 98.5z" />
<glyph unicode="&#xc8;" d="M80 0l303 1462h881l-70 -332h-471l-47 -225h440l-65 -319h-441l-53 -254h490l-68 -332h-899zM649 1851h361l12 -295h-244z" />
<glyph unicode="&#xc9;" d="M80 0l303 1462h881l-70 -332h-471l-47 -225h440l-65 -319h-441l-53 -254h490l-68 -332h-899zM688 1556l135 295h361l-252 -295h-244z" />
<glyph unicode="&#xca;" d="M80 0l303 1462h881l-70 -332h-471l-47 -225h440l-65 -319h-441l-53 -254h490l-68 -332h-899zM506 1556l178 295h422l59 -295h-270l-25 166l-106 -166h-258z" />
<glyph unicode="&#xcb;" d="M80 0l303 1462h881l-70 -332h-471l-47 -225h440l-65 -319h-441l-53 -254h490l-68 -332h-899zM494 1556l61 295h295l-62 -295h-294zM866 1556l62 295h295l-62 -295h-295z" />
<glyph unicode="&#xcc;" horiz-adv-x="528" d="M59 0l303 1462h410l-303 -1462h-410zM397 1851h361l12 -295h-244z" />
<glyph unicode="&#xcd;" horiz-adv-x="528" d="M59 0l303 1462h410l-303 -1462h-410zM385 1556l135 295h361l-252 -295h-244z" />
<glyph unicode="&#xce;" horiz-adv-x="528" d="M59 0l303 1462h410l-303 -1462h-410zM254 1556l178 295h422l59 -295h-270l-25 166l-106 -166h-258z" />
<glyph unicode="&#xcf;" horiz-adv-x="528" d="M59 0l303 1462h410l-303 -1462h-410zM236 1556l61 295h295l-62 -295h-294zM608 1556l62 295h295l-62 -295h-295z" />
<glyph unicode="&#xd0;" horiz-adv-x="1175" d="M80 0l129 629h-109l56 258h108l119 575h590q263 0 327 -190q30 -83 24 -183t-58 -358q-14 -65 -24 -109.5t-28 -110.5t-35.5 -112t-45 -103.5t-57.5 -96.5t-72 -79.5t-89.5 -64.5t-108.5 -39.5t-130 -15.5h-596zM549 295h84q37 0 66 18.5t48 53t30.5 69.5t21.5 82l88 426 q16 74 17.5 123.5t-25.5 74.5t-88 25h-60l-57 -280h121l-56 -258h-121z" />
<glyph unicode="&#xd1;" horiz-adv-x="1214" d="M86 0l303 1462h445l22 -893h4l187 893h385l-304 -1462h-438l-41 901h-4l-186 -901h-373zM586 1556q36 122 106.5 208.5t161.5 86.5q45 0 123 -36q7 -3 22 -10.5t22.5 -11t19 -7.5t20.5 -6t18 -2q48 0 72 73h184q-27 -121 -106 -208t-189 -87q-47 0 -88.5 18.5t-71.5 37 t-49 18.5q-42 0 -61 -74h-184z" />
<glyph unicode="&#xd2;" horiz-adv-x="1138" d="M129.5 325q-0.5 41 12 123.5t22.5 132.5t31 150q19 95 30.5 147t32.5 131t39 122.5t48 102.5t63.5 91t80.5 69t103 54.5t128.5 30t158.5 12.5q292 0 381 -134q67 -99 42 -313q-10 -86 -55 -313q-27 -129 -41.5 -191.5t-45 -161t-59.5 -145t-79 -108t-111.5 -88 t-149 -46.5t-198.5 -20q-87 0 -154 12t-116 28.5t-80.5 54t-52 67t-25.5 90.5t-5.5 102zM551 326q0 -48 16 -66t51 -18q24 0 40 5.5t33 27t29 50.5t29.5 90t33.5 130.5t42 185.5q23 112 36.5 185.5t21 131.5t7 89t-9 51.5t-22.5 26.5t-37 6t-39.5 -6t-33 -26.5t-30 -51.5 t-30 -89t-33 -131.5t-39.5 -185.5q-65 -295 -65 -405zM647 1851h361l12 -295h-244z" />
<glyph unicode="&#xd3;" horiz-adv-x="1138" d="M129.5 325q-0.5 41 12 123.5t22.5 132.5t31 150q19 95 30.5 147t32.5 131t39 122.5t48 102.5t63.5 91t80.5 69t103 54.5t128.5 30t158.5 12.5q292 0 381 -134q67 -99 42 -313q-10 -86 -55 -313q-27 -129 -41.5 -191.5t-45 -161t-59.5 -145t-79 -108t-111.5 -88 t-149 -46.5t-198.5 -20q-87 0 -154 12t-116 28.5t-80.5 54t-52 67t-25.5 90.5t-5.5 102zM551 326q0 -48 16 -66t51 -18q24 0 40 5.5t33 27t29 50.5t29.5 90t33.5 130.5t42 185.5q23 112 36.5 185.5t21 131.5t7 89t-9 51.5t-22.5 26.5t-37 6t-39.5 -6t-33 -26.5t-30 -51.5 t-30 -89t-33 -131.5t-39.5 -185.5q-65 -295 -65 -405zM752 1556l135 295h360l-252 -295h-243z" />
<glyph unicode="&#xd4;" horiz-adv-x="1138" d="M129.5 325q-0.5 41 12 123.5t22.5 132.5t31 150q19 95 30.5 147t32.5 131t39 122.5t48 102.5t63.5 91t80.5 69t103 54.5t128.5 30t158.5 12.5q292 0 381 -134q67 -99 42 -313q-10 -86 -55 -313q-27 -129 -41.5 -191.5t-45 -161t-59.5 -145t-79 -108t-111.5 -88 t-149 -46.5t-198.5 -20q-87 0 -154 12t-116 28.5t-80.5 54t-52 67t-25.5 90.5t-5.5 102zM551 326q0 -48 16 -66t51 -18q24 0 40 5.5t33 27t29 50.5t29.5 90t33.5 130.5t42 185.5q23 112 36.5 185.5t21 131.5t7 89t-9 51.5t-22.5 26.5t-37 6t-39.5 -6t-33 -26.5t-30 -51.5 t-30 -89t-33 -131.5t-39.5 -185.5q-65 -295 -65 -405zM563 1556l178 295h422l60 -295h-271l-24 166l-107 -166h-258z" />
<glyph unicode="&#xd5;" horiz-adv-x="1138" d="M129.5 325q-0.5 41 12 123.5t22.5 132.5t31 150q19 95 30.5 147t32.5 131t39 122.5t48 102.5t63.5 91t80.5 69t103 54.5t128.5 30t158.5 12.5q292 0 381 -134q67 -99 42 -313q-10 -86 -55 -313q-27 -129 -41.5 -191.5t-45 -161t-59.5 -145t-79 -108t-111.5 -88 t-149 -46.5t-198.5 -20q-87 0 -154 12t-116 28.5t-80.5 54t-52 67t-25.5 90.5t-5.5 102zM524 1556q36 122 107 208.5t162 86.5q44 0 122 -36q7 -3 22 -10.5t22.5 -10.5t19.5 -7.5t21 -6.5t18 -2q48 0 72 73h184q-27 -121 -106 -208t-189 -87q-47 0 -88.5 18.5t-71.5 37 t-49 18.5q-42 0 -61 -74h-185zM551 326q0 -48 16 -66t51 -18q24 0 40 5.5t33 27t29 50.5t29.5 90t33.5 130.5t42 185.5q23 112 36.5 185.5t21 131.5t7 89t-9 51.5t-22.5 26.5t-37 6t-39.5 -6t-33 -26.5t-30 -51.5t-30 -89t-33 -131.5t-39.5 -185.5q-65 -295 -65 -405z" />
<glyph unicode="&#xd6;" horiz-adv-x="1138" d="M129.5 325q-0.5 41 12 123.5t22.5 132.5t31 150q19 95 30.5 147t32.5 131t39 122.5t48 102.5t63.5 91t80.5 69t103 54.5t128.5 30t158.5 12.5q292 0 381 -134q67 -99 42 -313q-10 -86 -55 -313q-27 -129 -41.5 -191.5t-45 -161t-59.5 -145t-79 -108t-111.5 -88 t-149 -46.5t-198.5 -20q-87 0 -154 12t-116 28.5t-80.5 54t-52 67t-25.5 90.5t-5.5 102zM549 1556l61 295h295l-61 -295h-295zM551 326q0 -48 16 -66t51 -18q24 0 40 5.5t33 27t29 50.5t29.5 90t33.5 130.5t42 185.5q23 112 36.5 185.5t21 131.5t7 89t-9 51.5t-22.5 26.5 t-37 6t-39.5 -6t-33 -26.5t-30 -51.5t-30 -89t-33 -131.5t-39.5 -185.5q-65 -295 -65 -405zM922 1556l61 295h295l-61 -295h-295z" />
<glyph unicode="&#xd7;" horiz-adv-x="1228" d="M152 219l362 299l-240 299l252 209l240 -297l360 297l164 -209l-360 -299l237 -299l-252 -209l-237 297l-363 -297z" />
<glyph unicode="&#xd8;" horiz-adv-x="1138" d="M109 -68l92 144q-34 36 -51 89t-20.5 107t6.5 136.5t22.5 148.5t36.5 174q19 95 30.5 147t32.5 131t39 122.5t48 102.5t63.5 91t80.5 69t103 54.5t128.5 30t158.5 12.5q139 0 221 -27l82 123l133 -67l-84 -129q19 -19 33 -40t22.5 -48.5t15 -50t6.5 -61t1 -62t-5.5 -71.5 t-9.5 -72.5t-13.5 -82t-15.5 -82.5l-18 -90q-27 -129 -41.5 -191.5t-45 -161t-59.5 -145t-79 -108t-111.5 -88t-149 -46.5t-198.5 -20q-135 0 -233 29l-88 -135zM551 344q-1 -62 14 -82t53 -20q24 0 40 5.5t33 27t29 50.5t29.5 90t33.5 130.5t42 185.5l11 47h-5zM612 711h4 l273 428q0 48 -16.5 65t-51.5 17q-23 0 -39.5 -6t-33 -26.5t-30 -51.5t-30 -89t-33 -131.5t-39.5 -185.5z" />
<glyph unicode="&#xd9;" horiz-adv-x="1138" d="M147.5 199q-19.5 117 20.5 297l201 966h409l-217 -1044q-23 -94 -12 -135t69 -41q57 0 84 38.5t48 137.5l217 1044h409l-200 -966q-58 -269 -202.5 -397t-410.5 -128q-197 0 -296.5 55.5t-119 172.5zM657 1851h361l12 -295h-244z" />
<glyph unicode="&#xda;" horiz-adv-x="1138" d="M147.5 199q-19.5 117 20.5 297l201 966h409l-217 -1044q-23 -94 -12 -135t69 -41q57 0 84 38.5t48 137.5l217 1044h409l-200 -966q-58 -269 -202.5 -397t-410.5 -128q-197 0 -296.5 55.5t-119 172.5zM762 1556l135 295h360l-251 -295h-244z" />
<glyph unicode="&#xdb;" horiz-adv-x="1138" d="M147.5 199q-19.5 117 20.5 297l201 966h409l-217 -1044q-23 -94 -12 -135t69 -41q57 0 84 38.5t48 137.5l217 1044h409l-200 -966q-58 -269 -202.5 -397t-410.5 -128q-197 0 -296.5 55.5t-119 172.5zM563 1556l178 295h422l60 -295h-271l-24 166l-107 -166h-258z" />
<glyph unicode="&#xdc;" horiz-adv-x="1138" d="M147.5 199q-19.5 117 20.5 297l201 966h409l-217 -1044q-23 -94 -12 -135t69 -41q57 0 84 38.5t48 137.5l217 1044h409l-200 -966q-58 -269 -202.5 -397t-410.5 -128q-197 0 -296.5 55.5t-119 172.5zM555 1556l61 295h295l-61 -295h-295zM928 1556l61 295h295l-61 -295 h-295z" />
<glyph unicode="&#xdd;" horiz-adv-x="1101" d="M281 1462h454l10 -510h5l233 510h444l-553 -887l-118 -575h-410l119 575zM760 1556l135 295h360l-251 -295h-244z" />
<glyph unicode="&#xde;" horiz-adv-x="1138" d="M80 0l303 1462h410l-52 -245h133q239 0 333.5 -108.5t45.5 -346.5q-24 -119 -79 -208.5t-132 -143t-168.5 -79.5t-197.5 -26h-125l-62 -305h-409zM612 600h45q34 0 56.5 5t46.5 20.5t41.5 49.5t29.5 87q37 160 -106 160h-45z" />
<glyph unicode="&#xdf;" horiz-adv-x="1099" d="M66 0l221 1065q49 235 185.5 330.5t404.5 95.5q70 0 127.5 -8t98.5 -20.5t71 -33.5t49 -42t29 -51.5t14 -56.5t1.5 -61.5t-6.5 -62t-12 -63.5q-25 -111 -75.5 -174.5t-155.5 -92.5v-4q80 -22 117.5 -68t37 -110t-15.5 -147q-22 -109 -43.5 -180.5t-59 -140t-88.5 -107 t-129.5 -61.5t-185.5 -23q-103 0 -133 12l53 252q24 -6 50 -6q41 0 69.5 31t46.5 112l33 160q4 31 6 60t-15.5 50t-55.5 21l-48 -6l58 270q30 -6 55 -6q35 0 55.5 34.5t34.5 96.5q19 91 6.5 129.5t-59.5 38.5q-22 0 -37.5 -4.5t-35 -21t-36 -55t-30.5 -99.5l-217 -1053h-385 z" />
<glyph unicode="&#xe0;" d="M88 299q18 89 50.5 152.5t78.5 102t94.5 59t112.5 34.5l194 43q65 14 94.5 38t39.5 77q10 40 -7 63t-51 23q-103 0 -123 -127h-348q39 191 164.5 282t360.5 91q88 0 154.5 -11.5t109 -33.5t69 -50t36 -65.5t8.5 -75.5t-11 -84l-135 -653q-18 -82 4 -164h-373q-8 39 4 117 l-2 2q-98 -148 -290 -148q-157 0 -213.5 82t-20.5 246zM483 352q-11 -51 3.5 -80.5t54.5 -29.5q29 0 50.5 11.5t35.5 33t22 42t15 48.5l32 160q-39 -20 -106 -43q-50 -17 -72.5 -51t-34.5 -91zM600 1511h361l12 -294h-244z" />
<glyph unicode="&#xe1;" d="M88 299q18 89 50.5 152.5t78.5 102t94.5 59t112.5 34.5l194 43q65 14 94.5 38t39.5 77q10 40 -7 63t-51 23q-103 0 -123 -127h-348q39 191 164.5 282t360.5 91q88 0 154.5 -11.5t109 -33.5t69 -50t36 -65.5t8.5 -75.5t-11 -84l-135 -653q-18 -82 4 -164h-373q-8 39 4 117 l-2 2q-98 -148 -290 -148q-157 0 -213.5 82t-20.5 246zM483 352q-11 -51 3.5 -80.5t54.5 -29.5q29 0 50.5 11.5t35.5 33t22 42t15 48.5l32 160q-39 -20 -106 -43q-50 -17 -72.5 -51t-34.5 -91zM647 1217l135 294h361l-252 -294h-244z" />
<glyph unicode="&#xe2;" d="M88 299q18 89 50.5 152.5t78.5 102t94.5 59t112.5 34.5l194 43q65 14 94.5 38t39.5 77q10 40 -7 63t-51 23q-103 0 -123 -127h-348q39 191 164.5 282t360.5 91q88 0 154.5 -11.5t109 -33.5t69 -50t36 -65.5t8.5 -75.5t-11 -84l-135 -653q-18 -82 4 -164h-373q-8 39 4 117 l-2 2q-98 -148 -290 -148q-157 0 -213.5 82t-20.5 246zM434 1217l178 294h422l60 -294h-271l-24 165l-107 -165h-258zM483 352q-11 -51 3.5 -80.5t54.5 -29.5q29 0 50.5 11.5t35.5 33t22 42t15 48.5l32 160q-39 -20 -106 -43q-50 -17 -72.5 -51t-34.5 -91z" />
<glyph unicode="&#xe3;" d="M88 299q18 89 50.5 152.5t78.5 102t94.5 59t112.5 34.5l194 43q65 14 94.5 38t39.5 77q10 40 -7 63t-51 23q-103 0 -123 -127h-348q39 191 164.5 282t360.5 91q88 0 154.5 -11.5t109 -33.5t69 -50t36 -65.5t8.5 -75.5t-11 -84l-135 -653q-18 -82 4 -164h-373q-8 39 4 117 l-2 2q-98 -148 -290 -148q-157 0 -213.5 82t-20.5 246zM408 1217q36 122 106.5 208t161.5 86q45 0 123 -36q7 -3 22 -10.5t22.5 -11t19 -7.5t20.5 -6t18 -2q48 0 72 73h184q-27 -120 -106 -207t-189 -87q-47 0 -88.5 18.5t-71.5 36.5t-49 18q-42 0 -61 -73h-184zM483 352 q-11 -51 3.5 -80.5t54.5 -29.5q29 0 50.5 11.5t35.5 33t22 42t15 48.5l32 160q-39 -20 -106 -43q-50 -17 -72.5 -51t-34.5 -91z" />
<glyph unicode="&#xe4;" d="M88 299q18 89 50.5 152.5t78.5 102t94.5 59t112.5 34.5l194 43q65 14 94.5 38t39.5 77q10 40 -7 63t-51 23q-103 0 -123 -127h-348q39 191 164.5 282t360.5 91q88 0 154.5 -11.5t109 -33.5t69 -50t36 -65.5t8.5 -75.5t-11 -84l-135 -653q-18 -82 4 -164h-373q-8 39 4 117 l-2 2q-98 -148 -290 -148q-157 0 -213.5 82t-20.5 246zM422 1217l61 294h295l-61 -294h-295zM483 352q-11 -51 3.5 -80.5t54.5 -29.5q29 0 50.5 11.5t35.5 33t22 42t15 48.5l32 160q-39 -20 -106 -43q-50 -17 -72.5 -51t-34.5 -91zM795 1217l61 294h295l-61 -294h-295z" />
<glyph unicode="&#xe5;" d="M88 299q18 89 50.5 152.5t78.5 102t94.5 59t112.5 34.5l194 43q65 14 94.5 38t39.5 77q10 40 -7 63t-51 23q-103 0 -123 -127h-348q39 191 164.5 282t360.5 91q88 0 154.5 -11.5t109 -33.5t69 -50t36 -65.5t8.5 -75.5t-11 -84l-135 -653q-18 -82 4 -164h-373q-8 39 4 117 l-2 2q-98 -148 -290 -148q-157 0 -213.5 82t-20.5 246zM483 352q-11 -51 3.5 -80.5t54.5 -29.5q29 0 50.5 11.5t35.5 33t22 42t15 48.5l32 160q-39 -20 -106 -43q-50 -17 -72.5 -51t-34.5 -91zM532 1448q25 113 116.5 185.5t205.5 72.5q108 0 172 -73t39 -185 q-23 -107 -117 -188q-77 -66 -192 -66q-123 0 -186.5 70t-37.5 184zM682 1446q-11 -50 16 -83.5t76 -33.5t91 34.5t53 84.5q10 49 -17.5 84t-77.5 35q-49 0 -89.5 -35.5t-51.5 -85.5z" />
<glyph unicode="&#xe6;" horiz-adv-x="1517" d="M88 301q18 88 50.5 151.5t79 101.5t94.5 58.5t112 34.5l194 43q65 14 94.5 38t39.5 77q10 40 -7 63t-51 23q-103 0 -123 -127h-348q39 191 164.5 282t360.5 91q209 0 247 -117q88 117 312 117q68 0 121.5 -11t91 -27.5t62.5 -49t40 -60t19 -78t4 -86t-9.5 -100 t-17.5 -104t-23 -113.5l-4 -19h-544l-31 -145q-4 -26 -6 -38t-2 -35.5t6 -35t20.5 -21t38.5 -9.5q55 0 80 43t45 141h361q-44 -218 -187 -321q-132 -97 -330 -97q-56 0 -109.5 8t-109.5 27.5t-90.5 59t-34.5 94.5h-4q-43 -90 -135 -139.5t-188 -49.5q-190 0 -254.5 82 t-28.5 248zM483 352q-11 -51 3.5 -80.5t54.5 -29.5q29 0 50.5 11.5t35.5 33t22 42t15 48.5l32 160q-39 -20 -106 -43q-50 -17 -72.5 -51t-34.5 -91zM1090 698h172l14 66q16 82 3.5 110.5t-60.5 28.5q-46 0 -72 -30t-43 -109z" />
<glyph unicode="&#xe7;" horiz-adv-x="985" d="M108.5 331q3.5 55 11 107t21.5 117q16 74 31.5 130.5t41 120t56 109.5t76.5 90t102 71.5t132 44t168 16.5q179 0 268 -47.5t108 -151t-18 -268.5h-367l13 51q18 85 6 121.5t-62 36.5q-38 0 -61.5 -23t-45.5 -91.5t-50 -209.5q-12 -54 -19.5 -92t-13.5 -73.5t-8 -57.5 t-1 -41.5t5 -30t12 -18.5t18.5 -10.5t26.5 -2.5q58 0 85.5 48t62.5 198h360q-30 -140 -72 -232.5t-106 -150.5q-119 -110 -338 -119l-76 -100q31 10 74 10q72 0 110.5 -51t24.5 -121q-13 -65 -64.5 -112.5t-115 -69t-129.5 -21.5q-57 0 -120 14.5t-101 33.5l71 120 q51 -32 152 -32q39 0 65.5 17t32.5 46q6 28 -16 46t-56 18q-20 0 -57 -13l-51 43l127 174q-104 9 -168 43q-43 23 -73 55.5t-46 73.5t-23 85t-3.5 99z" />
<glyph unicode="&#xe8;" horiz-adv-x="985" d="M108 303q1 63 9 120.5t24 131.5t31.5 130.5t41 120t56 109.5t76.5 90t102 71.5t132 44t168 16.5q74 0 132.5 -11t100 -27.5t69 -49t44.5 -60t22 -78t5.5 -85.5t-8.5 -100t-17 -104.5t-23 -113.5l-4 -19h-545l-30 -145q-4 -26 -6 -38t-2 -35.5t6 -35t20.5 -21t38.5 -9.5 q55 0 80 43t45 141h360q-44 -219 -186 -321q-132 -97 -344 -97q-92 0 -161.5 16.5t-114.5 44t-72.5 71.5t-39 90.5t-10.5 109.5zM528 1511h361l12 -294h-244zM567 698h172l15 66q16 82 2.5 110.5t-62.5 28.5q-44 0 -69.5 -30t-42.5 -109z" />
<glyph unicode="&#xe9;" horiz-adv-x="985" d="M108 303q1 63 9 120.5t24 131.5t31.5 130.5t41 120t56 109.5t76.5 90t102 71.5t132 44t168 16.5q74 0 132.5 -11t100 -27.5t69 -49t44.5 -60t22 -78t5.5 -85.5t-8.5 -100t-17 -104.5t-23 -113.5l-4 -19h-545l-30 -145q-4 -26 -6 -38t-2 -35.5t6 -35t20.5 -21t38.5 -9.5 q55 0 80 43t45 141h360q-44 -219 -186 -321q-132 -97 -344 -97q-92 0 -161.5 16.5t-114.5 44t-72.5 71.5t-39 90.5t-10.5 109.5zM567 698h172l15 66q16 82 2.5 110.5t-62.5 28.5q-44 0 -69.5 -30t-42.5 -109zM625 1217l135 294h360l-252 -294h-243z" />
<glyph unicode="&#xea;" horiz-adv-x="985" d="M108 303q1 63 9 120.5t24 131.5t31.5 130.5t41 120t56 109.5t76.5 90t102 71.5t132 44t168 16.5q74 0 132.5 -11t100 -27.5t69 -49t44.5 -60t22 -78t5.5 -85.5t-8.5 -100t-17 -104.5t-23 -113.5l-4 -19h-545l-30 -145q-4 -26 -6 -38t-2 -35.5t6 -35t20.5 -21t38.5 -9.5 q55 0 80 43t45 141h360q-44 -219 -186 -321q-132 -97 -344 -97q-92 0 -161.5 16.5t-114.5 44t-72.5 71.5t-39 90.5t-10.5 109.5zM438 1217l178 294h422l60 -294h-271l-24 165l-107 -165h-258zM567 698h172l15 66q16 82 2.5 110.5t-62.5 28.5q-44 0 -69.5 -30t-42.5 -109z " />
<glyph unicode="&#xeb;" horiz-adv-x="985" d="M108 303q1 63 9 120.5t24 131.5t31.5 130.5t41 120t56 109.5t76.5 90t102 71.5t132 44t168 16.5q74 0 132.5 -11t100 -27.5t69 -49t44.5 -60t22 -78t5.5 -85.5t-8.5 -100t-17 -104.5t-23 -113.5l-4 -19h-545l-30 -145q-4 -26 -6 -38t-2 -35.5t6 -35t20.5 -21t38.5 -9.5 q55 0 80 43t45 141h360q-44 -219 -186 -321q-132 -97 -344 -97q-92 0 -161.5 16.5t-114.5 44t-72.5 71.5t-39 90.5t-10.5 109.5zM424 1217l61 294h295l-61 -294h-295zM567 698h172l15 66q16 82 2.5 110.5t-62.5 28.5q-44 0 -69.5 -30t-42.5 -109zM797 1217l61 294h295 l-61 -294h-295z" />
<glyph unicode="&#xec;" horiz-adv-x="528" d="M66 0l229 1108h397l-229 -1108h-397zM319 1511h361l12 -294h-243z" />
<glyph unicode="&#xed;" horiz-adv-x="528" d="M66 0l229 1108h397l-229 -1108h-397zM319 1217l136 294h360l-252 -294h-244z" />
<glyph unicode="&#xee;" horiz-adv-x="528" d="M66 0l229 1108h397l-229 -1108h-397zM182 1217l178 294h422l60 -294h-271l-24 165l-107 -165h-258z" />
<glyph unicode="&#xef;" horiz-adv-x="528" d="M66 0l229 1108h397l-229 -1108h-397zM182 1217l62 294h295l-62 -294h-295zM555 1217l61 294h295l-61 -294h-295z" />
<glyph unicode="&#xf0;" d="M105 282q0 59 7 111.5t21 120.5q60 294 190 428.5t332 134.5q79 0 121 -37l6 4q-8 47 -35.5 104t-66.5 97l-184 -78l-80 138l162 69q-46 58 -123 131l333 158q50 -52 127 -145l193 81l80 -137l-178 -76q112 -170 139 -341.5t-25 -426.5q-15 -71 -28.5 -124t-32 -112.5 t-38.5 -103t-47.5 -88.5t-59.5 -76.5t-74 -60t-92 -45.5t-112 -27t-134 -10q-91 0 -160.5 15.5t-114.5 41.5t-73 67.5t-40.5 84.5t-12.5 102zM500 290q3 -35 17 -48t42 -13q52 0 82.5 60t67.5 235q19 91 27 145t5 89t-17 48t-42 13q-55 0 -84 -58.5t-66 -236.5 q-19 -91 -27 -145t-5 -89z" />
<glyph unicode="&#xf1;" horiz-adv-x="1062" d="M55 0l230 1108h385l-27 -127h4q117 156 326 156q115 0 178 -69.5t33 -211.5l-176 -856h-398l152 733q12 61 -1.5 85t-53.5 24t-66 -29.5t-37 -79.5l-151 -733h-398zM416 1217q36 122 106.5 208t161.5 86q45 0 123 -36q7 -3 22 -10.5t22.5 -11t19 -7.5t20.5 -6t18 -2 q48 0 72 73h184q-27 -120 -106 -207t-189 -87q-47 0 -88.5 18.5t-71 36.5t-48.5 18q-43 0 -62 -73h-184z" />
<glyph unicode="&#xf2;" d="M108 303q1 63 9 120.5t24 131.5t31.5 130.5t41 120t56 109.5t76.5 90t102 71.5t132 44t168 16.5q91 0 160.5 -16.5t114 -44t72 -71t39.5 -90t11 -109.5t-9 -120t-24 -131q-16 -75 -31.5 -131.5t-41 -120.5t-56 -110t-76 -90t-101.5 -71.5t-132 -44t-168 -16.5 t-161.5 16.5t-114.5 44t-72.5 71.5t-39 90.5t-10.5 109.5zM501.5 296q2.5 -39 16 -53t41.5 -14q54 0 84 64t72 262q21 100 30 160.5t6.5 99t-16 52.5t-41.5 14q-54 0 -83.5 -63.5t-71.5 -262.5q-21 -100 -30.5 -160t-7 -99zM528 1511h361l12 -294h-244z" />
<glyph unicode="&#xf3;" d="M108 303q1 63 9 120.5t24 131.5t31.5 130.5t41 120t56 109.5t76.5 90t102 71.5t132 44t168 16.5q91 0 160.5 -16.5t114 -44t72 -71t39.5 -90t11 -109.5t-9 -120t-24 -131q-16 -75 -31.5 -131.5t-41 -120.5t-56 -110t-76 -90t-101.5 -71.5t-132 -44t-168 -16.5 t-161.5 16.5t-114.5 44t-72.5 71.5t-39 90.5t-10.5 109.5zM501.5 296q2.5 -39 16 -53t41.5 -14q54 0 84 64t72 262q21 100 30 160.5t6.5 99t-16 52.5t-41.5 14q-54 0 -83.5 -63.5t-71.5 -262.5q-21 -100 -30.5 -160t-7 -99zM618 1217l136 294h360l-252 -294h-244z" />
<glyph unicode="&#xf4;" d="M108 303q1 63 9 120.5t24 131.5t31.5 130.5t41 120t56 109.5t76.5 90t102 71.5t132 44t168 16.5q91 0 160.5 -16.5t114 -44t72 -71t39.5 -90t11 -109.5t-9 -120t-24 -131q-16 -75 -31.5 -131.5t-41 -120.5t-56 -110t-76 -90t-101.5 -71.5t-132 -44t-168 -16.5 t-161.5 16.5t-114.5 44t-72.5 71.5t-39 90.5t-10.5 109.5zM438 1217l178 294h422l60 -294h-271l-24 165l-107 -165h-258zM501.5 296q2.5 -39 16 -53t41.5 -14q54 0 84 64t72 262q21 100 30 160.5t6.5 99t-16 52.5t-41.5 14q-54 0 -83.5 -63.5t-71.5 -262.5 q-21 -100 -30.5 -160t-7 -99z" />
<glyph unicode="&#xf5;" d="M108 303q1 63 9 120.5t24 131.5t31.5 130.5t41 120t56 109.5t76.5 90t102 71.5t132 44t168 16.5q91 0 160.5 -16.5t114 -44t72 -71t39.5 -90t11 -109.5t-9 -120t-24 -131q-16 -75 -31.5 -131.5t-41 -120.5t-56 -110t-76 -90t-101.5 -71.5t-132 -44t-168 -16.5 t-161.5 16.5t-114.5 44t-72.5 71.5t-39 90.5t-10.5 109.5zM385 1217q36 122 106.5 208t161.5 86q45 0 123 -36q7 -3 22 -10.5t22.5 -10.5t19.5 -7.5t21 -6.5t18 -2q47 0 71 73h185q-27 -120 -106 -207t-189 -87q-47 0 -88.5 18.5t-71.5 36.5t-49 18q-43 0 -62 -73h-184z M501.5 296q2.5 -39 16 -53t41.5 -14q54 0 84 64t72 262q21 100 30 160.5t6.5 99t-16 52.5t-41.5 14q-54 0 -83.5 -63.5t-71.5 -262.5q-21 -100 -30.5 -160t-7 -99z" />
<glyph unicode="&#xf6;" d="M108 303q1 63 9 120.5t24 131.5t31.5 130.5t41 120t56 109.5t76.5 90t102 71.5t132 44t168 16.5q91 0 160.5 -16.5t114 -44t72 -71t39.5 -90t11 -109.5t-9 -120t-24 -131q-16 -75 -31.5 -131.5t-41 -120.5t-56 -110t-76 -90t-101.5 -71.5t-132 -44t-168 -16.5 t-161.5 16.5t-114.5 44t-72.5 71.5t-39 90.5t-10.5 109.5zM418 1217l61 294h295l-61 -294h-295zM501.5 296q2.5 -39 16 -53t41.5 -14q54 0 84 64t72 262q21 100 30 160.5t6.5 99t-16 52.5t-41.5 14q-54 0 -83.5 -63.5t-71.5 -262.5q-21 -100 -30.5 -160t-7 -99zM791 1217 l61 294h295l-62 -294h-294z" />
<glyph unicode="&#xf7;" horiz-adv-x="1228" d="M172 371l61 295h1037l-62 -295h-1036zM412 76q17 90 94.5 153.5t167.5 63.5q92 0 141.5 -62.5t30.5 -154.5q-20 -91 -95 -154t-167 -63t-141.5 62.5t-30.5 154.5zM596 961q17 90 94.5 153.5t167.5 63.5q92 0 141.5 -62.5t30.5 -154.5q-20 -92 -95.5 -155t-166.5 -63 q-92 0 -141.5 63t-30.5 155z" />
<glyph unicode="&#xf8;" d="M29 -53l129 155q-35 52 -45 128t-2 150.5t30 174.5q16 74 31.5 130.5t41 120t56 109.5t76.5 90t102 71.5t132 44t168 16.5q143 0 227 -37l115 139l114 -80l-117 -141q58 -78 58 -205q0 -93 -33 -258q-16 -75 -31.5 -131.5t-41 -120.5t-56 -110t-76 -90t-101.5 -71.5 t-132 -44t-168 -16.5q-160 0 -246 45l-121 -147zM479 281q4 -35 23 -49.5t55 -14.5q71 0 103.5 63.5t78.5 274.5q9 34 9 51zM508 530h4l258 318q-15 43 -74 43q-71 0 -105.5 -65t-76.5 -271z" />
<glyph unicode="&#xf9;" horiz-adv-x="1062" d="M101.5 122.5q-9.5 53.5 4.5 129.5l179 856h397l-152 -733q-13 -60 1.5 -84.5t54.5 -24.5q39 0 65 29.5t37 79.5l152 733h397l-229 -1108h-385l24 127h-4q-117 -156 -324 -156q-55 0 -99 15.5t-76.5 49t-42 87zM563 1511h361l12 -294h-244z" />
<glyph unicode="&#xfa;" horiz-adv-x="1062" d="M101.5 122.5q-9.5 53.5 4.5 129.5l179 856h397l-152 -733q-13 -60 1.5 -84.5t54.5 -24.5q39 0 65 29.5t37 79.5l152 733h397l-229 -1108h-385l24 127h-4q-117 -156 -324 -156q-55 0 -99 15.5t-76.5 49t-42 87zM651 1217l135 294h361l-252 -294h-244z" />
<glyph unicode="&#xfb;" horiz-adv-x="1062" d="M101.5 122.5q-9.5 53.5 4.5 129.5l179 856h397l-152 -733q-13 -60 1.5 -84.5t54.5 -24.5q39 0 65 29.5t37 79.5l152 733h397l-229 -1108h-385l24 127h-4q-117 -156 -324 -156q-55 0 -99 15.5t-76.5 49t-42 87zM453 1217l178 294h422l59 -294h-270l-25 165l-106 -165h-258 z" />
<glyph unicode="&#xfc;" horiz-adv-x="1062" d="M101.5 122.5q-9.5 53.5 4.5 129.5l179 856h397l-152 -733q-13 -60 1.5 -84.5t54.5 -24.5q39 0 65 29.5t37 79.5l152 733h397l-229 -1108h-385l24 127h-4q-117 -156 -324 -156q-55 0 -99 15.5t-76.5 49t-42 87zM440 1217l62 294h295l-62 -294h-295zM813 1217l61 294h295 l-61 -294h-295z" />
<glyph unicode="&#xfd;" horiz-adv-x="985" d="M31 -342l53 258q52 -6 102 -6t78 31q27 27 35 59l-78 1108h410l-39 -672h4l229 672h398l-512 -1098q-37 -76 -60.5 -120t-57 -92t-65.5 -73t-78 -47t-103 -30t-132 -8q-99 0 -184 18zM637 1217l135 294h361l-252 -294h-244z" />
<glyph unicode="&#xfe;" horiz-adv-x="1062" d="M-18 -360l376 1822h398l-101 -481h4q10 25 27.5 48.5t46.5 49.5t76 42t104 16q72 0 123.5 -21t81.5 -50.5t44.5 -83.5t18 -97.5t-5 -115.5t-16.5 -114.5t-24 -117.5q-22 -103 -44.5 -180t-59 -153.5t-81 -124.5t-109.5 -78t-145 -30q-82 0 -142.5 42.5t-70.5 115.5h-4 l-102 -489h-395zM530 331.5q2 -20.5 9 -36.5t20 -22.5t33 -6.5q56 0 85.5 61t63.5 226q12 58 18.5 95.5t10.5 73t2 55.5t-8.5 36t-19.5 22.5t-33 6.5q-57 0 -85.5 -60t-64.5 -229q-12 -56 -18.5 -93.5t-10.5 -72.5t-2 -55.5z" />
<glyph unicode="&#xff;" horiz-adv-x="985" d="M31 -342l53 258q52 -6 102 -6t78 31q27 27 35 59l-78 1108h410l-39 -672h4l229 672h398l-512 -1098q-37 -76 -60.5 -120t-57 -92t-65.5 -73t-78 -47t-103 -30t-132 -8q-99 0 -184 18zM412 1217l61 294h295l-61 -294h-295zM784 1217l62 294h295l-62 -294h-295z" />
<glyph unicode="&#x152;" horiz-adv-x="1554" d="M133 254q-4 62 4 138.5t22 154.5t32 167q3 11 4 17q22 108 41 187t47 163t59 142t74.5 112t96.5 86t122 51t153 19q68 0 131 -20t95 -68l12 59h768l-70 -332h-432l-47 -225h402l-66 -319h-401l-54 -254h451l-68 -332h-786l10 51q-112 -80 -254 -80q-92 0 -158 20.5 t-105 57t-59 90t-24 115.5zM551 326q0 -48 16 -66t51 -18q24 0 40 5.5t33 27t29 50.5t29.5 90t33.5 130.5t42 185.5q23 112 36.5 185.5t21 131.5t7 89t-9 51.5t-22.5 26.5t-37 6t-39.5 -6t-33 -26.5t-30 -51.5t-30 -89t-33 -131.5t-39.5 -185.5q-65 -295 -65 -405z" />
<glyph unicode="&#x153;" horiz-adv-x="1519" d="M114 367.5q6 82.5 27 187.5q21 103 49.5 185.5t75 158.5t106.5 127t147 81t194 30q123 0 197 -38t83 -85q100 123 316 123q68 0 121.5 -11t91 -27.5t62.5 -49t40 -60t19 -78t4 -86t-9.5 -100t-17.5 -104t-23 -113.5l-4 -19h-544l-31 -145q-4 -26 -6 -38t-2 -35.5t6 -35 t20.5 -21t38.5 -9.5q55 0 80 43t45 141h361q-42 -200 -167.5 -309t-326.5 -109q-52 0 -90.5 4.5t-79 17t-67.5 40t-39 69.5q-99 -131 -345 -131q-101 0 -170 30t-105.5 80.5t-49.5 127t-7 159zM500 290q3 -37 17 -49t42 -12q20 0 34.5 4.5t27.5 20t23 35.5t22 61t22.5 85.5 t26.5 119.5q22 113 31 169.5t7 95.5t-15.5 49t-43.5 10q-39 0 -62 -23.5t-44 -90.5t-49 -210q-23 -105 -32.5 -166.5t-6.5 -98.5zM1092 698h172l14 66q16 82 3 110.5t-62 28.5q-45 0 -70.5 -30t-42.5 -109z" />
<glyph unicode="&#x178;" horiz-adv-x="1101" d="M281 1462h454l10 -510h5l233 510h444l-553 -887l-118 -575h-410l119 575zM537 1556l61 295h295l-62 -295h-294zM909 1556l62 295h295l-62 -295h-295z" />
<glyph unicode="&#x2c6;" horiz-adv-x="532" d="M184 1217l178 294h422l60 -294h-271l-24 165l-107 -165h-258z" />
<glyph unicode="&#x2dc;" horiz-adv-x="532" d="M170 1217q36 122 106.5 208t161.5 86q45 0 123 -36q7 -3 22 -10.5t22.5 -10.5t19.5 -7.5t21 -6.5t18 -2q47 0 71 73h185q-27 -120 -106 -207t-189 -87q-47 0 -88.5 18.5t-71.5 36.5t-49 18q-43 0 -62 -73h-184z" />
<glyph unicode="&#x2000;" horiz-adv-x="1012" />
<glyph unicode="&#x2001;" horiz-adv-x="2025" />
<glyph unicode="&#x2002;" horiz-adv-x="1012" />
<glyph unicode="&#x2003;" horiz-adv-x="2025" />
<glyph unicode="&#x2004;" horiz-adv-x="675" />
<glyph unicode="&#x2005;" horiz-adv-x="506" />
<glyph unicode="&#x2006;" horiz-adv-x="337" />
<glyph unicode="&#x2007;" horiz-adv-x="337" />
<glyph unicode="&#x2008;" horiz-adv-x="253" />
<glyph unicode="&#x2009;" horiz-adv-x="405" />
<glyph unicode="&#x200a;" horiz-adv-x="112" />
<glyph unicode="&#x2010;" horiz-adv-x="757" d="M135 428l70 332h663l-69 -332h-664z" />
<glyph unicode="&#x2011;" horiz-adv-x="757" d="M135 428l70 332h663l-69 -332h-664z" />
<glyph unicode="&#x2012;" horiz-adv-x="757" d="M135 428l70 332h663l-69 -332h-664z" />
<glyph unicode="&#x2013;" d="M90 434l66 320h1024l-66 -320h-1024z" />
<glyph unicode="&#x2014;" horiz-adv-x="2048" d="M90 434l66 320h2048l-66 -320h-2048z" />
<glyph unicode="&#x2018;" horiz-adv-x="532" d="M225 672l66 315q20 95 40 159t54.5 127t81 100.5t117.5 61.5t166 27l-39 -184q-53 -5 -81.5 -19t-51.5 -53.5t-39 -115.5h133l-86 -418h-361z" />
<glyph unicode="&#x2019;" horiz-adv-x="532" d="M225 672l37 184q76 5 111.5 41.5t62.5 146.5h-133l86 418h361l-66 -315q-20 -95 -40 -159t-54.5 -127t-81 -100.5t-117.5 -61.5t-166 -27z" />
<glyph unicode="&#x201a;" horiz-adv-x="532" d="M10 -360l39 184q74 5 109.5 41.5t62.5 146.5h-133l86 418h361l-66 -315q-20 -95 -40 -159t-54.5 -127t-81 -100.5t-117.5 -61.5t-166 -27z" />
<glyph unicode="&#x201c;" d="M225 672l66 315q20 95 40 159t54.5 127t81 100.5t117.5 61.5t166 27l-39 -184q-53 -5 -81.5 -19t-51.5 -53.5t-39 -115.5h133l-86 -418h-361zM717 672l65 315q20 95 40 159t54.5 127t81 100.5t117.5 61.5t166 27l-39 -184q-53 -5 -81.5 -19t-51.5 -53.5t-39 -115.5h133 l-86 -418h-360z" />
<glyph unicode="&#x201d;" d="M225 672l37 184q76 5 111.5 41.5t62.5 146.5h-133l86 418h361l-66 -315q-20 -95 -40 -159t-54.5 -127t-81 -100.5t-117.5 -61.5t-166 -27zM717 672l37 184q76 5 111.5 41.5t62.5 146.5h-133l86 418h360l-65 -315q-20 -95 -40 -159t-54.5 -127t-81 -100.5t-117.5 -61.5 t-166 -27z" />
<glyph unicode="&#x201e;" d="M10 -360l39 184q74 5 109.5 41.5t62.5 146.5h-133l86 418h361l-66 -315q-20 -95 -40 -159t-54.5 -127t-81 -100.5t-117.5 -61.5t-166 -27zM502 -360l39 184q74 5 109.5 41.5t62.5 146.5h-133l86 418h360l-65 -315q-20 -95 -40 -159t-54.5 -127t-81 -100.5t-117.5 -61.5 t-166 -27z" />
<glyph unicode="&#x2022;" d="M299 731q29 151 158.5 258t281.5 107q153 0 235.5 -106t53.5 -259q-32 -152 -160.5 -258t-279.5 -106t-236 106t-53 258z" />
<glyph unicode="&#x2026;" horiz-adv-x="2048" d="M162 0l90 434h360l-90 -434h-360zM844 0l90 434h360l-90 -434h-360zM1526 0l90 434h360l-90 -434h-360z" />
<glyph unicode="&#x202f;" horiz-adv-x="405" />
<glyph unicode="&#x2039;" horiz-adv-x="495" d="M143 344l103 490l391 206l-72 -344l-209 -102l166 -102l-71 -345z" />
<glyph unicode="&#x203a;" horiz-adv-x="495" d="M102 147l72 345l211 102l-168 102l72 344l305 -206l-102 -490z" />
<glyph unicode="&#x205f;" horiz-adv-x="506" />
<glyph unicode="&#x20ac;" horiz-adv-x="1064" d="M72 414l121 221h81l31 147h-155l118 222h90q62 247 222 354q60 40 137.5 61.5t132 26t129.5 4.5q155 0 250 -27q71 -22 119 -61l-144 -258q-15 16 -22 23t-21.5 16.5t-32.5 17.5q-66 31 -153 31q-88 0 -133 -41q-28 -22 -50 -64.5t-30 -82.5h389l-119 -222h-317l-31 -147 h279l-121 -221h-199q-15 -77 19 -129q48 -56 145 -56q67 0 145 35q74 30 152 105l-68 -320q-65 -32 -151 -53q-113 -25 -234 -25q-239 0 -340 95q-114 104 -75 348h-164z" />
<glyph unicode="&#x2122;" horiz-adv-x="2048" d="M254 1241l47 221h754l-47 -221h-230l-129 -623h-295l129 623h-229zM1001 618l177 844h397l45 -487h4l250 487h397l-176 -844h-270l114 549h-4l-282 -549h-209l-53 549h-5l-114 -549h-271z" />
<glyph unicode="&#x25fc;" horiz-adv-x="1105" d="M0 0v1106h1106v-1106h-1106z" />
</font>
</defs>
</svg>
