<?xml version="1.0" standalone="no"?>
<!DOCTYPE svg PUBLIC "-//W3C//DTD SVG 1.1//EN" "http://www.w3.org/Graphics/SVG/1.1/DTD/svg11.dtd" >
<svg xmlns="http://www.w3.org/2000/svg" xmlns:xlink="http://www.w3.org/1999/xlink" version="1.1">
<metadata></metadata>
<defs>
<font id="helvetica_neue_lt_probold" horiz-adv-x="983" >
<font-face units-per-em="2048" ascent="1462" descent="-586" />
<missing-glyph horiz-adv-x="491" />
<glyph unicode="&#xfb01;" horiz-adv-x="1099" d="M12 909v193h144v125q0 143 75 203.5t220 60.5q75 0 151 -6v-201q-10 2 -29 2h-26q-60 0 -84.5 -20t-24.5 -68v-96h164v-193h-164v-909h-282v909h-144zM713 0v1102h282v-1102h-282zM713 1237v242h282v-242h-282z" />
<glyph unicode="&#xfb02;" horiz-adv-x="1099" d="M12 909v193h144v125q0 143 75 203.5t220 60.5q75 0 151 -6v-201q-10 2 -29 2h-26q-60 0 -84.5 -20t-24.5 -68v-96h164v-193h-164v-909h-282v909h-144zM713 0v1479h282v-1479h-282z" />
<glyph horiz-adv-x="1024" />
<glyph horiz-adv-x="1024" />
<glyph horiz-adv-x="682" />
<glyph unicode="&#xd;" horiz-adv-x="0" />
<glyph unicode=" "  horiz-adv-x="491" />
<glyph unicode="&#x09;" horiz-adv-x="491" />
<glyph unicode="&#xa0;" horiz-adv-x="491" />
<glyph unicode="!" horiz-adv-x="606" d="M162 0v270h282v-270h-282zM162 987v475h282v-475l-38 -579h-205z" />
<glyph unicode="&#x22;" horiz-adv-x="948" d="M147 805v657h254v-657h-254zM547 805v657h254v-657h-254z" />
<glyph unicode="#" d="M0 356v230h178l33 250h-150v229h177l45 356h196l-43 -356h199l45 356h199l-45 -356h149v-229h-176l-33 -250h150v-230h-176l-46 -356h-198l45 356h-201l-43 -356h-199l46 356h-152zM377 586h198l33 250h-200z" />
<glyph unicode="$" d="M18 391v43h283q0 -51 3.5 -84.5t15 -70t36.5 -59t64 -32.5v414l-103 37q-280 101 -280 393q0 187 99 292t284 126v141h131v-141q379 -34 379 -387v-29h-283q-2 84 -23.5 133.5t-72.5 65.5v-387l162 -66q63 -28 104.5 -54.5t77.5 -68.5t53 -103t17 -144 q0 -216 -103 -320.5t-311 -118.5v-178h-131v178q-99 8 -171.5 34t-116 63.5t-70 91t-35.5 108t-9 123.5zM319 1077q0 -114 101 -172v328q-101 -29 -101 -156zM551 188q60 13 89.5 58t29.5 106q0 76 -28.5 121.5t-90.5 77.5v-363z" />
<glyph unicode="%" horiz-adv-x="1593" d="M55 1059q0 105 12.5 173.5t45.5 120t94 74.5t155 23t155 -23t94.5 -74.5t46 -120t12.5 -173.5t-12.5 -173.5t-46 -120t-94.5 -74.5t-155 -23t-155 23t-94 74.5t-45.5 120t-12.5 173.5zM272 1067q0 -69 2.5 -108.5t11.5 -73.5t27.5 -48t48.5 -14t48.5 14t27.5 48t12 73.5 t3 108.5q0 123 -17 175t-74 52t-73.5 -51.5t-16.5 -175.5zM287 -63l831 1548h182l-831 -1548h-182zM924 362q0 105 12.5 173.5t45.5 120.5t94 75t155 23t155 -23t94 -75t45.5 -120.5t12.5 -173.5t-12.5 -173.5t-45.5 -120t-94 -74.5t-155 -23t-155 23t-94 74.5t-45.5 120 t-12.5 173.5zM1141 371q0 -69 2.5 -108.5t11.5 -73.5t27.5 -48t48.5 -14t48.5 14t27.5 48t11.5 73.5t2.5 108.5q0 124 -16.5 175.5t-73.5 51.5t-73.5 -51.5t-16.5 -175.5z" />
<glyph unicode="&#x26;" horiz-adv-x="1214" d="M25 393q0 236 294 422l-51 76q-59 85 -78.5 141t-19.5 123q0 140 103.5 223.5t269.5 83.5q180 0 272 -85t92 -220q0 -108 -61 -196t-193 -183l219 -297q23 46 37.5 110t14.5 111h254q0 -219 -150 -432l193 -270h-314l-82 113q-56 -66 -149.5 -104t-202.5 -38 q-106 0 -188 28.5t-129.5 72t-78.5 102.5t-41.5 111.5t-10.5 107.5zM307 393q0 -74 55.5 -133t149.5 -59q116 0 190 92l-245 348q-83 -65 -116.5 -122t-33.5 -126zM412 1163q0 -61 73 -159l35 -50l53 45q93 77 93 160q0 59 -35.5 91t-93.5 32q-55 0 -90 -31.5t-35 -87.5z " />
<glyph unicode="'" horiz-adv-x="532" d="M139 805v657h254v-657h-254z" />
<glyph unicode="(" horiz-adv-x="606" d="M102 543q0 464 287 919h217q-127 -233 -180 -444.5t-53 -474.5t53 -475t180 -445h-217q-287 455 -287 920z" />
<glyph unicode=")" horiz-adv-x="606" d="M0 -377q127 233 180 445t53 475t-53 474.5t-180 444.5h217q287 -455 287 -919q0 -465 -287 -920h-217z" />
<glyph unicode="*" horiz-adv-x="798" d="M14 1122l52 160l249 -82v262h168v-262l250 82l51 -160l-249 -82l155 -213l-137 -98l-154 213l-153 -213l-137 98l155 213z" />
<glyph unicode="+" horiz-adv-x="1228" d="M96 391v254h391v391h254v-391h392v-254h-392v-391h-254v391h-391z" />
<glyph unicode="," horiz-adv-x="491" d="M111 0v319h270v-266q0 -88 -11.5 -151.5t-41 -116.5t-83.5 -84t-134 -39v143q51 10 78.5 55.5t27.5 106.5v33h-106z" />
<glyph unicode="-" horiz-adv-x="757" d="M90 471v242h578v-242h-578z" />
<glyph unicode="." horiz-adv-x="491" d="M111 0v319h270v-319h-270z" />
<glyph unicode="/" horiz-adv-x="679" d="M-6 -29l463 1520h229l-463 -1520h-229z" />
<glyph unicode="0" d="M37 676q0 101 2.5 170t12.5 157.5t28 147t51.5 120t81 97.5t118.5 59t161 23q133 0 219.5 -37t139.5 -124t74 -216t21 -328q0 -102 -2.5 -170.5t-12 -157t-28 -147t-52 -120t-80.5 -97.5t-118 -59t-161 -23q-107 0 -183 24.5t-129 75t-84.5 136t-45 198t-13.5 271.5z M332 612q0 -187 14.5 -281t47.5 -130.5t98 -36.5q39 0 66 15.5t45.5 48t28.5 91.5t14.5 137.5t4.5 194.5v158q0 187 -14.5 281t-47 130.5t-97.5 36.5q-39 0 -66 -15.5t-46 -48t-29 -91.5t-14.5 -137.5t-4.5 -194.5v-158z" />
<glyph unicode="1" d="M84 1024v193h27q148 0 232.5 56.5t107.5 176.5h217v-1450h-295v1024h-289z" />
<glyph unicode="2" d="M37 0q0 188 76 334.5t243 300.5l119 110q95 83 123.5 149.5t28.5 182.5q0 180 -144 180q-42 0 -72.5 -15t-48 -39t-27.5 -62.5t-13 -76t-3 -89.5h-282v55q0 420 450 420q217 0 326 -101.5t109 -293.5q0 -141 -51.5 -246t-174.5 -215l-164 -152q-123 -112 -149 -213h547 v-229h-893z" />
<glyph unicode="3" d="M41 418v6h283q2 -136 35.5 -198t125.5 -62q41 0 71 12.5t47 32.5t27.5 51.5t13.5 63t3 73.5t-4 75.5t-16.5 67t-32.5 55.5t-55 36t-82 14h-99v193h97q86 0 127 65t41 164q0 101 -34.5 145.5t-107.5 44.5q-46 0 -76.5 -16.5t-46 -50.5t-21 -73t-5.5 -95h-271 q0 213 108.5 320.5t317.5 107.5q202 0 310 -92.5t108 -280.5q0 -130 -58 -213t-163 -106v-4q258 -43 258 -342q0 -65 -11 -122t-43.5 -117.5t-83.5 -103.5t-139 -70.5t-204 -27.5q-207 0 -313.5 117t-106.5 330z" />
<glyph unicode="4" d="M29 301v242l481 907h305v-920h139v-229h-139v-301h-270v301h-516zM258 530h287v551h-4z" />
<glyph unicode="5" d="M37 375v39h282q0 -238 144 -238q89 0 130.5 70t41.5 213q0 179 -35.5 243t-134.5 64q-61 0 -96 -35t-43 -98h-265l54 788h755v-229h-534l-31 -330h4q79 109 266 109q81 0 144 -26.5t102 -70t64 -105t35 -125t10 -136.5q0 -101 -12.5 -179t-44.5 -147t-84 -114t-133.5 -71 t-190.5 -26q-106 0 -186 27t-124.5 67.5t-72.5 97.5t-36.5 106.5t-8.5 105.5z" />
<glyph unicode="6" d="M29 649q0 86 1 136.5t5.5 128.5t13.5 126t25.5 111t41 101t61.5 80.5t84.5 65t112 37.5t142.5 15q65 0 122 -11.5t108.5 -38.5t89 -68.5t60 -105.5t24.5 -145h-283q0 88 -31 132t-102 44q-46 0 -78.5 -18.5t-52 -49t-31 -79.5t-15 -100t-3.5 -121v-72h4q38 59 108 92 t164 33t163 -33.5t110.5 -95.5t61 -142.5t19.5 -181.5q0 -518 -469 -518q-85 0 -153 19.5t-115 52.5t-81.5 84t-55 105.5t-32 127.5t-15.5 139t-4 150zM338 451q0 -68 6.5 -116t23 -89t49.5 -61.5t83 -20.5q41 0 70.5 15t46.5 38.5t26.5 62.5t12.5 77.5t3 93.5 q0 148 -36.5 211t-122.5 63q-88 0 -125 -63t-37 -211z" />
<glyph unicode="7" d="M45 1167v254h893v-225q-172 -242 -279.5 -556t-146.5 -640h-309q23 188 72.5 372.5t147 397.5t232.5 397h-610z" />
<glyph unicode="8" d="M29 410q0 141 62.5 237.5t182.5 120.5v4q-56 14 -98.5 45t-65.5 71.5t-33.5 81t-10.5 81.5q0 399 426 399t426 -399q0 -56 -19 -109.5t-68.5 -102.5t-121.5 -67v-4q120 -24 182.5 -120.5t62.5 -237.5q0 -58 -9 -110.5t-38.5 -115t-77.5 -107.5t-135 -75.5t-202 -30.5 t-202 30.5t-135.5 75.5t-78 107.5t-38.5 115t-9 110.5zM324 414q0 -116 37.5 -183t130.5 -67q48 0 82 19t52 54.5t25.5 78t7.5 98.5t-7.5 98.5t-25.5 78t-52 54.5t-82 19q-93 0 -130.5 -67t-37.5 -183zM348 1059q0 -100 38 -151.5t106 -51.5t105.5 51t37.5 152 q0 198 -143 198q-144 0 -144 -198z" />
<glyph unicode="9" d="M29 932q0 518 469 518q84 0 152 -19.5t115 -52.5t81.5 -84t55 -106t32.5 -127.5t16 -139t4 -149.5q0 -111 -2 -176t-11.5 -161t-28 -153t-54 -123.5t-86.5 -102.5t-128 -60.5t-177 -24.5q-83 0 -151.5 18.5t-126 59.5t-91 114.5t-35.5 174.5h283q0 -86 31 -130t102 -44 q46 0 78.5 18.5t52 49t31 79.5t15 100t3.5 121v70h-4q-38 -57 -108 -90t-164 -33t-163 33.5t-110.5 95.5t-61 142.5t-19.5 181.5zM324 971q0 -148 36.5 -211.5t122.5 -63.5q88 0 125 63.5t37 211.5q0 68 -6.5 115.5t-23 88.5t-49.5 61.5t-83 20.5q-51 0 -84 -20.5 t-48.5 -62.5t-21 -88t-5.5 -115z" />
<glyph unicode=":" horiz-adv-x="491" d="M111 0v319h270v-319h-270zM111 748v319h270v-319h-270z" />
<glyph unicode=";" horiz-adv-x="491" d="M111 0v319h270v-266q0 -88 -11.5 -151.5t-41 -116.5t-83.5 -84t-134 -39v143q51 10 78.5 55.5t27.5 106.5v33h-106zM111 748v319h270v-319h-270z" />
<glyph unicode="&#x3c;" horiz-adv-x="1228" d="M96 410v217l1037 426v-254l-693 -281l693 -280v-254z" />
<glyph unicode="=" horiz-adv-x="1228" d="M96 168v254h1037v-254h-1037zM96 614v254h1037v-254h-1037z" />
<glyph unicode="&#x3e;" horiz-adv-x="1228" d="M96 -16v254l692 280l-692 281v254l1037 -426v-217z" />
<glyph unicode="?" horiz-adv-x="985" d="M74 1010v47q0 191 104 306.5t301 115.5q212 0 322 -105.5t110 -290.5q0 -88 -29 -162.5t-100 -156.5l-82 -92q-56 -63 -78 -112t-22 -124v-30h-254v79q0 101 28.5 172t98.5 150l78 88q78 86 78 217q0 80 -36 127t-104 47q-145 0 -145 -225v-51h-270zM332 0v270h282v-270 h-282z" />
<glyph unicode="@" horiz-adv-x="1638" d="M59 731q0 155 60 295.5t162 242.5t242.5 162t295.5 60q153 0 291.5 -45t242.5 -124.5t165 -197t61 -254.5q0 -123 -41 -226t-101.5 -167.5t-133.5 -109.5t-133.5 -63.5t-104.5 -18.5q-124 0 -133 108h-4q-104 -108 -246 -108q-55 0 -108 24t-96 67.5t-69 110.5t-26 146 q0 127 52.5 241t154.5 188.5t231 74.5q163 0 248 -138l27 109h180l-119 -512q-12 -59 -12 -84q0 -41 41 -41q31 0 67.5 26t69 70.5t54.5 113.5t22 146q0 132 -77 241.5t-201.5 169.5t-266.5 60q-118 0 -224 -47.5t-180 -126t-117.5 -182t-43.5 -213.5q0 -153 79.5 -284 t213 -206t286.5 -75q227 0 445 131h182q-229 -324 -676 -324q-155 0 -295.5 60t-242.5 162t-162 242.5t-60 295.5zM612 668q0 -69 41 -117.5t105 -48.5q100 0 168.5 82t68.5 180q0 66 -45 111t-108 45q-94 0 -162 -81t-68 -171z" />
<glyph unicode="A" horiz-adv-x="1138" d="M0 0l387 1462h365l387 -1462h-308l-67 309h-389l-68 -309h-307zM426 551h287l-142 657h-4z" />
<glyph unicode="B" horiz-adv-x="1138" d="M102 0v1462h494q95 0 168 -19t130 -60.5t87.5 -114.5t30.5 -176q0 -121 -56.5 -205.5t-164.5 -114.5v-4q125 -17 195.5 -105.5t70.5 -234.5q0 -71 -14 -132.5t-48 -117t-85.5 -94t-130.5 -61.5t-179 -23h-498zM397 217h115q114 0 176 50t62 171q0 120 -60 169.5 t-166 49.5h-127v-440zM397 862h84q124 0 180 45t56 148t-50.5 146.5t-162.5 43.5h-107v-383z" />
<glyph unicode="C" horiz-adv-x="1099" d="M72 731q0 90 3.5 160.5t12 145t25 130.5t42 110t63 91t87 66t116 43t148.5 14q88 0 158 -18.5t116.5 -47t80.5 -73.5t52.5 -87.5t29 -99.5t13.5 -99.5t3 -96.5h-295q0 163 -39 234t-137 71q-108 0 -146 -122t-38 -441q0 -164 11 -268t36 -159.5t57.5 -75.5t83.5 -20 q43 0 73.5 14t57 52t40 114t13.5 191h295q0 -103 -10.5 -184t-41.5 -159t-81.5 -130t-134.5 -83.5t-197 -31.5q-82 0 -148.5 14t-116 43t-87 66t-63 91t-42 110t-25 130.5t-12 145t-3.5 160.5z" />
<glyph unicode="D" horiz-adv-x="1175" d="M117 0v1462h483q86 0 155 -17t119 -47.5t87 -79t60.5 -105t37 -132.5t19 -153.5t5.5 -175.5q0 -160 -14.5 -277t-49 -210t-92.5 -149.5t-143 -86t-202 -29.5h-465zM412 217h131q62 0 104 17.5t70.5 52.5t43.5 100.5t21 147.5t6 208q0 91 -3 153.5t-12.5 123.5t-26.5 99 t-44.5 68.5t-68.5 44t-96 13.5h-125v-1028z" />
<glyph unicode="E" horiz-adv-x="985" d="M102 0v1462h818v-241h-523v-344h492v-242h-492v-393h543v-242h-838z" />
<glyph unicode="F" horiz-adv-x="948" d="M102 0v1462h818v-241h-523v-344h492v-242h-492v-635h-295z" />
<glyph unicode="G" horiz-adv-x="1138" d="M88 748q0 191 24 325t80.5 230t152 142t235.5 46q236 0 345 -117t109 -346h-282q0 58 -16 111.5t-55.5 94t-96.5 40.5q-106 0 -153.5 -119t-47.5 -393q0 -143 8 -240t29.5 -177t62.5 -118.5t103 -38.5q64 0 123 63t59 171v149h-195v217h478v-788h-217v135h-5 q-54 -86 -128 -125t-179 -39q-90 0 -158 21.5t-115.5 68t-79 108.5t-49.5 153.5t-25 191.5t-7 234z" />
<glyph unicode="H" horiz-adv-x="1138" d="M102 0v1462h295v-559h344v559h295v-1462h-295v649h-344v-649h-295z" />
<glyph unicode="I" horiz-adv-x="528" d="M117 0v1462h295v-1462h-295z" />
<glyph unicode="J" horiz-adv-x="948" d="M31 399v64h270v-45q0 -123 27.5 -176.5t103.5 -53.5t103.5 53.5t27.5 176.5v1044h295v-1052q0 -230 -107 -334.5t-333 -104.5q-91 0 -159.5 23t-111 61.5t-69.5 94.5t-37 116t-10 133z" />
<glyph unicode="K" horiz-adv-x="1099" d="M102 0v1462h295v-585h4l373 585h320l-398 -626l443 -836h-332l-301 600l-109 -166v-434h-295z" />
<glyph unicode="L" horiz-adv-x="948" d="M102 0v1462h295v-1220h523v-242h-818z" />
<glyph unicode="M" horiz-adv-x="1515" d="M109 0v1462h438l209 -1032h4l211 1032h436v-1462h-270v1167h-4l-261 -1167h-229l-260 1167h-4v-1167h-270z" />
<glyph unicode="N" horiz-adv-x="1175" d="M102 0v1462h340l357 -1001h4v1001h270v-1462h-336l-360 1024h-4v-1024h-271z" />
<glyph unicode="O" horiz-adv-x="1138" d="M72 731q0 90 3.5 160.5t12 145t25 130.5t42 110t63 91t87 66t116 43t148.5 14q93 0 166.5 -19.5t125.5 -53t89.5 -88t60 -113.5t35 -142t17 -161.5t4.5 -182.5t-4.5 -182.5t-17 -161.5t-35 -142t-60 -113.5t-89.5 -88t-125.5 -53t-166.5 -19.5q-82 0 -148.5 14t-116 43 t-87 66t-63 91t-42 110t-25 130.5t-12 145t-3.5 160.5zM367 731q0 -105 3 -177.5t11 -137.5t22 -104.5t36.5 -69t54 -42t75.5 -12.5t75.5 12.5t54.5 42t37 69t22 104.5t11 137.5t3 177.5q0 104 -3 176.5t-11 137.5t-22 105t-37 69.5t-54.5 42t-75.5 12.5t-75.5 -12.5 t-54 -42t-36.5 -69.5t-22 -105t-11 -137.5t-3 -176.5z" />
<glyph unicode="P" horiz-adv-x="1062" d="M102 0v1462h516q87 0 157 -25t115 -66t75 -98.5t42.5 -119t12.5 -129.5q0 -220 -124 -330t-341 -110h-158v-584h-295zM397 801h131q91 0 144 55t53 164q0 112 -48.5 168.5t-156.5 56.5h-123v-444z" />
<glyph unicode="Q" horiz-adv-x="1138" d="M72 731q0 90 3.5 160.5t12 145t25 130.5t42 110t63 91t87 66t116 43t148.5 14q93 0 166.5 -19.5t125.5 -53t89.5 -88t60 -113.5t35 -142t17 -161.5t4.5 -182.5q0 -212 -23 -355t-90 -239l158 -160l-174 -157l-174 180q-53 -18 -90 -23q-46 -6 -105 -6q-82 0 -148.5 14 t-116 43t-87 66t-63 91t-42 110t-25 130.5t-12 145t-3.5 160.5zM367 731q0 -105 3 -177.5t11 -137.5t22 -104.5t36.5 -69t54 -42t75.5 -12.5t75.5 12.5t54.5 42t37 69t22 104.5t11 137.5t3 177.5q0 104 -3 176.5t-11 137.5t-22 105t-37 69.5t-54.5 42t-75.5 12.5 t-75.5 -12.5t-54 -42t-36.5 -69.5t-22 -105t-11 -137.5t-3 -176.5z" />
<glyph unicode="R" horiz-adv-x="1138" d="M102 0v1462h545q186 0 287.5 -95.5t101.5 -281.5q0 -309 -243 -360v-4q61 -8 101.5 -28t66.5 -51t40 -86.5t19.5 -118t7.5 -163.5q2 -126 14.5 -183t51.5 -79v-12h-320q-33 44 -37 154l-8 280q-5 90 -46 137t-128 47h-158v-618h-295zM397 823h123q109 0 165 52t56 167 q0 203 -204 203h-140v-422z" />
<glyph unicode="S" horiz-adv-x="1062" d="M45 397v60h295v-43q0 -112 42.5 -169t152.5 -57q73 0 124.5 47t51.5 134q0 96 -55.5 147t-206.5 102q-203 68 -293 167.5t-90 275.5q0 212 118.5 321t333.5 109q101 0 182 -22.5t142.5 -68.5t95 -122.5t33.5 -179.5v-41h-283q0 108 -38 162.5t-122 54.5q-168 0 -168 -170 q0 -72 31.5 -117.5t120.5 -81.5l227 -98q160 -71 219.5 -158.5t59.5 -228.5q0 -227 -131.5 -338t-376.5 -111q-243 0 -354 108t-111 318z" />
<glyph unicode="T" d="M25 1221v241h933v-241h-319v-1221h-295v1221h-319z" />
<glyph unicode="U" horiz-adv-x="1101" d="M84 442v1020h295v-1020q0 -121 37.5 -187.5t134.5 -66.5t134.5 66.5t37.5 187.5v1020h295v-1020q0 -108 -26 -191t-69 -135t-104.5 -85.5t-126.5 -46.5t-141 -13q-78 0 -141.5 11t-126 42.5t-105 82.5t-68.5 136t-26 199z" />
<glyph unicode="V" horiz-adv-x="1062" d="M6 1462h316l206 -1081h7l217 1081h305l-336 -1462h-379z" />
<glyph unicode="W" horiz-adv-x="1556" d="M16 1462h283l162 -1081h4l172 1081h283l172 -1081h4l161 1081h283l-266 -1462h-330l-164 1061h-4l-164 -1061h-329z" />
<glyph unicode="X" horiz-adv-x="1099" d="M12 0l365 739l-336 723h326l188 -473l186 473h322l-340 -723l364 -739h-331l-211 496l-209 -496h-324z" />
<glyph unicode="Y" horiz-adv-x="1064" d="M6 1462h332l192 -565h5l204 565h320l-379 -887v-575h-295v575z" />
<glyph unicode="Z" horiz-adv-x="985" d="M49 0v215l539 1006h-502v241h842v-223l-547 -997h555v-242h-887z" />
<glyph unicode="[" horiz-adv-x="645" d="M164 -377v1839h469v-205h-215v-1429h215v-205h-469z" />
<glyph unicode="\" horiz-adv-x="679" d="M-6 1491h229l463 -1520h-229z" />
<glyph unicode="]" horiz-adv-x="645" d="M12 -172h215v1429h-215v205h469v-1839h-469v205z" />
<glyph unicode="^" horiz-adv-x="1228" d="M115 633l385 788h229l385 -788h-254l-246 506l-245 -506h-254z" />
<glyph unicode="_" horiz-adv-x="1024" d="M0 -154h1024v-102h-1024v102z" />
<glyph unicode="`" horiz-adv-x="454" d="M-33 1528h283l110 -295h-192z" />
<glyph unicode="a" horiz-adv-x="985" d="M57 287q0 153 64 228t215 116l160 43q63 17 87.5 45.5t24.5 83.5q0 135 -131 135q-65 0 -98 -37.5t-33 -105.5v-31h-254v27q0 92 30 159.5t84.5 105.5t122 56t150.5 18q99 0 170.5 -16.5t115.5 -44.5t70 -72t35 -92t9 -112v-580q0 -78 7 -120.5t27 -92.5h-270 q-19 37 -35 115h-4q-48 -83 -110.5 -113.5t-169.5 -30.5q-57 0 -103 19t-76 50t-50.5 72.5t-29 85t-8.5 89.5zM328 317q0 -68 26 -110.5t80 -42.5q67 0 120.5 43t53.5 127v217q-48 -38 -121 -55q-85 -18 -122 -61t-37 -118z" />
<glyph unicode="b" horiz-adv-x="1024" d="M94 0v1462h283v-463h4q45 67 102 99t135 32q175 0 256.5 -137t81.5 -442t-81.5 -442.5t-256.5 -137.5q-85 0 -143.5 34t-105.5 112h-4v-117h-271zM377 551q0 -97 6 -159.5t21.5 -111t45.5 -70.5t76 -22q45 0 74.5 22t45.5 70.5t22 111.5t6 159t-6 159t-22 111t-45 70 t-75 22q-37 0 -63.5 -15t-43 -42.5t-26 -74t-13 -100t-3.5 -130.5z" />
<glyph unicode="c" horiz-adv-x="948" d="M53 551q0 165 32 280.5t94 179.5t139.5 91.5t181.5 27.5q193 0 294 -112.5t101 -312.5h-270q0 221 -127 221q-51 0 -83.5 -22t-49.5 -72.5t-23 -115t-6 -167.5q0 -214 30.5 -299.5t120.5 -85.5q72 0 105 61.5t33 196.5h270q0 -223 -100 -337t-320 -114q-110 0 -186 28.5 t-130.5 95.5t-80 179t-25.5 277z" />
<glyph unicode="d" horiz-adv-x="1024" d="M68 551q0 305 81.5 442t256.5 137q78 0 135 -32t102 -99h4v463h283v-1462h-271v117h-4q-47 -78 -105.5 -112t-143.5 -34q-175 0 -256.5 137.5t-81.5 442.5zM350 551q0 -96 6 -159t22 -111.5t45.5 -70.5t74.5 -22q46 0 76 22t45.5 70.5t21.5 111t6 159.5q0 77 -3.5 130.5 t-13 100t-26 74t-43 42.5t-63.5 15q-46 0 -75 -22t-45 -70t-22 -111t-6 -159z" />
<glyph unicode="e" horiz-adv-x="948" d="M53 561q0 98 8.5 173.5t36.5 153t74.5 128t127.5 82.5t192 32q97 0 168.5 -26.5t116 -72.5t71.5 -118t37 -153t10 -189v-63h-559v-88q0 -110 33.5 -183t105.5 -73q70 0 104 49.5t46 157.5h254q-8 -197 -105 -298.5t-295 -101.5q-67 0 -122.5 12t-96.5 30.5t-73.5 50 t-54 62.5t-37 76.5t-23.5 83t-12.5 91t-5.5 91.5t-1 93zM336 676h289q-5 139 -33.5 200.5t-110.5 61.5q-40 0 -70 -19t-45.5 -52t-22.5 -69.5t-7 -78.5v-43z" />
<glyph unicode="f" horiz-adv-x="606" d="M12 909v193h144v125q0 143 75 203.5t220 60.5q75 0 151 -6v-201q-10 2 -29 2h-26q-60 0 -84.5 -20t-24.5 -68v-96h164v-193h-164v-909h-282v909h-144z" />
<glyph unicode="g" horiz-adv-x="1024" d="M72 569q0 61 3 112.5t12.5 111t24.5 106t41.5 91.5t62 74.5t87 47.5t115.5 18q68 0 128.5 -35.5t98.5 -115.5h4v123h271v-1047q0 -223 -107.5 -327.5t-351.5 -104.5q-180 0 -277.5 77t-97.5 218h270q0 -54 43 -84q47 -31 95 -31q155 0 155 199v145h-4 q-43 -62 -105.5 -98.5t-129.5 -36.5q-171 0 -254.5 131.5t-83.5 425.5zM354 516q0 -63 5.5 -110t20 -89.5t43.5 -65t73 -22.5q85 0 119 81.5t34 234.5q0 204 -31.5 286t-115.5 82q-91 0 -119.5 -83t-28.5 -314z" />
<glyph unicode="h" horiz-adv-x="1024" d="M94 0v1462h283v-473h4q81 141 268 141q281 0 281 -313v-817h-283v760q0 83 -28.5 118t-92.5 35q-149 0 -149 -182v-731h-283z" />
<glyph unicode="i" horiz-adv-x="491" d="M104 0v1102h283v-1102h-283zM104 1237v242h283v-242h-283z" />
<glyph unicode="j" horiz-adv-x="491" d="M-51 -152q12 -4 22 -4h23q71 0 90.5 37.5t19.5 138.5v1082h283v-1178q0 -147 -71 -215.5t-253 -68.5q-32 0 -114 4v204zM104 1237v242h283v-242h-283z" />
<glyph unicode="k" horiz-adv-x="1024" d="M104 0v1462h283v-772h4l285 412h311l-317 -434l364 -668h-311l-236 453l-100 -131v-322h-283z" />
<glyph unicode="l" horiz-adv-x="491" d="M104 0v1462h283v-1462h-283z" />
<glyph unicode="m" horiz-adv-x="1552" d="M94 0v1102h271v-113h4q54 74 120 107.5t158 33.5q99 0 165 -45t89 -131h4q32 86 104.5 131t174.5 45q274 0 274 -329v-801h-282v770q0 71 -26.5 107t-84.5 36q-70 0 -108.5 -47t-38.5 -141v-725h-283v770q0 71 -26.5 107t-84.5 36q-70 0 -108.5 -47t-38.5 -141v-725h-283 z" />
<glyph unicode="n" horiz-adv-x="1024" d="M94 0v1102h271v-129h4q85 157 280 157q281 0 281 -313v-817h-283v760q0 83 -28.5 118t-92.5 35q-149 0 -149 -182v-731h-283z" />
<glyph unicode="o" d="M57 551q0 293 100.5 436t334.5 143h13q116 0 197 -33q85 -35 134 -111t69.5 -180.5t20.5 -254.5q0 -293 -100 -436.5t-334 -143.5h-13q-116 0 -197 33q-85 35 -134.5 111.5t-70 181t-20.5 254.5zM340 551q0 -64 1.5 -108t7 -92t15.5 -79t26.5 -57t42 -38.5t59.5 -12.5 q85 0 118 88t33 299t-33 299t-118 88q-34 0 -59.5 -12.5t-42 -38.5t-26.5 -57t-15.5 -79t-7 -92t-1.5 -108z" />
<glyph unicode="p" horiz-adv-x="1024" d="M94 -360v1462h271v-117h4q47 78 105.5 111.5t143.5 33.5q175 0 256.5 -137t81.5 -442t-81.5 -442.5t-256.5 -137.5q-78 0 -135 32t-102 99h-4v-462h-283zM377 551q0 -97 6 -159.5t21.5 -111t45.5 -70.5t76 -22q45 0 74.5 22t45.5 70.5t22 111.5t6 159t-6 159t-22 111 t-45 70t-75 22q-37 0 -63.5 -15t-43 -42.5t-26 -74t-13 -100t-3.5 -130.5z" />
<glyph unicode="q" horiz-adv-x="1024" d="M68 551q0 305 81.5 442t256.5 137q85 0 143.5 -33.5t105.5 -111.5h4v117h271v-1462h-283v462h-4q-45 -67 -102 -99t-135 -32q-175 0 -256.5 137.5t-81.5 442.5zM350 551q0 -96 6 -159t22 -111.5t45.5 -70.5t74.5 -22q46 0 76 22t45.5 70.5t21.5 111t6 159.5 q0 77 -3.5 130.5t-13 100t-26 74t-43 42.5t-63.5 15q-46 0 -75 -22t-45 -70t-22 -111t-6 -159z" />
<glyph unicode="r" horiz-adv-x="681" d="M94 0v1102h271v-148h4q95 176 254 176q19 0 51 -4v-270q-62 4 -88 4q-85 0 -147 -48.5t-62 -149.5v-662h-283z" />
<glyph unicode="s" horiz-adv-x="909" d="M47 322v38h254v-36q0 -73 38.5 -116.5t109.5 -43.5q68 0 105.5 33t37.5 98q0 49 -27 76.5t-76 48.5l-198 72q-119 42 -177.5 117t-58.5 190q0 70 23.5 128t70.5 104.5t127 72.5t185 26q189 0 283 -80.5t94 -232.5v-45h-254q0 87 -28.5 126.5t-96.5 39.5q-57 0 -95 -31 t-38 -88q0 -44 27.5 -75.5t95.5 -53.5l169 -57q132 -44 188 -117t56 -199q0 -168 -112 -257t-297 -89q-117 0 -197.5 24t-125.5 72t-64 109.5t-19 145.5z" />
<glyph unicode="t" horiz-adv-x="606" d="M12 909v193h144v315h282v-315h164v-193h-164v-596q0 -68 20.5 -94t80.5 -26q27 0 63 4v-197q-126 -12 -184 -12q-84 0 -134.5 13.5t-79.5 50t-38.5 88t-9.5 139.5v630h-144z" />
<glyph unicode="u" horiz-adv-x="1024" d="M94 285v817h283v-760q0 -84 28.5 -119t92.5 -35q149 0 149 183v731h283v-1102h-271v129h-4q-86 -158 -280 -158q-281 0 -281 314z" />
<glyph unicode="v" horiz-adv-x="909" d="M10 1102h295l158 -789h4l149 789h283l-276 -1102h-328z" />
<glyph unicode="w" horiz-adv-x="1441" d="M14 1102h283l129 -783h4l137 783h307l146 -783h4l133 783h270l-237 -1102h-322l-145 782h-4l-137 -782h-328z" />
<glyph unicode="x" horiz-adv-x="946" d="M14 0l299 567l-286 535h295l151 -332l152 332h295l-287 -535l299 -567h-295l-164 360l-164 -360h-295z" />
<glyph unicode="y" horiz-adv-x="909" d="M10 1102h295l164 -762h4l143 762h283l-266 -1028q-26 -100 -47 -165t-48.5 -116.5t-54.5 -79t-69.5 -45t-88.5 -23t-116 -5.5h-115v210q37 -6 74 -6q75 0 110 39.5t41 116.5z" />
<glyph unicode="z" horiz-adv-x="872" d="M49 0v217l440 655h-419v230h753v-217l-440 -656h440v-229h-774z" />
<glyph unicode="{" horiz-adv-x="645" d="M61 459v168q53 0 94.5 48t41.5 118v395q0 131 54.5 202.5t158.5 71.5h182v-205h-62q-46 0 -62.5 -39t-16.5 -108v-340q0 -91 -40.5 -152t-107.5 -73v-4q67 -12 107.5 -73.5t40.5 -152.5v-340q0 -69 16.5 -108t62.5 -39h62v-205h-182q-103 0 -158 71.5t-55 203.5v395 q0 70 -41.5 118t-94.5 48z" />
<glyph unicode="|" horiz-adv-x="454" d="M100 -29v1520h254v-1520h-254z" />
<glyph unicode="}" horiz-adv-x="645" d="M53 -172h62q46 0 63 39t17 108v340q0 92 40.5 153t106.5 73v4q-67 12 -107 73t-40 152v340q0 69 -17 108t-63 39h-62v205h183q104 0 158.5 -71.5t54.5 -202.5v-395q0 -70 41 -118t94 -48v-168q-53 0 -94 -48t-41 -118v-395q0 -132 -55 -203.5t-158 -71.5h-183v205z" />
<glyph unicode="~" horiz-adv-x="1228" d="M141 539q93 176 252 176q106 0 223 -60q93 -48 133 -64t80 -16q55 0 109.5 47t75.5 93l73 -217q-93 -176 -251 -176q-64 0 -119 17t-123 52q-83 43 -122 56.5t-73 13.5q-55 0 -109 -46.5t-75 -92.5z" />
<glyph unicode="&#xa1;" horiz-adv-x="606" d="M162 115l39 579h205l38 -579v-475h-282v475zM162 831v271h282v-271h-282z" />
<glyph unicode="&#xa2;" d="M68 543q0 101 8.5 178t33.5 153.5t67 127.5t112 85.5t166 42.5v156h106v-156q57 -3 104 -15t95 -41t81 -73.5t53.5 -118t20.5 -169.5h-270q0 180 -84 213v-750q28 17 46.5 46t26 68t9.5 68t2 70h270q0 -208 -84.5 -321t-269.5 -136v-180h-106v180q-70 3 -125 19.5 t-105.5 55.5t-84 101.5t-53 162.5t-19.5 233zM350 555q0 -54 0.5 -84t3.5 -78.5t9.5 -77.5t18 -61t30 -51t43.5 -27v750q-63 -23 -84 -109.5t-21 -261.5z" />
<glyph unicode="&#xa3;" d="M10 164q109 70 174.5 165.5t65.5 196.5q0 40 -23 101h-209v168h138q-93 181 -93 290q0 160 113.5 262.5t325.5 102.5q437 0 446 -424h-270q0 104 -37.5 167.5t-122.5 63.5q-90 0 -131 -46t-41 -115q0 -76 53 -185l58 -116h342v-168h-289q10 -30 10 -80q0 -91 -41 -162.5 t-143 -157.5l8 -4q35 15 92 15q26 0 111.5 -31t122.5 -31q35 0 92 22t121 64l90 -192q-150 -99 -305 -99q-45 0 -176.5 37t-196.5 37q-50 0 -94 -13t-107 -44z" />
<glyph unicode="&#xa4;" d="M0 346l102 103q-79 119 -79 262q0 144 79 262l-102 102l125 127l104 -102q119 80 263 80q141 0 262 -80l104 102l125 -127l-102 -102q80 -119 80 -262t-80 -262l102 -103l-125 -127l-104 105q-119 -82 -262 -82q-147 0 -263 82l-104 -105zM240 711q0 -123 68 -194 t184 -71t183.5 71t67.5 194t-67.5 193.5t-183.5 70.5t-184 -70.5t-68 -193.5z" />
<glyph unicode="&#xa5;" d="M-35 1421h305l219 -551h5l229 551h295l-297 -624h188v-168h-268l-23 -47v-88h291v-168h-291v-326h-253v326h-291v168h291v88l-23 47h-268v168h188z" />
<glyph unicode="&#xa6;" horiz-adv-x="454" d="M100 -29v555h254v-555h-254zM100 936v555h254v-555h-254z" />
<glyph unicode="&#xa7;" horiz-adv-x="985" d="M27 627q0 96 48.5 173t135.5 120q-123 92 -123 233q0 118 57 195.5t148.5 110t214.5 32.5q200 0 294.5 -89t94.5 -243h-270q0 61 -29 101q-28 38 -113 38q-59 0 -93 -32.5t-34 -83.5q0 -78 131 -142l244 -114q225 -106 225 -334q0 -79 -45 -166t-114 -125 q110 -89 110 -254q0 -181 -107.5 -269.5t-309.5 -88.5q-206 0 -310 93.5t-104 262.5v31h270v-31q0 -76 40.5 -120t103.5 -44q67 0 101 40t34 97q0 58 -30 97.5t-101 74.5l-252 121q-217 104 -217 316zM268 668q0 -31 18 -62t52 -49l203 -111q32 -17 80 -51q96 79 96 154 q0 54 -30.5 90.5t-108.5 77.5l-197 104q-113 -66 -113 -153z" />
<glyph unicode="&#xa8;" horiz-adv-x="454" d="M-63 1260v241h229v-241h-229zM289 1260v241h229v-241h-229z" />
<glyph unicode="&#xa9;" horiz-adv-x="1638" d="M59 731q0 155 60 295.5t162 242.5t242.5 162t295.5 60t295.5 -60t242.5 -162t162 -242.5t60 -295.5t-60 -295.5t-162 -242.5t-242.5 -162t-295.5 -60t-295.5 60t-242.5 162t-162 242.5t-60 295.5zM289 731q0 -147 68 -271.5t190.5 -198t271.5 -73.5t271.5 73.5t191 198 t68.5 271.5t-68.5 271.5t-191 198t-271.5 73.5t-271.5 -73.5t-190.5 -198t-68 -271.5zM426 737q0 194 113 320.5t305 126.5q142 0 244 -82.5t122 -231.5h-196q-40 138 -180 138q-103 0 -159.5 -75t-56.5 -196q0 -114 58 -192t155 -78q75 0 123.5 38.5t59.5 104.5h205 q-24 -149 -128 -234t-241 -85q-127 0 -224.5 60t-148.5 161t-51 225z" />
<glyph unicode="&#xaa;" horiz-adv-x="643" d="M20 940q0 96 41.5 142t141.5 67l119 25q40 10 56.5 26t16.5 43q0 76 -76 76q-40 0 -61.5 -22t-21.5 -58v-18h-193v26q0 203 281 203q86 0 142.5 -14t84.5 -43.5t38.5 -63t10.5 -82.5v-352q0 -77 23 -129h-205q-6 10 -10 21t-8 29.5t-5 21.5q-34 -52 -75 -69t-117 -17 q-94 0 -138.5 55.5t-44.5 132.5zM225 969q0 -38 16.5 -62t49.5 -24q41 0 72.5 23.5t31.5 72.5v121q-29 -20 -71 -31q-53 -10 -76 -34t-23 -66z" />
<glyph unicode="&#xab;" horiz-adv-x="872" d="M106 426v332l306 246v-271l-162 -141l162 -141v-271zM461 426v332l305 246v-271l-162 -141l162 -141v-271z" />
<glyph unicode="&#xac;" horiz-adv-x="1228" d="M96 614v254h1037v-667h-254v413h-783z" />
<glyph unicode="&#xad;" horiz-adv-x="757" d="M90 471v242h578v-242h-578z" />
<glyph unicode="&#xae;" horiz-adv-x="1638" d="M59 731q0 155 60 295.5t162 242.5t242.5 162t295.5 60t295.5 -60t242.5 -162t162 -242.5t60 -295.5t-60 -295.5t-162 -242.5t-242.5 -162t-295.5 -60t-295.5 60t-242.5 162t-162 242.5t-60 295.5zM289 731q0 -147 68 -271.5t190.5 -198t271.5 -73.5t271.5 73.5t191 198 t68.5 271.5t-68.5 271.5t-191 198t-271.5 73.5t-271.5 -73.5t-190.5 -198t-68 -271.5zM522 322v819h320q315 0 315 -254q0 -99 -56.5 -158t-146.5 -70l203 -337h-196l-193 329h-66v-329h-180zM702 795h138q68 0 102.5 20.5t34.5 81.5q0 32 -14 53.5t-39.5 30.5t-48.5 12.5 t-54 3.5h-119v-202z" />
<glyph unicode="&#xaf;" horiz-adv-x="454" d="M-74 1303v155h602v-155h-602z" />
<glyph unicode="&#xb0;" horiz-adv-x="819" d="M106 1147q0 127 88 215t216 88t215.5 -88t87.5 -215t-87.5 -215t-215.5 -88t-216 88t-88 215zM262 1147q0 -61 43 -104.5t105 -43.5q61 0 104 43t43 105q0 61 -42.5 104t-104.5 43t-105 -43t-43 -104z" />
<glyph unicode="&#xb1;" horiz-adv-x="1228" d="M96 0v254h1037v-254h-1037zM96 561v254h391v221h254v-221h392v-254h-392v-221h-254v221h-391z" />
<glyph unicode="&#xb2;" horiz-adv-x="638" d="M0 573q0 121 47.5 213.5t159.5 171.5l102 74q58 41 79.5 78.5t21.5 87.5q0 42 -24 69t-64 27q-105 0 -105 -149h-217v51q0 126 78 190t250 64q159 0 235 -58.5t76 -162.5q0 -88 -29 -147t-106 -119l-117 -91q-94 -71 -108 -131h360v-168h-639z" />
<glyph unicode="&#xb3;" horiz-adv-x="638" d="M0 831v21h217q4 -137 100 -137q47 0 70 30t23 78q0 129 -123 129h-58v144h58q56 0 83 31t27 77q0 39 -23.5 64.5t-60.5 25.5q-94 0 -94 -123h-205q0 140 74 211q71 68 223 68q155 0 229 -53.5t74 -169.5q0 -79 -37.5 -130t-105.5 -65v-4q168 -31 168 -205 q0 -264 -346 -264q-293 0 -293 272z" />
<glyph unicode="&#xb4;" horiz-adv-x="454" d="M94 1233l111 295h282l-200 -295h-193z" />
<glyph unicode="&#xb5;" horiz-adv-x="1024" d="M94 -360v1462h283v-760q0 -84 28.5 -119t92.5 -35q149 0 149 183v731h283v-1102h-271v129h-4q-42 -77 -102 -117.5t-115 -40.5q-31 0 -61 17v-348h-283z" />
<glyph unicode="&#xb6;" d="M2 1067q0 114 29 193t85 122.5t126.5 61.5t165.5 18h548v-1745h-217v1553h-149v-1553h-217v969q-183 0 -277 97.5t-94 283.5z" />
<glyph unicode="&#xb7;" horiz-adv-x="491" d="M47 578q0 85 57 141.5t142 56.5t141.5 -56.5t56.5 -141.5t-56.5 -142t-141.5 -57t-142 57t-57 142z" />
<glyph unicode="&#xb8;" horiz-adv-x="454" d="M0 -406l39 95q60 -31 141 -31q44 0 73.5 19t29.5 49t-24 46.5t-66 18.5q-35 0 -70 -12l-45 41l117 180h106l-78 -119q31 10 68 10q72 0 124 -39.5t48 -107.5q0 -91 -66.5 -139.5t-191.5 -48.5q-63 0 -120.5 11.5t-84.5 26.5z" />
<glyph unicode="&#xb9;" horiz-adv-x="638" d="M49 1167v144h17q197 0 223 139h176v-877h-229v594h-187z" />
<glyph unicode="&#xba;" horiz-adv-x="643" d="M25 1100q0 179 67 264.5t230 85.5q169 4 232.5 -80t63.5 -270q0 -178 -66.5 -263t-229.5 -85q-87 -2 -145.5 19t-91.5 67t-46.5 108.5t-13.5 153.5zM229 1100q0 -53 3 -88t12.5 -66.5t28.5 -47t49 -15.5q51 0 71.5 49.5t20.5 167.5t-20.5 168.5t-71.5 50.5 q-30 0 -49 -15.5t-28.5 -48t-12.5 -67.5t-3 -88z" />
<glyph unicode="&#xbb;" horiz-adv-x="872" d="M106 180v271l162 141l-162 141v271l306 -246v-332zM461 180v271l162 141l-162 141v271l305 -246v-332z" />
<glyph unicode="&#xbc;" horiz-adv-x="1476" d="M0 1167v144h16q198 0 224 139h176v-877h-230v594h-186zM197 -63l831 1548h182l-831 -1548h-182zM821 158v186l312 533h253v-551h91v-168h-91v-158h-217v158h-348zM989 326h180v297h-4z" />
<glyph unicode="&#xbd;" horiz-adv-x="1476" d="M0 1167v144h16q198 0 224 139h176v-877h-230v594h-186zM147 -63l832 1548h182l-831 -1548h-183zM838 0q0 122 47 214t159 171l103 74q57 41 78.5 78.5t21.5 87.5q0 42 -24 69t-64 27q-104 0 -104 -150h-217v52q0 126 77.5 190t249.5 64q159 0 235.5 -59t76.5 -163 q0 -87 -29.5 -146.5t-106.5 -119.5l-116 -90q-95 -72 -109 -131h361v-168h-639z" />
<glyph unicode="&#xbe;" horiz-adv-x="1476" d="M0 831v21h217q4 -137 100 -137q47 0 70 30t23 78q0 129 -123 129h-58v144h58q56 0 83 31t27 77q0 39 -23.5 64.5t-60.5 25.5q-94 0 -94 -123h-205q0 140 74 211q71 68 223 68q155 0 229 -53.5t74 -169.5q0 -79 -37.5 -130t-105.5 -65v-4q168 -31 168 -205 q0 -264 -346 -264q-293 0 -293 272zM276 -63l832 1548h182l-831 -1548h-183zM821 158v186l312 533h253v-551h91v-168h-91v-158h-217v158h-348zM989 326h180v297h-4z" />
<glyph unicode="&#xbf;" horiz-adv-x="985" d="M74 18q0 88 29 163t100 157l82 92q56 63 78 112t22 124v30h254v-80q0 -101 -28.5 -171.5t-98.5 -149.5l-78 -88q-78 -86 -78 -217q0 -80 36 -127t104 -47q145 0 145 225v51h270v-47q0 -191 -104 -306.5t-301 -115.5q-212 0 -322 105t-110 290zM371 831v271h282v-271h-282 z" />
<glyph unicode="&#xc0;" horiz-adv-x="1138" d="M0 0l387 1462h365l387 -1462h-308l-67 309h-389l-68 -309h-307zM303 1843h283l110 -295h-192zM426 551h287l-142 657h-4z" />
<glyph unicode="&#xc1;" horiz-adv-x="1138" d="M0 0l387 1462h365l387 -1462h-308l-67 309h-389l-68 -309h-307zM426 551h287l-142 657h-4zM434 1548l111 295h282l-200 -295h-193z" />
<glyph unicode="&#xc2;" horiz-adv-x="1138" d="M0 0l387 1462h365l387 -1462h-308l-67 309h-389l-68 -309h-307zM260 1548l160 295h295l159 -295h-217l-94 174l-98 -174h-205zM426 551h287l-142 657h-4z" />
<glyph unicode="&#xc3;" horiz-adv-x="1138" d="M0 0l387 1462h365l387 -1462h-308l-67 309h-389l-68 -309h-307zM248 1567q36 254 190 254q54 0 88 -15l99 -43q30 -12 61 -12q26 0 41.5 24.5t15.5 49.5h148q-11 -112 -62.5 -183t-128.5 -71q-46 0 -129 34.5t-114 34.5q-51 0 -66 -73h-143zM426 551h287l-142 657h-4z " />
<glyph unicode="&#xc4;" horiz-adv-x="1138" d="M0 0l387 1462h365l387 -1462h-308l-67 309h-389l-68 -309h-307zM279 1579v242h229v-242h-229zM426 551h287l-142 657h-4zM631 1579v242h229v-242h-229z" />
<glyph unicode="&#xc5;" horiz-adv-x="1138" d="M0 0l387 1462h365l387 -1462h-308l-67 309h-389l-68 -309h-307zM340 1729q0 98 67 161.5t164 63.5t164.5 -63.5t67.5 -161.5q0 -99 -67 -160.5t-165 -61.5q-100 0 -165.5 61t-65.5 161zM426 551h287l-142 657h-4zM455 1729q0 -50 33.5 -83.5t82.5 -33.5t83 34t34 83 t-33.5 82.5t-83.5 33.5q-49 0 -82.5 -33.5t-33.5 -82.5z" />
<glyph unicode="&#xc6;" horiz-adv-x="1554" d="M-10 0l551 1462h948v-241h-481v-344h450v-242h-450v-393h501v-242h-784v309h-326l-102 -309h-307zM479 551h246v682h-18z" />
<glyph unicode="&#xc7;" horiz-adv-x="1099" d="M72 731q0 90 3.5 160.5t12 145t25 130.5t42 110t63 91t87 66t116 43t148.5 14q88 0 158 -18.5t116.5 -47t80.5 -73.5t52.5 -87.5t29 -99.5t13.5 -99.5t3 -96.5h-295q0 163 -39 234t-137 71q-108 0 -146 -122t-38 -441q0 -164 11 -268t36 -159.5t57.5 -75.5t83.5 -20 q43 0 73.5 14t57 52t40 114t13.5 191h295q0 -97 -10 -174t-34.5 -150t-70.5 -128t-114 -89q-80 -41 -201 -47l-59 -90q31 10 67 10q72 0 124 -39.5t48 -107.5q0 -91 -66.5 -139.5t-191.5 -48.5q-63 0 -120 11.5t-84 26.5l38 95q60 -31 142 -31q44 0 73 19t29 49t-24 46.5 t-66 18.5q-36 0 -70 -12l-45 41l101 155q-119 9 -195 52q-73 43 -120.5 109.5t-71.5 162t-32.5 194t-8.5 238.5z" />
<glyph unicode="&#xc8;" horiz-adv-x="985" d="M102 0v1462h818v-241h-523v-344h492v-242h-492v-393h543v-242h-838zM260 1843h283l110 -295h-192z" />
<glyph unicode="&#xc9;" horiz-adv-x="985" d="M102 0v1462h818v-241h-523v-344h492v-242h-492v-393h543v-242h-838zM408 1548l110 295h283l-201 -295h-192z" />
<glyph unicode="&#xca;" horiz-adv-x="985" d="M102 0v1462h818v-241h-523v-344h492v-242h-492v-393h543v-242h-838zM207 1548l160 295h295l159 -295h-217l-94 174l-98 -174h-205z" />
<glyph unicode="&#xcb;" horiz-adv-x="985" d="M102 0v1462h818v-241h-523v-344h492v-242h-492v-393h543v-242h-838zM217 1575v242h229v-242h-229zM569 1575v242h230v-242h-230z" />
<glyph unicode="&#xcc;" horiz-adv-x="528" d="M20 1843h283l111 -295h-193zM117 0v1462h295v-1462h-295z" />
<glyph unicode="&#xcd;" horiz-adv-x="528" d="M117 0v1462h295v-1462h-295zM119 1548l110 295h283l-201 -295h-192z" />
<glyph unicode="&#xce;" horiz-adv-x="528" d="M-39 1548l160 295h295l159 -295h-217l-94 174l-98 -174h-205zM117 0v1462h295v-1462h-295z" />
<glyph unicode="&#xcf;" horiz-adv-x="528" d="M-25 1575v242h230v-242h-230zM117 0v1462h295v-1462h-295zM328 1575v242h229v-242h-229z" />
<glyph unicode="&#xd0;" horiz-adv-x="1175" d="M0 645v217h117v600h483q86 0 155 -17t119 -47.5t87 -79t60.5 -105t37 -132.5t19 -153.5t5.5 -175.5q0 -160 -14.5 -277t-49 -210t-92.5 -149.5t-143 -86t-202 -29.5h-465v645h-117zM412 217h131q62 0 104 17.5t70.5 52.5t43.5 100.5t21 147.5t6 208q0 91 -3 153.5 t-12.5 123.5t-26.5 99t-44.5 68.5t-68.5 44t-96 13.5h-125v-383h190v-217h-190v-428z" />
<glyph unicode="&#xd1;" horiz-adv-x="1175" d="M102 0v1462h340l357 -1001h4v1001h270v-1462h-336l-360 1024h-4v-1024h-271zM270 1567q17 123 65.5 188.5t125.5 65.5q53 0 88 -15l98 -43q30 -12 62 -12q26 0 41.5 24.5t15.5 49.5h147q-11 -112 -62 -183t-128 -71q-45 0 -129 34.5t-115 34.5q-50 0 -65 -73h-144z" />
<glyph unicode="&#xd2;" horiz-adv-x="1138" d="M72 731q0 90 3.5 160.5t12 145t25 130.5t42 110t63 91t87 66t116 43t148.5 14q93 0 166.5 -19.5t125.5 -53t89.5 -88t60 -113.5t35 -142t17 -161.5t4.5 -182.5t-4.5 -182.5t-17 -161.5t-35 -142t-60 -113.5t-89.5 -88t-125.5 -53t-166.5 -19.5q-82 0 -148.5 14t-116 43 t-87 66t-63 91t-42 110t-25 130.5t-12 145t-3.5 160.5zM303 1843h283l110 -295h-192zM367 731q0 -105 3 -177.5t11 -137.5t22 -104.5t36.5 -69t54 -42t75.5 -12.5t75.5 12.5t54.5 42t37 69t22 104.5t11 137.5t3 177.5q0 104 -3 176.5t-11 137.5t-22 105t-37 69.5t-54.5 42 t-75.5 12.5t-75.5 -12.5t-54 -42t-36.5 -69.5t-22 -105t-11 -137.5t-3 -176.5z" />
<glyph unicode="&#xd3;" horiz-adv-x="1138" d="M72 731q0 90 3.5 160.5t12 145t25 130.5t42 110t63 91t87 66t116 43t148.5 14q93 0 166.5 -19.5t125.5 -53t89.5 -88t60 -113.5t35 -142t17 -161.5t4.5 -182.5t-4.5 -182.5t-17 -161.5t-35 -142t-60 -113.5t-89.5 -88t-125.5 -53t-166.5 -19.5q-82 0 -148.5 14t-116 43 t-87 66t-63 91t-42 110t-25 130.5t-12 145t-3.5 160.5zM367 731q0 -105 3 -177.5t11 -137.5t22 -104.5t36.5 -69t54 -42t75.5 -12.5t75.5 12.5t54.5 42t37 69t22 104.5t11 137.5t3 177.5q0 104 -3 176.5t-11 137.5t-22 105t-37 69.5t-54.5 42t-75.5 12.5t-75.5 -12.5 t-54 -42t-36.5 -69.5t-22 -105t-11 -137.5t-3 -176.5zM465 1548l110 295h283l-201 -295h-192z" />
<glyph unicode="&#xd4;" horiz-adv-x="1138" d="M72 731q0 90 3.5 160.5t12 145t25 130.5t42 110t63 91t87 66t116 43t148.5 14q93 0 166.5 -19.5t125.5 -53t89.5 -88t60 -113.5t35 -142t17 -161.5t4.5 -182.5t-4.5 -182.5t-17 -161.5t-35 -142t-60 -113.5t-89.5 -88t-125.5 -53t-166.5 -19.5q-82 0 -148.5 14t-116 43 t-87 66t-63 91t-42 110t-25 130.5t-12 145t-3.5 160.5zM266 1548l160 295h295l160 -295h-217l-95 174l-98 -174h-205zM367 731q0 -105 3 -177.5t11 -137.5t22 -104.5t36.5 -69t54 -42t75.5 -12.5t75.5 12.5t54.5 42t37 69t22 104.5t11 137.5t3 177.5q0 104 -3 176.5 t-11 137.5t-22 105t-37 69.5t-54.5 42t-75.5 12.5t-75.5 -12.5t-54 -42t-36.5 -69.5t-22 -105t-11 -137.5t-3 -176.5z" />
<glyph unicode="&#xd5;" horiz-adv-x="1138" d="M72 731q0 90 3.5 160.5t12 145t25 130.5t42 110t63 91t87 66t116 43t148.5 14q93 0 166.5 -19.5t125.5 -53t89.5 -88t60 -113.5t35 -142t17 -161.5t4.5 -182.5t-4.5 -182.5t-17 -161.5t-35 -142t-60 -113.5t-89.5 -88t-125.5 -53t-166.5 -19.5q-82 0 -148.5 14t-116 43 t-87 66t-63 91t-42 110t-25 130.5t-12 145t-3.5 160.5zM246 1567q36 254 190 254q53 0 88 -15l99 -43q30 -12 61 -12q26 0 41.5 24.5t15.5 49.5h148q-11 -112 -62.5 -183t-128.5 -71q-46 0 -129 34.5t-114 34.5q-51 0 -66 -73h-143zM367 731q0 -105 3 -177.5t11 -137.5 t22 -104.5t36.5 -69t54 -42t75.5 -12.5t75.5 12.5t54.5 42t37 69t22 104.5t11 137.5t3 177.5q0 104 -3 176.5t-11 137.5t-22 105t-37 69.5t-54.5 42t-75.5 12.5t-75.5 -12.5t-54 -42t-36.5 -69.5t-22 -105t-11 -137.5t-3 -176.5z" />
<glyph unicode="&#xd6;" horiz-adv-x="1138" d="M72 731q0 90 3.5 160.5t12 145t25 130.5t42 110t63 91t87 66t116 43t148.5 14q93 0 166.5 -19.5t125.5 -53t89.5 -88t60 -113.5t35 -142t17 -161.5t4.5 -182.5t-4.5 -182.5t-17 -161.5t-35 -142t-60 -113.5t-89.5 -88t-125.5 -53t-166.5 -19.5q-82 0 -148.5 14t-116 43 t-87 66t-63 91t-42 110t-25 130.5t-12 145t-3.5 160.5zM281 1575v242h229v-242h-229zM367 731q0 -105 3 -177.5t11 -137.5t22 -104.5t36.5 -69t54 -42t75.5 -12.5t75.5 12.5t54.5 42t37 69t22 104.5t11 137.5t3 177.5q0 104 -3 176.5t-11 137.5t-22 105t-37 69.5t-54.5 42 t-75.5 12.5t-75.5 -12.5t-54 -42t-36.5 -69.5t-22 -105t-11 -137.5t-3 -176.5zM633 1575v242h229v-242h-229z" />
<glyph unicode="&#xd7;" horiz-adv-x="1228" d="M121 201l319 317l-319 318l176 176l317 -320l318 320l176 -176l-320 -318l320 -317l-176 -176l-318 319l-317 -319z" />
<glyph unicode="&#xd8;" horiz-adv-x="1138" d="M72 731q0 90 3.5 160.5t12 145t25 130.5t42 110t63 91t87 66t116 43t148.5 14q150 0 248 -49l53 125l99 -43l-62 -144q95 -87 127.5 -244t32.5 -405q0 -104 -4.5 -182.5t-17 -161.5t-35 -142t-60 -113.5t-89.5 -88t-125.5 -53t-166.5 -19.5q-153 0 -247 49l-54 -124 l-98 43l61 143q-50 45 -82.5 111t-48.5 154t-22 176t-6 208zM367 731q0 -212 12 -303h4l330 772q-47 74 -144 74q-44 0 -75.5 -12.5t-54 -42t-36.5 -69.5t-22 -105t-11 -137.5t-3 -176.5zM426 264q40 -76 143 -76q44 0 75.5 12.5t54.5 42t37 69t22 104.5t11 137.5t3 177.5 q0 207 -12 303h-4z" />
<glyph unicode="&#xd9;" horiz-adv-x="1101" d="M84 442v1020h295v-1020q0 -121 37.5 -187.5t134.5 -66.5t134.5 66.5t37.5 187.5v1020h295v-1020q0 -108 -26 -191t-69 -135t-104.5 -85.5t-126.5 -46.5t-141 -13q-78 0 -141.5 11t-126 42.5t-105 82.5t-68.5 136t-26 199zM289 1843h282l111 -295h-193z" />
<glyph unicode="&#xda;" horiz-adv-x="1101" d="M84 442v1020h295v-1020q0 -121 37.5 -187.5t134.5 -66.5t134.5 66.5t37.5 187.5v1020h295v-1020q0 -108 -26 -191t-69 -135t-104.5 -85.5t-126.5 -46.5t-141 -13q-78 0 -141.5 11t-126 42.5t-105 82.5t-68.5 136t-26 199zM451 1548l110 295h283l-201 -295h-192z" />
<glyph unicode="&#xdb;" horiz-adv-x="1101" d="M84 442v1020h295v-1020q0 -121 37.5 -187.5t134.5 -66.5t134.5 66.5t37.5 187.5v1020h295v-1020q0 -108 -26 -191t-69 -135t-104.5 -85.5t-126.5 -46.5t-141 -13q-78 0 -141.5 11t-126 42.5t-105 82.5t-68.5 136t-26 199zM246 1548l160 295h294l160 -295h-217l-94 174 l-98 -174h-205z" />
<glyph unicode="&#xdc;" horiz-adv-x="1101" d="M84 442v1020h295v-1020q0 -121 37.5 -187.5t134.5 -66.5t134.5 66.5t37.5 187.5v1020h295v-1020q0 -108 -26 -191t-69 -135t-104.5 -85.5t-126.5 -46.5t-141 -13q-78 0 -141.5 11t-126 42.5t-105 82.5t-68.5 136t-26 199zM260 1575v242h229v-242h-229zM612 1575v242h230 v-242h-230z" />
<glyph unicode="&#xdd;" horiz-adv-x="1064" d="M6 1462h332l192 -565h5l204 565h320l-379 -887v-575h-295v575zM442 1552l111 295h283l-201 -295h-193z" />
<glyph unicode="&#xde;" horiz-adv-x="1062" d="M102 0v1462h295v-262h221q87 0 157 -25t115 -66t75 -98.5t42.5 -119t12.5 -129.5q0 -220 -124 -330t-341 -110h-158v-322h-295zM397 539h131q91 0 144 55t53 164q0 112 -48.5 168.5t-156.5 56.5h-123v-444z" />
<glyph unicode="&#xdf;" horiz-adv-x="1024" d="M84 0v1079q0 214 105 313t329 99q196 0 300 -89.5t104 -260.5q0 -119 -39.5 -188t-143.5 -113v-4q228 -38 228 -394q0 -67 -8 -125t-32 -121t-63 -107t-106.5 -72.5t-157.5 -28.5q-94 0 -135 8v192q19 -8 43 -8q105 0 140.5 72.5t35.5 226.5q0 120 -37.5 184t-126.5 64 h-51v193h35q135 0 135 194q0 184 -135 184q-79 0 -108 -57.5t-29 -167.5v-1073h-283z" />
<glyph unicode="&#xe0;" horiz-adv-x="985" d="M57 287q0 153 64 228t215 116l160 43q63 17 87.5 45.5t24.5 83.5q0 135 -131 135q-65 0 -98 -37.5t-33 -105.5v-31h-254v27q0 92 30 159.5t84.5 105.5t122 56t150.5 18q99 0 170.5 -16.5t115.5 -44.5t70 -72t35 -92t9 -112v-580q0 -78 7 -120.5t27 -92.5h-270 q-19 37 -35 115h-4q-48 -83 -110.5 -113.5t-169.5 -30.5q-57 0 -103 19t-76 50t-50.5 72.5t-29 85t-8.5 89.5zM238 1528h282l111 -295h-193zM328 317q0 -68 26 -110.5t80 -42.5q67 0 120.5 43t53.5 127v217q-48 -38 -121 -55q-85 -18 -122 -61t-37 -118z" />
<glyph unicode="&#xe1;" horiz-adv-x="985" d="M57 287q0 153 64 228t215 116l160 43q63 17 87.5 45.5t24.5 83.5q0 135 -131 135q-65 0 -98 -37.5t-33 -105.5v-31h-254v27q0 92 30 159.5t84.5 105.5t122 56t150.5 18q99 0 170.5 -16.5t115.5 -44.5t70 -72t35 -92t9 -112v-580q0 -78 7 -120.5t27 -92.5h-270 q-19 37 -35 115h-4q-48 -83 -110.5 -113.5t-169.5 -30.5q-57 0 -103 19t-76 50t-50.5 72.5t-29 85t-8.5 89.5zM328 317q0 -68 26 -110.5t80 -42.5q67 0 120.5 43t53.5 127v217q-48 -38 -121 -55q-85 -18 -122 -61t-37 -118zM389 1233l111 295h282l-200 -295h-193z" />
<glyph unicode="&#xe2;" horiz-adv-x="985" d="M57 287q0 153 64 228t215 116l160 43q63 17 87.5 45.5t24.5 83.5q0 135 -131 135q-65 0 -98 -37.5t-33 -105.5v-31h-254v27q0 92 30 159.5t84.5 105.5t122 56t150.5 18q99 0 170.5 -16.5t115.5 -44.5t70 -72t35 -92t9 -112v-580q0 -78 7 -120.5t27 -92.5h-270 q-19 37 -35 115h-4q-48 -83 -110.5 -113.5t-169.5 -30.5q-57 0 -103 19t-76 50t-50.5 72.5t-29 85t-8.5 89.5zM184 1233l160 295h295l160 -295h-217l-95 174l-98 -174h-205zM328 317q0 -68 26 -110.5t80 -42.5q67 0 120.5 43t53.5 127v217q-48 -38 -121 -55 q-85 -18 -122 -61t-37 -118z" />
<glyph unicode="&#xe3;" horiz-adv-x="985" d="M57 287q0 153 64 228t215 116l160 43q63 17 87.5 45.5t24.5 83.5q0 135 -131 135q-65 0 -98 -37.5t-33 -105.5v-31h-254v27q0 92 30 159.5t84.5 105.5t122 56t150.5 18q99 0 170.5 -16.5t115.5 -44.5t70 -72t35 -92t9 -112v-580q0 -78 7 -120.5t27 -92.5h-270 q-19 37 -35 115h-4q-48 -83 -110.5 -113.5t-169.5 -30.5q-57 0 -103 19t-76 50t-50.5 72.5t-29 85t-8.5 89.5zM174 1251q17 123 65.5 188.5t125.5 65.5q56 0 88 -14l98 -43q30 -12 61 -12q27 0 42.5 24.5t15.5 48.5h147q-11 -112 -62 -183t-128 -71q-45 0 -129 35t-115 35 q-51 0 -66 -74h-143zM328 317q0 -68 26 -110.5t80 -42.5q67 0 120.5 43t53.5 127v217q-48 -38 -121 -55q-85 -18 -122 -61t-37 -118z" />
<glyph unicode="&#xe4;" horiz-adv-x="985" d="M57 287q0 153 64 228t215 116l160 43q63 17 87.5 45.5t24.5 83.5q0 135 -131 135q-65 0 -98 -37.5t-33 -105.5v-31h-254v27q0 92 30 159.5t84.5 105.5t122 56t150.5 18q99 0 170.5 -16.5t115.5 -44.5t70 -72t35 -92t9 -112v-580q0 -78 7 -120.5t27 -92.5h-270 q-19 37 -35 115h-4q-48 -83 -110.5 -113.5t-169.5 -30.5q-57 0 -103 19t-76 50t-50.5 72.5t-29 85t-8.5 89.5zM203 1260v241h229v-241h-229zM328 317q0 -68 26 -110.5t80 -42.5q67 0 120.5 43t53.5 127v217q-48 -38 -121 -55q-85 -18 -122 -61t-37 -118zM555 1260v241h229 v-241h-229z" />
<glyph unicode="&#xe5;" horiz-adv-x="985" d="M57 287q0 153 64 228t215 116l160 43q63 17 87.5 45.5t24.5 83.5q0 135 -131 135q-65 0 -98 -37.5t-33 -105.5v-31h-254v27q0 92 30 159.5t84.5 105.5t122 56t150.5 18q99 0 170.5 -16.5t115.5 -44.5t70 -72t35 -92t9 -112v-580q0 -78 7 -120.5t27 -92.5h-270 q-19 37 -35 115h-4q-48 -83 -110.5 -113.5t-169.5 -30.5q-57 0 -103 19t-76 50t-50.5 72.5t-29 85t-8.5 89.5zM254 1413q0 98 67 161.5t164 63.5t164.5 -63.5t67.5 -161.5q0 -99 -67 -160t-165 -61q-100 0 -165.5 60.5t-65.5 160.5zM328 317q0 -68 26 -110.5t80 -42.5 q67 0 120.5 43t53.5 127v217q-48 -38 -121 -55q-85 -18 -122 -61t-37 -118zM369 1413q0 -50 33.5 -83.5t82.5 -33.5t83 34t34 83t-34 83t-83 34t-82.5 -33.5t-33.5 -83.5z" />
<glyph unicode="&#xe6;" horiz-adv-x="1478" d="M55 287q0 153 64 228t215 116l160 43q63 17 87.5 45.5t24.5 83.5q0 135 -131 135q-65 0 -98 -37.5t-33 -105.5v-31h-254v27q0 92 30 159.5t84.5 105.5t122 56t150.5 18q113 0 177.5 -28.5t107.5 -102.5q30 62 99 96.5t161 34.5q97 0 168 -26.5t115 -72.5t71 -118t37 -153 t10 -189v-63h-555v-88q0 -110 33.5 -183t104.5 -73q67 0 101 50.5t46 156.5h254q-16 -400 -397 -400q-140 0 -220 54t-112 137q-63 -117 -139.5 -154t-216.5 -37q-57 0 -103 19t-76 50t-50.5 72.5t-29 85t-8.5 89.5zM326 317q0 -68 26 -110.5t80 -42.5q67 0 120.5 43 t53.5 127v217q-48 -38 -121 -55q-85 -18 -122 -61t-37 -118zM868 676h285q-2 56 -6 93.5t-13 72t-24.5 54t-39.5 31t-58 11.5q-75 0 -109.5 -64.5t-34.5 -154.5v-43z" />
<glyph unicode="&#xe7;" horiz-adv-x="948" d="M53 551q0 165 32 280.5t94 179.5t139.5 91.5t181.5 27.5q193 0 294 -112.5t101 -312.5h-270q0 221 -127 221q-51 0 -83.5 -22t-49.5 -72.5t-23 -115t-6 -167.5q0 -214 30.5 -299.5t120.5 -85.5q72 0 105 61.5t33 196.5h270q0 -218 -98 -334q-81 -100 -262 -115l-60 -92 q31 10 68 10q72 0 124 -39.5t48 -107.5q0 -91 -66.5 -139.5t-191.5 -48.5q-63 0 -120.5 11.5t-84.5 26.5l39 95q60 -31 141 -31q44 0 73.5 19t29.5 49t-24.5 46.5t-66.5 18.5q-34 0 -69 -12l-45 41l98 153q-68 3 -139 27q-79 29 -130.5 94.5t-78.5 179t-27 277.5z" />
<glyph unicode="&#xe8;" horiz-adv-x="948" d="M53 561q0 98 8.5 173.5t36.5 153t74.5 128t127.5 82.5t192 32q97 0 168.5 -26.5t116 -72.5t71.5 -118t37 -153t10 -189v-63h-559v-88q0 -110 33.5 -183t105.5 -73q70 0 104 49.5t46 157.5h254q-8 -197 -105 -298.5t-295 -101.5q-67 0 -122.5 12t-96.5 30.5t-73.5 50 t-54 62.5t-37 76.5t-23.5 83t-12.5 91t-5.5 91.5t-1 93zM225 1528h283l110 -295h-192zM336 676h289q-5 139 -33.5 200.5t-110.5 61.5q-40 0 -70 -19t-45.5 -52t-22.5 -69.5t-7 -78.5v-43z" />
<glyph unicode="&#xe9;" horiz-adv-x="948" d="M53 561q0 98 8.5 173.5t36.5 153t74.5 128t127.5 82.5t192 32q97 0 168.5 -26.5t116 -72.5t71.5 -118t37 -153t10 -189v-63h-559v-88q0 -110 33.5 -183t105.5 -73q70 0 104 49.5t46 157.5h254q-8 -197 -105 -298.5t-295 -101.5q-67 0 -122.5 12t-96.5 30.5t-73.5 50 t-54 62.5t-37 76.5t-23.5 83t-12.5 91t-5.5 91.5t-1 93zM336 676h289q-5 139 -33.5 200.5t-110.5 61.5q-40 0 -70 -19t-45.5 -52t-22.5 -69.5t-7 -78.5v-43zM389 1233l111 295h282l-200 -295h-193z" />
<glyph unicode="&#xea;" horiz-adv-x="948" d="M53 561q0 98 8.5 173.5t36.5 153t74.5 128t127.5 82.5t192 32q97 0 168.5 -26.5t116 -72.5t71.5 -118t37 -153t10 -189v-63h-559v-88q0 -110 33.5 -183t105.5 -73q70 0 104 49.5t46 157.5h254q-8 -197 -105 -298.5t-295 -101.5q-67 0 -122.5 12t-96.5 30.5t-73.5 50 t-54 62.5t-37 76.5t-23.5 83t-12.5 91t-5.5 91.5t-1 93zM184 1233l160 295h295l160 -295h-217l-95 174l-98 -174h-205zM336 676h289q-5 139 -33.5 200.5t-110.5 61.5q-40 0 -70 -19t-45.5 -52t-22.5 -69.5t-7 -78.5v-43z" />
<glyph unicode="&#xeb;" horiz-adv-x="948" d="M53 561q0 98 8.5 173.5t36.5 153t74.5 128t127.5 82.5t192 32q97 0 168.5 -26.5t116 -72.5t71.5 -118t37 -153t10 -189v-63h-559v-88q0 -110 33.5 -183t105.5 -73q70 0 104 49.5t46 157.5h254q-8 -197 -105 -298.5t-295 -101.5q-67 0 -122.5 12t-96.5 30.5t-73.5 50 t-54 62.5t-37 76.5t-23.5 83t-12.5 91t-5.5 91.5t-1 93zM201 1260v241h229v-241h-229zM336 676h289q-5 139 -33.5 200.5t-110.5 61.5q-40 0 -70 -19t-45.5 -52t-22.5 -69.5t-7 -78.5v-43zM553 1260v241h229v-241h-229z" />
<glyph unicode="&#xec;" horiz-adv-x="491" d="M-8 1528h282l111 -295h-192zM104 0v1102h283v-1102h-283z" />
<glyph unicode="&#xed;" horiz-adv-x="491" d="M104 0v1102h283v-1102h-283zM104 1233l111 295h283l-201 -295h-193z" />
<glyph unicode="&#xee;" horiz-adv-x="491" d="M-59 1233l159 295h295l160 -295h-217l-94 174l-99 -174h-204zM104 0v1102h283v-1102h-283z" />
<glyph unicode="&#xef;" horiz-adv-x="491" d="M-45 1260v241h229v-241h-229zM104 0v1102h283v-1102h-283zM307 1260v241h230v-241h-230z" />
<glyph unicode="&#xf0;" d="M57 551q0 256 87 397.5t270 141.5q78 0 143 -54l4 4q-65 105 -188 246l-158 -92l-80 86l156 92q-49 49 -135 131l213 125q65 -57 137 -129l153 92l89 -86l-158 -92q171 -189 253.5 -389.5t82.5 -472.5q0 -293 -100 -436.5t-334 -143.5q-125 -2 -210 33t-134.5 111.5 t-70 181t-20.5 254.5zM340 537q0 -62 1.5 -104.5t7 -89t15.5 -76t26.5 -55t42 -37t59.5 -11.5q85 0 118 85.5t33 287.5q0 195 -33 277.5t-118 82.5q-34 0 -59.5 -12t-42 -36.5t-26.5 -54t-15.5 -74t-7 -85t-1.5 -98.5z" />
<glyph unicode="&#xf1;" horiz-adv-x="1024" d="M94 0v1102h271v-129h4q85 157 280 157q281 0 281 -313v-817h-283v760q0 83 -28.5 118t-92.5 35q-149 0 -149 -182v-731h-283zM176 1251q17 123 65.5 188.5t125.5 65.5q56 0 88 -14l98 -43q30 -12 61 -12q27 0 42.5 24.5t15.5 48.5h147q-11 -112 -62 -183t-128 -71 q-45 0 -129 35t-115 35q-51 0 -66 -74h-143z" />
<glyph unicode="&#xf2;" d="M57 551q0 293 100.5 436t334.5 143q125 2 210 -33t134 -111t69.5 -180.5t20.5 -254.5q0 -293 -100 -436.5t-334 -143.5q-125 -2 -210 33t-134.5 111.5t-70 181t-20.5 254.5zM219 1528h283l110 -295h-192zM340 551q0 -64 1.5 -108t7 -92t15.5 -79t26.5 -57t42 -38.5 t59.5 -12.5q85 0 118 88t33 299t-33 299t-118 88q-34 0 -59.5 -12.5t-42 -38.5t-26.5 -57t-15.5 -79t-7 -92t-1.5 -108z" />
<glyph unicode="&#xf3;" d="M57 551q0 293 100.5 436t334.5 143q125 2 210 -33t134 -111t69.5 -180.5t20.5 -254.5q0 -293 -100 -436.5t-334 -143.5q-125 -2 -210 33t-134.5 111.5t-70 181t-20.5 254.5zM340 551q0 -64 1.5 -108t7 -92t15.5 -79t26.5 -57t42 -38.5t59.5 -12.5q85 0 118 88t33 299 t-33 299t-118 88q-34 0 -59.5 -12.5t-42 -38.5t-26.5 -57t-15.5 -79t-7 -92t-1.5 -108zM391 1233l111 295h282l-200 -295h-193z" />
<glyph unicode="&#xf4;" d="M57 551q0 293 100.5 436t334.5 143q125 2 210 -33t134 -111t69.5 -180.5t20.5 -254.5q0 -293 -100 -436.5t-334 -143.5q-125 -2 -210 33t-134.5 111.5t-70 181t-20.5 254.5zM184 1233l160 295h295l160 -295h-217l-95 174l-98 -174h-205zM340 551q0 -64 1.5 -108t7 -92 t15.5 -79t26.5 -57t42 -38.5t59.5 -12.5q85 0 118 88t33 299t-33 299t-118 88q-34 0 -59.5 -12.5t-42 -38.5t-26.5 -57t-15.5 -79t-7 -92t-1.5 -108z" />
<glyph unicode="&#xf5;" d="M57 551q0 293 100.5 436t334.5 143q125 2 210 -33t134 -111t69.5 -180.5t20.5 -254.5q0 -293 -100 -436.5t-334 -143.5q-125 -2 -210 33t-134.5 111.5t-70 181t-20.5 254.5zM170 1251q36 254 190 254q57 0 89 -14l98 -43q30 -12 61 -12q27 0 42.5 24.5t15.5 48.5h147 q-11 -112 -62 -183t-128 -71q-45 0 -129 35t-115 35q-51 0 -66 -74h-143zM340 551q0 -64 1.5 -108t7 -92t15.5 -79t26.5 -57t42 -38.5t59.5 -12.5q85 0 118 88t33 299t-33 299t-118 88q-34 0 -59.5 -12.5t-42 -38.5t-26.5 -57t-15.5 -79t-7 -92t-1.5 -108z" />
<glyph unicode="&#xf6;" d="M57 551q0 293 100.5 436t334.5 143q125 2 210 -33t134 -111t69.5 -180.5t20.5 -254.5q0 -293 -100 -436.5t-334 -143.5q-125 -2 -210 33t-134.5 111.5t-70 181t-20.5 254.5zM201 1260v241h229v-241h-229zM340 551q0 -64 1.5 -108t7 -92t15.5 -79t26.5 -57t42 -38.5 t59.5 -12.5q85 0 118 88t33 299t-33 299t-118 88q-34 0 -59.5 -12.5t-42 -38.5t-26.5 -57t-15.5 -79t-7 -92t-1.5 -108zM553 1260v241h229v-241h-229z" />
<glyph unicode="&#xf7;" horiz-adv-x="1228" d="M96 391v254h1037v-254h-1037zM416 84q0 85 56.5 142t141.5 57t142 -57t57 -142t-57 -142t-142 -57t-141.5 57t-56.5 142zM416 952q0 85 56.5 142t141.5 57t142 -57t57 -142t-57 -141.5t-142 -56.5t-141.5 56.5t-56.5 141.5z" />
<glyph unicode="&#xf8;" d="M57 551q0 293 100.5 436t334.5 143q138 3 223 -43l69 134l90 -47l-75 -144q69 -66 98 -183t29 -296q0 -293 -100 -436.5t-334 -143.5q-142 -3 -224 43l-69 -133l-90 47l75 144q-69 66 -98 183t-29 296zM340 461q0 -30 4 -80h4l252 487q-34 70 -108 70q-34 0 -59.5 -12.5 t-42 -38.5t-26.5 -57t-15.5 -79t-7 -92t-1.5 -108v-90zM381 231q34 -67 111 -67q85 0 118 88t33 299q0 74 -4 168h-4z" />
<glyph unicode="&#xf9;" horiz-adv-x="1024" d="M94 285v817h283v-760q0 -84 28.5 -119t92.5 -35q149 0 149 183v731h283v-1102h-271v129h-4q-86 -158 -280 -158q-281 0 -281 314zM246 1528h282l111 -295h-193z" />
<glyph unicode="&#xfa;" horiz-adv-x="1024" d="M94 285v817h283v-760q0 -84 28.5 -119t92.5 -35q149 0 149 183v731h283v-1102h-271v129h-4q-86 -158 -280 -158q-281 0 -281 314zM410 1233l110 295h283l-201 -295h-192z" />
<glyph unicode="&#xfb;" horiz-adv-x="1024" d="M94 285v817h283v-760q0 -84 28.5 -119t92.5 -35q149 0 149 183v731h283v-1102h-271v129h-4q-86 -158 -280 -158q-281 0 -281 314zM205 1233l160 295h294l160 -295h-217l-94 174l-98 -174h-205z" />
<glyph unicode="&#xfc;" horiz-adv-x="1024" d="M94 285v817h283v-760q0 -84 28.5 -119t92.5 -35q149 0 149 183v731h283v-1102h-271v129h-4q-86 -158 -280 -158q-281 0 -281 314zM221 1260v241h230v-241h-230zM573 1260v241h230v-241h-230z" />
<glyph unicode="&#xfd;" horiz-adv-x="909" d="M10 1102h295l164 -762h4l143 762h283l-266 -1028q-26 -100 -47 -165t-48.5 -116.5t-54.5 -79t-69.5 -45t-88.5 -23t-116 -5.5h-115v210q37 -6 74 -6q75 0 110 39.5t41 116.5zM365 1233l110 295h283l-201 -295h-192z" />
<glyph unicode="&#xfe;" horiz-adv-x="1024" d="M94 -360v1822h283v-477h4q36 77 93.5 111t143.5 34q175 0 256.5 -137t81.5 -442t-81.5 -442.5t-256.5 -137.5q-78 0 -135 32t-102 99h-4v-462h-283zM377 551q0 -97 6 -159.5t21.5 -111t45.5 -70.5t76 -22q45 0 74.5 22t45.5 70.5t22 111.5t6 159t-6 159t-22 111t-45 70 t-75 22q-37 0 -63.5 -15t-43 -42.5t-26 -74t-13 -100t-3.5 -130.5z" />
<glyph unicode="&#xff;" horiz-adv-x="909" d="M10 1102h295l164 -762h4l143 762h283l-266 -1028q-26 -100 -47 -165t-48.5 -116.5t-54.5 -79t-69.5 -45t-88.5 -23t-116 -5.5h-115v210q37 -6 74 -6q75 0 110 39.5t41 116.5zM182 1260v241h230v-241h-230zM535 1260v241h229v-241h-229z" />
<glyph unicode="&#x152;" horiz-adv-x="1593" d="M72 748q0 88 4.5 161t16.5 151.5t32 139.5t54 117.5t79.5 93t110.5 58.5t145 22q202 0 266 -107h4v78h748v-241h-496v-344h465v-242h-465v-393h512v-242h-764v84h-4q-23 -51 -98 -82t-154 -31q-70 0 -128.5 14.5t-102 38.5t-78 63t-58 79.5t-40.5 98t-26 108.5 t-14.5 120.5t-7 125t-1.5 129.5zM367 731q0 -106 2.5 -176t10 -136.5t21 -105.5t36 -69.5t55 -43t77.5 -12.5q33 0 58 5.5t44.5 22t32.5 35t22.5 55t15 72t8 95.5t3.5 115.5t1 142.5t-1 142.5t-3.5 115.5t-8 95.5t-15 72t-22.5 55t-32.5 35t-44.5 22t-58 5.5 q-45 0 -77.5 -12.5t-55 -43t-36 -69.5t-21 -105.5t-10 -136.5t-2.5 -176z" />
<glyph unicode="&#x153;" horiz-adv-x="1517" d="M59 551q0 293 100.5 436t334.5 143q114 0 182 -37t110 -116q40 73 112.5 113t156.5 40q97 0 168.5 -26.5t116 -72.5t71.5 -118t37 -153t10 -189v-63h-559v-88q0 -110 33.5 -183t105.5 -73q70 0 104 50t46 157h254q-16 -400 -383 -400q-119 0 -190 46t-97 116 q-29 -76 -112 -119t-191 -43q-118 0 -198 36t-126.5 111.5t-66 179.5t-19.5 253zM342 551q0 -64 1.5 -107.5t7 -92t16 -79t27.5 -57t43 -39t61 -12.5q83 0 115 88t32 299t-33 299t-118 88q-34 0 -59.5 -12.5t-42 -38.5t-26.5 -57t-15.5 -79t-7 -92t-1.5 -108zM899 676h289 q-5 139 -33.5 200.5t-110.5 61.5q-40 0 -70 -19t-45.5 -52t-22.5 -69.5t-7 -78.5v-43z" />
<glyph unicode="&#x178;" horiz-adv-x="1064" d="M6 1462h332l192 -565h5l204 565h320l-379 -887v-575h-295v575zM242 1575v242h229v-242h-229zM594 1575v242h229v-242h-229z" />
<glyph unicode="&#x2c6;" horiz-adv-x="454" d="M-80 1233l160 295h295l160 -295h-218l-94 174l-98 -174h-205z" />
<glyph unicode="&#x2dc;" horiz-adv-x="454" d="M-94 1251q36 254 190 254q56 0 88 -14l99 -43q30 -12 61 -12q27 0 42 24t15 49h148q-11 -112 -62.5 -183t-128.5 -71q-46 0 -129 35t-114 35q-51 0 -66 -74h-143z" />
<glyph unicode="&#x2000;" horiz-adv-x="977" />
<glyph unicode="&#x2001;" horiz-adv-x="1954" />
<glyph unicode="&#x2002;" horiz-adv-x="977" />
<glyph unicode="&#x2003;" horiz-adv-x="1954" />
<glyph unicode="&#x2004;" horiz-adv-x="651" />
<glyph unicode="&#x2005;" horiz-adv-x="488" />
<glyph unicode="&#x2006;" horiz-adv-x="325" />
<glyph unicode="&#x2007;" horiz-adv-x="325" />
<glyph unicode="&#x2008;" horiz-adv-x="244" />
<glyph unicode="&#x2009;" horiz-adv-x="390" />
<glyph unicode="&#x200a;" horiz-adv-x="108" />
<glyph unicode="&#x2010;" horiz-adv-x="757" d="M90 471v242h578v-242h-578z" />
<glyph unicode="&#x2011;" horiz-adv-x="757" d="M90 471v242h578v-242h-578z" />
<glyph unicode="&#x2012;" horiz-adv-x="757" d="M90 471v242h578v-242h-578z" />
<glyph unicode="&#x2013;" horiz-adv-x="1024" d="M0 477v230h1024v-230h-1024z" />
<glyph unicode="&#x2014;" horiz-adv-x="2048" d="M0 477v230h2048v-230h-2048z" />
<glyph unicode="&#x2018;" horiz-adv-x="532" d="M131 805v266q0 88 11.5 151.5t41 116.5t83.5 84t134 39v-143q-51 -10 -78.5 -55.5t-27.5 -106.5v-33h106v-319h-270z" />
<glyph unicode="&#x2019;" horiz-adv-x="532" d="M131 805v143q52 10 79.5 55.5t27.5 106.5v33h-107v319h270v-266q0 -88 -11.5 -151.5t-41 -116.5t-83.5 -84t-134 -39z" />
<glyph unicode="&#x201a;" horiz-adv-x="532" d="M131 0v319h270v-266q0 -88 -11.5 -151.5t-41 -116.5t-83.5 -84t-134 -39v143q52 10 79.5 55.5t27.5 106.5v33h-107z" />
<glyph unicode="&#x201c;" horiz-adv-x="948" d="M139 805v266q0 87 12 151t41 117t83.5 84t134.5 39v-143q-52 -10 -79.5 -55.5t-27.5 -106.5v-33h107v-319h-271zM539 805v266q0 88 11.5 151.5t41 116.5t83.5 84t134 39v-143q-52 -10 -79.5 -55.5t-27.5 -106.5v-33h107v-319h-270z" />
<glyph unicode="&#x201d;" horiz-adv-x="948" d="M139 805v143q52 10 79.5 55.5t27.5 106.5v33h-107v319h271v-266q0 -87 -12 -151t-41 -117t-83.5 -84t-134.5 -39zM539 805v143q51 10 78.5 55.5t27.5 106.5v33h-106v319h270v-266q0 -88 -11.5 -151.5t-41 -116.5t-83.5 -84t-134 -39z" />
<glyph unicode="&#x201e;" horiz-adv-x="948" d="M139 0v319h271v-266q0 -87 -12 -151t-41 -117t-83.5 -84t-134.5 -39v143q52 10 79.5 55.5t27.5 106.5v33h-107zM539 0v319h270v-266q0 -88 -11.5 -151.5t-41 -116.5t-83.5 -84t-134 -39v143q51 10 78.5 55.5t27.5 106.5v33h-106z" />
<glyph unicode="&#x2022;" horiz-adv-x="1024" d="M147 731q0 152 106.5 258.5t258.5 106.5t258.5 -106.5t106.5 -258.5t-106.5 -258t-258.5 -106t-258.5 106t-106.5 258z" />
<glyph unicode="&#x2026;" horiz-adv-x="2048" d="M207 0v319h270v-319h-270zM889 0v319h270v-319h-270zM1571 0v319h270v-319h-270z" />
<glyph unicode="&#x202f;" horiz-adv-x="390" />
<glyph unicode="&#x2039;" horiz-adv-x="493" d="M94 426v332l305 246v-271l-161 -141l161 -141v-271z" />
<glyph unicode="&#x203a;" horiz-adv-x="493" d="M94 180v271l162 141l-162 141v271l305 -246v-332z" />
<glyph unicode="&#x205f;" horiz-adv-x="488" />
<glyph unicode="&#x20ac;" d="M53 528l60 160h77l3 105h-140l62 159h84q43 504 467 504q183 0 315 -102l-94 -205q-98 104 -203 104q-117 0 -160 -100q-26 -59 -35 -201h345l-60 -159h-291v-105h271l-60 -160h-207q6 -160 27 -221q40 -125 156 -125q109 0 264 137v-256q-157 -92 -309 -92 q-415 0 -430 557h-142z" />
<glyph unicode="&#x2122;" horiz-adv-x="2027" d="M63 1270v192h689v-192h-230v-656h-229v656h-230zM905 614v848h346l170 -512h4l170 512h347v-848h-218v582h-4l-194 -582h-205l-195 582h-4v-582h-217z" />
<glyph unicode="&#x25fc;" horiz-adv-x="1105" d="M0 0v1106h1106v-1106h-1106z" />
</font>
</defs>
</svg>
