<?xml version="1.0" standalone="no"?>
<!DOCTYPE svg PUBLIC "-//W3C//DTD SVG 1.1//EN" "http://www.w3.org/Graphics/SVG/1.1/DTD/svg11.dtd" >
<svg xmlns="http://www.w3.org/2000/svg">
<metadata></metadata>
<defs>
<font id="fira_sans_condensedlight" horiz-adv-x="950" >
<font-face units-per-em="2048" ascent="1638" descent="-410" />
<missing-glyph horiz-adv-x="487" />
<glyph unicode="&#xfb01;" horiz-adv-x="999" d="M37 979v92h151v189q0 124 70.5 193t206.5 69q137 0 264 -76l-41 -80q-109 59 -217 59q-87 0 -127.5 -39t-40.5 -133v-182h514v-1071h-115v979h-399v-979h-115v979h-151z" />
<glyph unicode="&#xfb02;" horiz-adv-x="1038" d="M37 979v92h151v193q0 118 73.5 188t207.5 70q110 0 240 -47l112 14v-1323q0 -90 74 -90q37 0 61 12l29 -82q-53 -29 -111 -29q-77 0 -122 49.5t-45 137.5v1218q-122 43 -228 43q-92 0 -134 -39.5t-42 -125.5v-189h238l-15 -92h-223v-979h-115v979h-151z" />
<glyph horiz-adv-x="0" />
<glyph horiz-adv-x="682" />
<glyph unicode="&#xd;" horiz-adv-x="487" />
<glyph unicode=" "  horiz-adv-x="487" />
<glyph unicode="&#x09;" horiz-adv-x="487" />
<glyph unicode="&#xa0;" horiz-adv-x="487" />
<glyph unicode="!" horiz-adv-x="456" d="M137 72q0 38 25 65t65 27q41 0 66.5 -27t25.5 -65q0 -39 -25.5 -67t-66.5 -28q-40 0 -65 28.5t-25 66.5zM166 1403h123l-13 -959h-98z" />
<glyph unicode="&#x22;" horiz-adv-x="704" d="M133 1403h115l-17 -514h-84zM457 1403h114l-14 -514h-86z" />
<glyph unicode="#" horiz-adv-x="892" d="M27 373v90h135l61 465h-133v92h146l45 342h100l-45 -342h307l45 342h100l-45 -342h123v-92h-135l-61 -465h131v-90h-144l-49 -373h-100l49 373h-307l-49 -373h-101l50 373h-123zM262 463h307l62 465h-307z" />
<glyph unicode="$" horiz-adv-x="929" d="M63 147l66 68q69 -68 142.5 -103.5t168.5 -35.5q126 0 203.5 80t77.5 213q0 118 -60 184t-217 123q-178 65 -256.5 151.5t-78.5 221.5q0 128 86.5 222t222.5 109v295h96v-295q88 -9 156.5 -45.5t132.5 -101.5l-66 -70q-66 65 -129 94t-143 29q-107 0 -173.5 -65 t-66.5 -168q0 -102 59.5 -164.5t215.5 -118.5q85 -31 143.5 -64t104.5 -79t68 -109.5t22 -146.5q0 -151 -88 -258.5t-236 -130.5v-289h-96v284q-203 8 -355 170z" />
<glyph unicode="%" horiz-adv-x="1423" d="M100 1051q0 157 73 245t194 88q120 0 193 -87t73 -242q0 -158 -72 -247t-194 -89q-120 0 -193.5 88.5t-73.5 243.5zM201 1051q0 -114 40 -181t126 -67q165 0 165 252q0 114 -39.5 181t-125.5 67q-166 0 -166 -252zM268 0l817 1440l80 -47l-815 -1440zM793 309 q0 156 72.5 245t193.5 89q118 0 191 -88.5t73 -243.5q0 -156 -72 -245t-192 -89q-121 0 -193.5 88t-72.5 244zM891 309q0 -248 168 -248q164 0 164 250q0 248 -164 248q-168 0 -168 -250z" />
<glyph unicode="&#x26;" horiz-adv-x="1333" d="M164 350q0 129 63 222.5t191 183.5q-97 105 -137.5 181t-40.5 177q0 138 81.5 224.5t219.5 86.5q135 0 217 -84t82 -219q0 -61 -18 -113.5t-56 -98.5t-83.5 -84t-113.5 -83l357 -397q78 189 116 389l103 -26q-55 -241 -150 -430l217 -234l-84 -65l-194 217 q-76 -107 -170.5 -163.5t-222.5 -56.5q-165 0 -271 102.5t-106 270.5zM283 352q0 -129 73.5 -204.5t190.5 -75.5q102 0 178 47.5t141 140.5l-383 432q-102 -73 -151 -153t-49 -187zM352 1116q0 -79 31.5 -142.5t122.5 -166.5q115 76 168 146.5t53 164.5q0 107 -50 163 t-134 56q-89 0 -140 -60t-51 -161z" />
<glyph unicode="'" horiz-adv-x="378" d="M133 1403h115l-17 -514h-84z" />
<glyph unicode="(" horiz-adv-x="571" d="M90 717q0 116 10.5 218t35 193t49 162t66.5 152.5t73 134.5t84 137l73 -49q-57 -96 -91.5 -160t-74 -157t-60.5 -179t-35.5 -202.5t-14.5 -249.5t14.5 -249.5t35.5 -202.5t60.5 -179t74 -157t91.5 -160l-73 -50q-63 101 -99.5 164.5t-84 165.5t-73 192t-43.5 214t-18 262 z" />
<glyph unicode=")" horiz-adv-x="571" d="M90 -231q57 97 90.5 160.5t73.5 157.5t61 179.5t35.5 201.5t14.5 249t-14.5 249.5t-35.5 202t-61 179.5t-73.5 157t-90.5 160l74 49q63 -101 99.5 -164.5t84 -165t72.5 -191.5t43 -214t18 -262t-18 -262t-43 -214t-72.5 -192t-84 -165.5t-99.5 -164.5z" />
<glyph unicode="*" horiz-adv-x="792" d="M70 1194l34 92l254 -108l-16 329h109l-17 -329l254 110l35 -94l-266 -82l178 -250l-92 -55l-146 262l-147 -262l-92 53l180 250z" />
<glyph unicode="+" horiz-adv-x="872" d="M119 627v100h266v307h104v-307h265v-100h-265v-305h-104v305h-266z" />
<glyph unicode="," horiz-adv-x="385" d="M80 -305l72 297q-48 26 -48 80q0 40 26.5 66t66.5 26q39 0 63.5 -26t24.5 -66q0 -38 -29 -107l-98 -270h-78z" />
<glyph unicode="-" horiz-adv-x="712" d="M121 592v98h471v-98h-471z" />
<glyph unicode="." horiz-adv-x="385" d="M100 72q0 38 26.5 65t66.5 27t66 -27t26 -65t-26 -66.5t-66 -28.5t-66.5 28.5t-26.5 66.5z" />
<glyph unicode="/" horiz-adv-x="915" d="M203 -182l413 1824l97 -20l-414 -1825z" />
<glyph unicode="0" horiz-adv-x="999" d="M125 682q0 702 375 702q374 0 374 -704q0 -703 -374 -703q-375 0 -375 705zM244 682q0 -322 64 -466t192 -144q86 0 141.5 59.5t85 195.5t29.5 353q0 218 -29.5 354t-85 196t-141.5 60q-128 0 -192 -144t-64 -464z" />
<glyph unicode="1" horiz-adv-x="731" d="M63 1110l355 252h98v-1362h-113v1237l-286 -207z" />
<glyph unicode="2" horiz-adv-x="833" d="M41 1190q141 194 342 194q152 0 241 -97t89 -251q0 -67 -10 -125t-40.5 -127t-63.5 -128t-102.5 -154.5t-133 -177t-177.5 -224.5h557l-16 -100h-668v96q143 179 224 285.5t150.5 207t100 169t46.5 134.5t16 140q0 120 -59 187t-160 67q-80 0 -141 -38t-119 -115z" />
<glyph unicode="3" horiz-adv-x="860" d="M33 154l73 59q65 -75 126.5 -107t144.5 -32q120 0 191 83.5t71 227.5q0 289 -279 289h-77l14 88h57q107 0 181.5 72t74.5 206q0 118 -61 184t-166 66q-72 0 -132 -29t-122 -94l-63 62q140 155 325 155q150 0 240 -95.5t90 -241.5q0 -135 -68 -215.5t-188 -106.5 q131 -13 210 -98.5t79 -241.5q0 -179 -103.5 -293.5t-271.5 -114.5q-109 0 -191.5 43t-154.5 134z" />
<glyph unicode="4" horiz-adv-x="919" d="M78 360v86l356 938l96 -36l-333 -893h397l12 401h96v-401h156v-95h-156v-360h-110v360h-514z" />
<glyph unicode="5" horiz-adv-x="868" d="M59 141l72 64q57 -66 118.5 -98.5t143.5 -32.5q125 0 195.5 96.5t70.5 269.5q0 170 -64 249t-177 79q-55 0 -98 -15.5t-95 -50.5h-86v660h600l-18 -94h-473v-473q95 65 201 65q151 0 240 -111.5t89 -310.5q0 -206 -104.5 -333.5t-278.5 -127.5q-195 0 -336 164z" />
<glyph unicode="6" horiz-adv-x="948" d="M125 614q0 363 114.5 566.5t315.5 203.5q125 0 223 -79l-49 -76q-83 61 -174 61q-143 0 -225 -160t-90 -442q116 199 301 199q136 0 224.5 -109.5t88.5 -318.5q0 -230 -96.5 -356t-253.5 -126q-100 0 -174 46t-118.5 132.5t-65.5 200t-21 258.5zM242 567 q3 -247 65.5 -371t196.5 -124q115 0 175 100.5t60 284.5q0 173 -58.5 254.5t-158.5 81.5q-86 0 -157 -60t-123 -166z" />
<glyph unicode="7" horiz-adv-x="776" d="M51 1266v96h664v-88l-461 -1290l-104 34l450 1248h-549z" />
<glyph unicode="8" horiz-adv-x="958" d="M92 352q0 265 262 379q-113 57 -162 130t-49 183q0 108 48 187t123 116t165 37q67 0 126 -20.5t107 -60t75.5 -106t27.5 -150.5q0 -108 -51.5 -184.5t-167.5 -141.5q141 -64 204.5 -149t63.5 -218q0 -173 -106 -275t-281 -102q-176 0 -280.5 102t-104.5 273zM209 352 q0 -140 71.5 -210t196.5 -70q127 0 200 70.5t73 209.5q0 121 -57.5 187.5t-203.5 130.5l-59 24q-115 -54 -168 -135.5t-53 -206.5zM256 1042q0 -99 46.5 -155t166.5 -111l53 -24q98 61 140.5 127.5t42.5 162.5q0 127 -60.5 189.5t-165.5 62.5q-101 0 -162 -63t-61 -189z" />
<glyph unicode="9" horiz-adv-x="925" d="M90 938q0 213 101 329.5t262 116.5q362 0 362 -548q0 -160 -25 -285t-71.5 -216.5t-122 -162t-167 -119.5t-216.5 -92l-27 88q120 43 206.5 95.5t154.5 128t105 179.5t44 240q-106 -182 -280 -182q-141 0 -233.5 115.5t-92.5 312.5zM207 936q0 -161 61 -246.5t166 -85.5 q155 0 266 205q0 254 -57.5 367.5t-187.5 113.5q-117 0 -182.5 -88.5t-65.5 -265.5z" />
<glyph unicode=":" horiz-adv-x="385" d="M100 72q0 38 26.5 65t66.5 27t66 -27t26 -65t-26 -66.5t-66 -28.5t-66.5 28.5t-26.5 66.5zM100 872q0 38 26.5 65.5t66.5 27.5t66 -27.5t26 -65.5t-26 -65t-66 -27t-66.5 27t-26.5 65z" />
<glyph unicode=";" horiz-adv-x="389" d="M80 -305l72 297q-48 26 -48 80q0 40 26.5 66t66.5 26q39 0 63.5 -26t24.5 -66q0 -38 -29 -107l-98 -270h-78zM100 872q0 38 26.5 65.5t66.5 27.5t66 -27.5t26 -65.5t-26 -65t-66 -27t-66.5 27t-26.5 65z" />
<glyph unicode="&#x3c;" horiz-adv-x="878" d="M106 629v106l619 338l47 -88l-567 -303l567 -309l-47 -88z" />
<glyph unicode="=" horiz-adv-x="870" d="M119 451v96h633v-96h-633zM119 807v98h633v-98h-633z" />
<glyph unicode="&#x3e;" horiz-adv-x="878" d="M106 373l568 309l-568 303l48 88l618 -338v-106l-618 -344z" />
<glyph unicode="?" horiz-adv-x="813" d="M80 1237q139 188 340 188q146 0 229.5 -86.5t83.5 -212.5q0 -62 -17.5 -112t-46 -83.5t-63 -63t-68.5 -58.5t-62.5 -61.5t-46 -80.5t-17.5 -108v-115h-109v123q0 68 17.5 122.5t45 90t60.5 66t66.5 57.5t61 56.5t45 72t17.5 94.5q0 92 -54 146.5t-146 54.5 q-79 0 -140 -35.5t-120 -113.5zM268 72q0 38 26 65t66 27t66.5 -27t26.5 -65t-26.5 -66.5t-66.5 -28.5t-66 28.5t-26 66.5z" />
<glyph unicode="@" horiz-adv-x="1812" d="M154 496q0 196 57 367.5t158 295.5t247.5 195t319.5 71q174 0 313 -62t227.5 -170.5t135.5 -251.5t47 -310q0 -296 -88.5 -451t-233.5 -155q-91 0 -145 60.5t-70 154.5q-82 -211 -258 -211q-138 0 -219.5 116.5t-81.5 327.5q0 257 102 387.5t269 130.5q129 0 258 -76 v-528q0 -140 35.5 -205t107.5 -65q62 0 107 46t74.5 163t29.5 301q0 210 -68.5 366t-207 245t-334.5 89q-200 0 -353.5 -108t-235 -296.5t-81.5 -426.5q0 -388 179 -603t489 -215q176 0 332 68l30 -92q-91 -36 -174.5 -55t-189.5 -19q-171 0 -313.5 61.5t-246 176 t-161 288.5t-57.5 390zM674 473q0 -178 52 -266t148 -88q72 0 127.5 55t85.5 137v557q-82 35 -153 35q-124 0 -192 -109t-68 -321z" />
<glyph unicode="A" horiz-adv-x="1019" d="M35 0l401 1403h148l399 -1403h-121l-104 385h-500l-106 -385h-117zM285 483h446l-223 822z" />
<glyph unicode="B" horiz-adv-x="1054" d="M190 0v1403h263q220 0 338 -90t118 -260q0 -127 -66.5 -205t-185.5 -105q310 -45 310 -354q0 -192 -121.5 -290.5t-337.5 -98.5h-318zM309 98h201q332 0 332 291q0 301 -320 301h-213v-592zM309 786h201q132 0 205 69t73 189q0 134 -81 197.5t-242 63.5h-156v-519z" />
<glyph unicode="C" horiz-adv-x="974" d="M115 702q0 182 38.5 322.5t106.5 226.5t156.5 130t193.5 44q97 0 170 -32t144 -97l-64 -73q-61 53 -118 77.5t-128 24.5q-81 0 -146.5 -33t-117.5 -104t-81 -194.5t-29 -291.5q0 -161 28 -282.5t79 -194t117.5 -108t147.5 -35.5q82 0 140.5 29.5t119.5 83.5l64 -74 q-133 -144 -328 -144q-223 0 -358 185.5t-135 539.5z" />
<glyph unicode="D" horiz-adv-x="1120" d="M190 0v1403h246q66 0 122.5 -7.5t115.5 -28t106.5 -53.5t90 -86.5t71.5 -124t45.5 -170t16.5 -220.5q0 -141 -22.5 -255t-63 -190t-91.5 -130t-115 -83.5t-125 -42t-130 -12.5h-267zM309 98h154q68 0 124 14.5t112 56t94.5 108t62 178t23.5 258.5q0 108 -13 195.5 t-34.5 148.5t-54.5 106.5t-68 72t-80.5 42.5t-86 21.5t-89.5 5.5h-144v-1207z" />
<glyph unicode="E" horiz-adv-x="903" d="M190 0v1403h623l-14 -98h-490v-529h424v-98h-424v-580h514v-98h-633z" />
<glyph unicode="F" horiz-adv-x="847" d="M190 0v1403h611l-15 -98h-477v-553h414v-99h-414v-653h-119z" />
<glyph unicode="G" horiz-adv-x="1097" d="M115 707q0 175 42.5 315t114.5 226t162.5 131.5t190.5 45.5q104 0 182 -33.5t154 -105.5l-68 -69q-67 57 -127.5 82.5t-140.5 25.5q-59 0 -113 -20.5t-104.5 -67.5t-87 -117t-58.5 -176t-22 -237q0 -319 98.5 -474t279.5 -155q133 0 246 74v503h-229l-14 99h360v-662 q-171 -115 -363 -115q-235 0 -369 186.5t-134 543.5z" />
<glyph unicode="H" horiz-adv-x="1179" d="M190 0v1403h119v-615h561v615h119v-1403h-119v688h-561v-688h-119z" />
<glyph unicode="I" horiz-adv-x="499" d="M190 0v1403h119v-1403h-119z" />
<glyph unicode="J" horiz-adv-x="516" d="M20 -158q119 64 158 134.5t39 216.5v1210h119v-1217q0 -121 -31.5 -201.5t-90.5 -130t-163 -96.5z" />
<glyph unicode="K" horiz-adv-x="987" d="M190 0v1403h119v-1403h-119zM315 752l502 651h129l-497 -645l528 -758h-135z" />
<glyph unicode="L" horiz-adv-x="839" d="M190 0v1403h119v-1297h500l-14 -106h-605z" />
<glyph unicode="M" horiz-adv-x="1376" d="M125 0l115 1403h159l291 -1098l283 1098h162l116 -1403h-112l-56 674q-30 374 -41 612l-297 -1120h-112l-309 1122q-2 -140 -37 -610l-49 -678h-113z" />
<glyph unicode="N" horiz-adv-x="1183" d="M190 0v1403h156l551 -1272q-16 244 -16 406v866h112v-1403h-155l-553 1270q16 -188 16 -465v-805h-111z" />
<glyph unicode="O" horiz-adv-x="1222" d="M115 698q0 352 134.5 539.5t362.5 187.5q230 0 363 -183t133 -542q0 -353 -132 -538t-364 -185q-230 0 -363.5 183.5t-133.5 537.5zM240 698q0 -316 99 -468t273 -152q371 0 371 622q0 321 -97 473t-274 152q-176 0 -274 -153.5t-98 -473.5z" />
<glyph unicode="P" horiz-adv-x="1001" d="M190 0v1403h248q247 0 370.5 -103.5t123.5 -316.5q0 -434 -496 -434h-127v-549h-119zM309 647h127q188 0 280.5 75.5t92.5 258.5q0 172 -90.5 249t-280.5 77h-129v-660z" />
<glyph unicode="Q" horiz-adv-x="1222" d="M115 698q0 353 134.5 540t362.5 187q230 0 363 -183t133 -542q0 -146 -23 -259.5t-66 -190t-97.5 -125t-126.5 -78.5q220 -6 360 -143l-80 -92q-93 98 -196 134t-271 36q-226 0 -359.5 182t-133.5 534zM240 698q0 -316 99 -468t273 -152q371 0 371 622q0 321 -97 473 t-274 152q-176 0 -274 -153.5t-98 -473.5z" />
<glyph unicode="R" horiz-adv-x="1042" d="M190 0v1403h271q465 0 465 -381q0 -286 -271 -365l332 -657h-135l-309 635q-4 -1 -12.5 -2t-12.5 -2h-209v-631h-119zM309 727h168q161 0 241.5 72t80.5 223q0 145 -78.5 215t-263.5 70h-148v-580z" />
<glyph unicode="S" horiz-adv-x="954" d="M63 154l68 69q72 -71 148 -108t174 -37q128 0 207 82.5t79 218.5q0 122 -60.5 190.5t-221.5 128.5q-185 67 -265.5 155t-80.5 228q0 145 102.5 244.5t261.5 99.5q112 0 193.5 -38t154.5 -115l-65 -70q-68 64 -133 93.5t-148 29.5q-109 0 -177.5 -67.5t-68.5 -172.5 t60.5 -167.5t220.5 -120.5q88 -33 148.5 -67t108.5 -82.5t70.5 -113.5t22.5 -151q0 -174 -113 -290t-294 -116q-230 0 -392 177z" />
<glyph unicode="T" horiz-adv-x="878" d="M27 1300v103h833l-12 -103h-350v-1300h-119v1300h-352z" />
<glyph unicode="U" horiz-adv-x="1142" d="M170 389v1014h119v-1004q0 -319 282 -319q145 0 214 83.5t69 235.5v1004h119v-1014q0 -183 -103.5 -297.5t-298.5 -114.5q-197 0 -299 114t-102 298z" />
<glyph unicode="V" horiz-adv-x="974" d="M31 1403h121l337 -1280l336 1280h119l-387 -1403h-137z" />
<glyph unicode="W" horiz-adv-x="1443" d="M59 1403h115l223 -1294l256 1294h135l261 -1294l225 1294h110l-260 -1403h-151l-252 1270l-254 -1270h-150z" />
<glyph unicode="X" horiz-adv-x="911" d="M16 0l365 754l-330 649h127l275 -574l274 574h121l-326 -643l373 -760h-127l-317 680l-312 -680h-123z" />
<glyph unicode="Y" horiz-adv-x="927" d="M20 1403h127l322 -750l317 750h121l-383 -854v-549h-118v547z" />
<glyph unicode="Z" horiz-adv-x="909" d="M59 0v98l648 1202h-582v103h706v-98l-645 -1201h635l-14 -104h-748z" />
<glyph unicode="[" horiz-adv-x="559" d="M141 -229v1880h305v-95h-198v-1693h198v-92h-305z" />
<glyph unicode="\" horiz-adv-x="915" d="M203 1620l96 20l414 -1822l-97 -21z" />
<glyph unicode="]" horiz-adv-x="559" d="M113 -137h198v1693h-198v95h305v-1880h-305v92z" />
<glyph unicode="^" horiz-adv-x="940" d="M96 1079l324 625h98l326 -625h-127l-250 512l-248 -512h-123z" />
<glyph unicode="_" horiz-adv-x="923" d="M53 -145h817v-101h-817v101z" />
<glyph unicode="`" horiz-adv-x="507" d="M70 1497l53 96l332 -209l-37 -61z" />
<glyph unicode="a" d="M96 297q0 168 105 257t297 89h155v117q0 122 -48.5 179.5t-155.5 57.5q-109 0 -256 -59l-29 84q163 72 299 72q155 0 230 -84t75 -242v-553q0 -71 18 -105.5t58 -52.5l-25 -80q-68 15 -104.5 56t-46.5 121q-98 -177 -283 -177q-134 0 -211.5 88t-77.5 232zM215 303 q0 -114 50 -173.5t141 -59.5q165 0 247 194v295h-143q-295 0 -295 -256z" />
<glyph unicode="b" horiz-adv-x="1021" d="M182 0v1507l115 13v-596q107 170 276 170q161 0 248.5 -139.5t87.5 -413.5q0 -268 -93 -416t-259 -148q-157 0 -264 158l-10 -135h-101zM297 242q99 -170 240 -170q251 0 251 469q0 163 -29.5 266t-80.5 146.5t-127 43.5q-146 0 -254 -184v-571z" />
<glyph unicode="c" horiz-adv-x="823" d="M111 528q0 267 107 416.5t290 149.5q150 0 262 -109l-55 -72q-97 84 -203 84q-130 0 -204.5 -115.5t-74.5 -351.5q0 -233 73.5 -343.5t203.5 -110.5q106 0 209 86l57 -70q-118 -115 -266 -115q-185 0 -292 143t-107 408z" />
<glyph unicode="d" horiz-adv-x="1030" d="M113 530q0 257 99 410.5t265 153.5q157 0 256 -146v574l115 -15v-1507h-103l-8 158q-99 -181 -272 -181q-166 0 -259 146t-93 407zM236 532q0 -229 64 -344.5t181 -115.5q84 0 144 49t108 145v568q-94 163 -237 163q-121 -1 -191 -119q-69 -117 -69 -340v-6z" />
<glyph unicode="e" d="M111 526q0 266 101.5 417t276.5 151q176 0 268.5 -135t92.5 -384q0 -40 -4 -86h-617q16 -415 281 -415q73 0 130.5 25t119.5 77l53 -67q-138 -132 -305 -132q-186 0 -291.5 142t-105.5 407zM229 578h508v34q0 387 -245 387q-116 0 -186 -101.5t-77 -319.5z" />
<glyph unicode="f" horiz-adv-x="573" d="M37 979v92h158v193q0 119 70 188.5t194 69.5q104 0 217 -58l-39 -84q-86 45 -170 45q-78 0 -118 -39.5t-40 -125.5v-189h242l-14 -92h-228v-979h-114v979h-158z" />
<glyph unicode="g" horiz-adv-x="894" d="M57 -113h103q2 -115 64 -164t220 -49q291 0 291 205q0 89 -56 135.5t-163 46.5h-110q-128 0 -191 51.5t-63 135.5q0 102 104 180q-160 95 -160 303q0 165 95 264t251 99h20q150 0 224 14q79 16 158 53l35 -108q-85 -31 -263 -31q168 -81 168 -295q0 -163 -90.5 -257.5 t-247.5 -94.5q-65 0 -120 22q-70 -47 -70 -125q0 -55 35.5 -84.5t120.5 -29.5h123q147 0 231 -75.5t84 -195.5q0 -141 -104 -224t-302 -83q-208 0 -297.5 75t-89.5 232zM213 731q0 -128 62.5 -200t166.5 -72q226 0 226 270q0 132 -57.5 204.5t-168.5 72.5q-114 0 -171.5 -71 t-57.5 -204z" />
<glyph unicode="h" horiz-adv-x="1030" d="M182 0v1507l115 13v-629q60 98 133 150.5t170 52.5q124 0 190 -86.5t66 -243.5v-764h-115v750q0 130 -41.5 189.5t-124.5 59.5q-155 0 -278 -227v-772h-115z" />
<glyph unicode="i" horiz-adv-x="479" d="M156 1454q0 36 23 60t59 24q38 0 61 -24t23 -60q0 -35 -23.5 -58.5t-60.5 -23.5q-36 0 -59 24t-23 58zM182 0v1071h115v-1071h-115z" />
<glyph unicode="j" horiz-adv-x="479" d="M6 -332q50 29 79 54t53.5 65.5t34 99t9.5 146.5v1038h115v-1034q0 -104 -15 -176.5t-51 -123.5t-78 -83t-112 -70zM156 1454q0 36 23 60t59 24q38 0 61 -24t23 -60q0 -35 -23.5 -58.5t-60.5 -23.5q-36 0 -59 24t-23 58z" />
<glyph unicode="k" horiz-adv-x="868" d="M182 0v1507l115 15v-1522h-115zM307 586l385 485h125l-385 -479l424 -592h-131z" />
<glyph unicode="l" horiz-adv-x="503" d="M172 162v1345l115 15v-1356q0 -90 73 -90q38 0 62 12l29 -82q-53 -29 -109 -29q-78 0 -124 49t-46 136z" />
<glyph unicode="m" horiz-adv-x="1501" d="M182 0v1071h99l10 -180q116 203 280 203q88 0 148 -56t82 -157q119 213 286 213q114 0 178 -88t64 -242v-764h-112v750q0 251 -152 251q-136 0 -252 -223v-778h-113v752q0 249 -151 249q-138 0 -254 -223v-778h-113z" />
<glyph unicode="n" horiz-adv-x="1030" d="M182 0v1071h99l12 -186q124 209 307 209q124 0 190 -86t66 -244v-764h-115v750q0 131 -40.5 190t-125.5 59q-155 0 -278 -227v-772h-115z" />
<glyph unicode="o" horiz-adv-x="1011" d="M111 535q0 269 105 414t292 145t290 -141t103 -414q0 -267 -105.5 -414.5t-289.5 -147.5q-187 0 -291 146t-104 412zM231 535q0 -233 71.5 -347t203.5 -114q274 0 274 465q0 458 -272 458q-277 0 -277 -462z" />
<glyph unicode="p" horiz-adv-x="1021" d="M182 -420v1491h101l8 -153q113 176 284 176q164 0 249 -140.5t85 -412.5q0 -267 -92 -415.5t-260 -148.5q-158 0 -260 148v-528zM297 236q98 -162 240 -162q251 0 251 467q0 235 -59 345.5t-176 110.5q-143 0 -256 -180v-581z" />
<glyph unicode="q" horiz-adv-x="1030" d="M113 530q0 258 98.5 411t265.5 153q158 0 264 -154l9 131h98v-1491l-115 17v555q-97 -175 -268 -175q-164 0 -258 146t-94 407zM236 532q0 -229 65 -344.5t182 -115.5q82 0 141.5 48.5t108.5 143.5v572q-96 161 -239 161q-118 0 -188 -119q-70 -117 -70 -340v-6z" />
<glyph unicode="r" horiz-adv-x="665" d="M182 0v1071h99l10 -225q40 127 104 187.5t160 60.5q36 0 86 -13l-20 -108q-42 10 -78 10q-93 0 -151.5 -76.5t-94.5 -236.5v-670h-115z" />
<glyph unicode="s" horiz-adv-x="825" d="M66 117l63 65q62 -56 125 -83t145 -27q99 0 161.5 56t62.5 155q0 92 -50.5 140.5t-193.5 100.5q-149 51 -212 117.5t-63 171.5q0 121 89 201t223 80q169 0 297 -119l-51 -70q-62 49 -118 71.5t-124 22.5q-90 0 -145.5 -49.5t-55.5 -134.5q0 -76 48.5 -120t176.5 -89 q158 -55 226.5 -125t68.5 -194q0 -142 -97 -226t-241 -84q-191 0 -335 140z" />
<glyph unicode="t" horiz-adv-x="610" d="M33 979v92h151v256l115 14v-270h236l-13 -92h-223v-750q0 -73 33.5 -113t99.5 -40q67 0 135 43l47 -74q-90 -68 -196 -68q-110 0 -172 66.5t-62 183.5v752h-151z" />
<glyph unicode="u" horiz-adv-x="1021" d="M172 279v792h115v-782q0 -108 44 -162.5t128 -54.5q157 0 266 217v782h115v-1071h-99l-8 182q-112 -205 -295 -205q-123 0 -194.5 81t-71.5 221z" />
<glyph unicode="v" horiz-adv-x="845" d="M33 1071h121l276 -971l266 971h119l-317 -1071h-138z" />
<glyph unicode="w" horiz-adv-x="1257" d="M53 1071h115l190 -979l207 979h135l203 -981l191 981h110l-223 -1071h-154l-198 963l-199 -963h-149z" />
<glyph unicode="x" horiz-adv-x="827" d="M23 0l321 569l-283 502h125l228 -434l227 434h121l-283 -498l326 -573h-129l-266 504l-265 -504h-122z" />
<glyph unicode="y" horiz-adv-x="843" d="M33 1071h119l274 -987l268 987h117l-313 -1075q-54 -185 -138 -281t-247 -133l-15 90q91 25 146.5 67.5t86 100t62.5 160.5h-43z" />
<glyph unicode="z" horiz-adv-x="749" d="M47 0v88l518 883h-475v100h600v-90l-518 -883h516l-12 -98h-629z" />
<glyph unicode="{" horiz-adv-x="573" d="M76 666v98q68 0 99.5 35t31.5 116v525q0 133 61 193.5t195 60.5v-86q-83 0 -118.5 -37.5t-35.5 -122.5v-526q0 -101 -33 -144t-108 -63q75 -20 109 -63t34 -142v-526q0 -87 34.5 -124.5t117.5 -37.5v-84q-134 0 -195 60.5t-61 193.5v522q0 82 -31 117t-100 35z" />
<glyph unicode="|" horiz-adv-x="712" d="M303 -205v1852h107v-1852h-107z" />
<glyph unicode="}" horiz-adv-x="573" d="M109 -178q84 0 119.5 37.5t35.5 124.5v534q0 95 33 136t109 61q-76 20 -109 61t-33 137v535q0 85 -35 122.5t-118 37.5l-2 86q135 0 196.5 -60.5t61.5 -193.5v-525q0 -81 31.5 -116t99.5 -35v-98q-69 0 -100 -35t-31 -117v-522q0 -133 -61.5 -193.5t-196.5 -60.5v84z" />
<glyph unicode="~" horiz-adv-x="837" d="M88 604q81 150 199 150q39 0 79.5 -18t69 -39.5t63 -39.5t62.5 -18q38 0 65 23t54 67l70 -37q-76 -145 -193 -145q-39 0 -80 18t-70.5 39.5t-64 39.5t-61.5 18q-38 0 -65 -24.5t-58 -72.5z" />
<glyph unicode="&#xa1;" horiz-adv-x="456" d="M137 877q0 38 25.5 65t66.5 27q40 0 65 -27t25 -65t-25 -65.5t-65 -27.5q-41 0 -66.5 27.5t-25.5 65.5zM168 -403l12 917h99l12 -917h-123z" />
<glyph unicode="&#xa2;" horiz-adv-x="823" d="M111 528q0 247 92.5 394t253.5 168v303h94v-301q121 -11 219 -107l-55 -72q-97 84 -203 84q-130 0 -204.5 -115.5t-74.5 -351.5q0 -233 73.5 -343.5t203.5 -110.5q106 0 209 86l57 -70q-101 -98 -225 -112v-287h-96v289q-162 21 -253 160.5t-91 385.5z" />
<glyph unicode="&#xa3;" horiz-adv-x="909" d="M88 0v94q84 42 114.5 93.5t30.5 158.5v334h-114v84h114v274q0 154 82 250t228 96q171 0 288 -153l-73 -57q-46 60 -94.5 88t-114.5 28q-98 0 -150.5 -66.5t-52.5 -183.5v-276h371v-84h-371v-334q0 -101 -27.5 -154.5t-99.5 -91.5h586l-12 -100h-705z" />
<glyph unicode="&#xa4;" horiz-adv-x="987" d="M76 1120l74 62l137 -160q81 72 202 72q125 0 211 -70l136 158l69 -64l-143 -162q72 -109 72 -258q0 -153 -70 -256l145 -168l-71 -61l-138 158q-86 -70 -211 -70q-116 0 -202 70l-137 -158l-68 63l143 164q-71 104 -71 258q0 150 69 254zM258 698q0 -149 61 -227t175 -78 q115 0 174 77.5t59 227.5q0 149 -59 227.5t-174 78.5t-175.5 -79t-60.5 -227z" />
<glyph unicode="&#xa5;" horiz-adv-x="907" d="M20 1362h123l314 -645l311 645h119l-342 -672h207v-84h-240v-213h240v-84h-240v-309h-117v309h-235v84h235v213h-235v84h205z" />
<glyph unicode="&#xa6;" horiz-adv-x="712" d="M303 -205v742h107v-742h-107zM303 907v740h107v-740h-107z" />
<glyph unicode="&#xa7;" horiz-adv-x="942" d="M145 649q0 147 144 256q-52 38 -75.5 85.5t-23.5 115.5q0 125 86 200.5t216 75.5q151 0 280 -100l-49 -74q-109 80 -227 80q-90 0 -141.5 -48t-51.5 -128q0 -77 44 -122t183 -101q142 -55 204.5 -121.5t62.5 -169.5q0 -152 -140 -260q99 -71 99 -199q0 -126 -87 -202 t-223 -76q-165 0 -292 96l49 76q107 -78 239 -78q92 0 146.5 48t54.5 130q0 75 -43 118.5t-178 96.5q-77 31 -124 56.5t-84 60.5t-53 79t-16 105zM254 662q0 -86 42.5 -131t170.5 -95q93 -40 123 -55q98 82 98 203q0 76 -42.5 124t-164.5 99q-78 32 -127 57 q-100 -90 -100 -202z" />
<glyph unicode="&#xa8;" horiz-adv-x="612" d="M72 1436q0 34 20.5 55.5t54.5 21.5t55 -21.5t21 -55.5q0 -33 -21.5 -55.5t-54.5 -22.5t-54 22.5t-21 55.5zM408 1436q0 34 21.5 55.5t55.5 21.5t55 -21.5t21 -55.5q0 -33 -21.5 -55.5t-54.5 -22.5t-55 22.5t-22 55.5z" />
<glyph unicode="&#xa9;" horiz-adv-x="1425" d="M186 891q0 139 40.5 255t111.5 194.5t168 121.5t209 43q111 0 207 -43t166.5 -121t110.5 -194t40 -256t-40 -256.5t-110.5 -194.5t-166.5 -121t-207 -43q-112 0 -209 42.5t-168 120.5t-111.5 194.5t-40.5 257.5zM268 891q0 -251 124.5 -395t322.5 -144q195 0 318.5 144.5 t123.5 394.5q0 251 -123.5 395t-318.5 144q-198 0 -322.5 -145t-124.5 -394zM453 893q0 182 76 274.5t188 92.5q100 0 180 -70l-43 -62q-66 50 -135 50q-72 0 -121 -67.5t-49 -217.5q0 -147 46.5 -216t125.5 -69q45 0 77 15t68 43l43 -64q-84 -80 -192 -80q-119 0 -191.5 95 t-72.5 276z" />
<glyph unicode="&#xab;" horiz-adv-x="1024" d="M135 549v78l289 436l72 -47l-248 -426l248 -426l-70 -47zM528 549v78l291 436l70 -47l-248 -426l248 -426l-70 -47z" />
<glyph unicode="&#xac;" horiz-adv-x="882" d="M119 610v97h645v-359h-107v262h-538z" />
<glyph unicode="&#xad;" horiz-adv-x="712" d="M121 592v98h471v-98h-471z" />
<glyph unicode="&#xae;" horiz-adv-x="1126" d="M137 1014q0 216 121.5 353.5t304.5 137.5q185 0 305.5 -133.5t120.5 -351.5q0 -216 -121.5 -354t-304.5 -138t-304.5 134t-121.5 352zM211 1014q0 -191 99 -302.5t253 -111.5q155 0 253.5 114.5t98.5 305.5t-98.5 303.5t-253.5 112.5q-153 0 -252.5 -115.5t-99.5 -306.5z M414 745v558h123q99 0 149.5 -42.5t50.5 -121.5q0 -119 -110 -152l129 -242h-86l-115 230h-66v-230h-75zM489 1040h70q103 0 103 99q0 98 -113 98h-60v-197z" />
<glyph unicode="&#xaf;" horiz-adv-x="552" d="M70 1386v89h430v-89h-430z" />
<glyph unicode="&#xb0;" horiz-adv-x="903" d="M117 1120q0 141 79.5 223t188.5 82q115 0 192.5 -81.5t77.5 -225.5t-77.5 -225.5t-192.5 -81.5q-110 0 -189 82t-79 227zM215 1120q0 -109 48 -167t122 -58q79 0 125.5 57t46.5 166q0 110 -46.5 166.5t-125.5 56.5q-75 0 -122.5 -56t-47.5 -165z" />
<glyph unicode="&#xb1;" horiz-adv-x="872" d="M119 651v99h266v307h104v-307h265v-99h-265v-307h-104v307h-266zM121 0v96h631v-96h-631z" />
<glyph unicode="&#xb2;" horiz-adv-x="704" d="M115 1393q50 65 105.5 95t127.5 30q101 0 162 -64t61 -164q0 -49 -12 -92.5t-30.5 -83t-65.5 -101.5t-91 -114.5t-134 -155.5h352l-12 -84h-447v80q92 107 142 167t95 119.5t63.5 99t29 78.5t10.5 83q0 70 -34.5 110t-96.5 40q-91 0 -164 -93z" />
<glyph unicode="&#xb3;" horiz-adv-x="704" d="M106 758l58 51q73 -84 172 -84q74 0 117 48t43 128q0 166 -160 166h-53l12 76h37q61 0 103 40t42 115q0 68 -36.5 107t-98.5 39q-84 0 -166 -76l-49 53q96 101 223 101q103 0 163 -60t60 -155q0 -82 -43 -132.5t-118 -64.5q82 -6 133 -60.5t51 -150.5q0 -112 -69.5 -184 t-188.5 -72q-140 0 -232 115z" />
<glyph unicode="&#xb4;" horiz-adv-x="507" d="M70 1384l331 209l54 -96l-349 -174z" />
<glyph unicode="&#xb5;" horiz-adv-x="1032" d="M182 -416v1487h115v-766q0 -118 46.5 -172.5t121.5 -54.5q157 0 258 239v754h115v-711q0 -197 47 -364l-105 -14q-37 104 -45 229q-112 -234 -276 -234q-132 0 -187 136q23 -129 23 -275v-241z" />
<glyph unicode="&#xb6;" horiz-adv-x="1259" d="M174 1004q0 190 109 294.5t305 104.5h407v-1806l-104 -19v1731h-221v-1712l-105 -19v1026q-103 4 -180 36t-122 87.5t-67 124.5t-22 152z" />
<glyph unicode="&#xb7;" horiz-adv-x="385" d="M100 651q0 39 26.5 66.5t66.5 27.5t66 -27.5t26 -66.5q0 -38 -26 -65t-66 -27t-66.5 27t-26.5 65z" />
<glyph unicode="&#xb8;" horiz-adv-x="456" d="M70 -420l36 66q56 -29 105 -29q42 0 69 23.5t27 68.5q0 48 -37.5 71.5t-119.5 24.5l18 224h72v-164q163 -17 163 -156q0 -81 -53.5 -126.5t-134.5 -45.5q-85 0 -145 43z" />
<glyph unicode="&#xb9;" horiz-adv-x="704" d="M143 1346l236 161h84v-848h-94v744l-181 -123z" />
<glyph unicode="&#xbb;" horiz-adv-x="1019" d="M135 164l246 426l-246 426l70 47l291 -436v-78l-291 -432zM524 164l246 426l-246 426l70 47l291 -436v-78l-291 -432z" />
<glyph unicode="&#xbc;" horiz-adv-x="1615" d="M139 1241l236 162h84v-848h-94v743l-181 -122zM410 -111l718 1641l78 -35l-717 -1640zM999 213v74l228 575l82 -33l-213 -534h237l13 237h81v-237h97v-82h-97v-213h-94v213h-334z" />
<glyph unicode="&#xbd;" horiz-adv-x="1615" d="M139 1241l236 162h84v-848h-94v743l-181 -122zM410 -111l718 1641l78 -35l-717 -1640zM1026 733q96 125 234 125q101 0 162 -63.5t61 -163.5q0 -48 -12 -92.5t-30.5 -83t-66 -101.5t-91.5 -114.5t-134 -155.5h352l-12 -84h-447v80q92 107 142 167t95 119.5t63.5 99 t29 78.5t10.5 83q0 70 -34.5 109.5t-96.5 39.5q-91 0 -164 -92z" />
<glyph unicode="&#xbe;" horiz-adv-x="1615" d="M106 653l58 52q73 -84 172 -84q74 0 117 48t43 128q0 166 -160 166h-53l12 75h37q61 0 103 40.5t42 115.5q0 68 -36.5 106.5t-98.5 38.5q-85 0 -166 -75l-49 53q95 100 223 100q103 0 163 -60t60 -155q0 -82 -43 -132t-118 -64q82 -6 133 -60.5t51 -150.5 q0 -112 -69.5 -184t-188.5 -72q-141 0 -232 114zM410 -111l718 1641l78 -35l-717 -1640zM999 213v74l228 575l82 -33l-213 -534h237l13 237h81v-237h97v-82h-97v-213h-94v213h-334z" />
<glyph unicode="&#xbf;" horiz-adv-x="813" d="M80 -127q0 62 17.5 112t46 83.5t62.5 63t68.5 58t63 60.5t46 79.5t17.5 106.5v74h111v-80q0 -68 -17.5 -122t-45 -89.5t-61 -65.5t-67.5 -57t-61.5 -56.5t-45 -72t-17.5 -94.5q0 -91 55 -145t147 -54q77 0 138 36t122 114l74 -60q-138 -186 -340 -186q-145 0 -229 85.5 t-84 209.5zM362 877q0 38 26 65t67 27q40 0 65 -27t25 -65q0 -40 -25 -67.5t-65 -27.5q-42 0 -67.5 27.5t-25.5 67.5z" />
<glyph unicode="&#xc0;" horiz-adv-x="1019" d="M35 0l401 1403h148l399 -1403h-121l-104 385h-500l-106 -385h-117zM285 483h446l-223 822zM311 1710l51 100l334 -192l-32 -64z" />
<glyph unicode="&#xc1;" horiz-adv-x="1019" d="M35 0l401 1403h148l399 -1403h-121l-104 385h-500l-106 -385h-117zM285 483h446l-223 822zM317 1620l334 190l51 -100l-352 -156z" />
<glyph unicode="&#xc2;" horiz-adv-x="1019" d="M35 0l401 1403h148l399 -1403h-121l-104 385h-500l-106 -385h-117zM246 1616l227 211h72l227 -211l-49 -51l-215 164l-213 -164zM285 483h446l-223 822z" />
<glyph unicode="&#xc3;" horiz-adv-x="1019" d="M35 0l401 1403h148l399 -1403h-121l-104 385h-500l-106 -385h-117zM242 1669q67 137 164 137q35 0 72.5 -23t71.5 -46t62 -23q29 0 51.5 20.5t47.5 67.5l67 -33q-61 -141 -164 -141q-38 0 -76.5 22.5t-71.5 45t-58 22.5q-29 0 -51 -19t-48 -63zM285 483h446l-223 822z " />
<glyph unicode="&#xc4;" horiz-adv-x="1019" d="M35 0l401 1403h148l399 -1403h-121l-104 385h-500l-106 -385h-117zM274 1694q0 34 21 56t55 22t55 -22t21 -56q0 -33 -21.5 -55.5t-54.5 -22.5t-54.5 22.5t-21.5 55.5zM285 483h446l-223 822zM610 1694q0 34 22 56t56 22t55 -22t21 -56q0 -33 -21.5 -55.5t-54.5 -22.5 t-55.5 22.5t-22.5 55.5z" />
<glyph unicode="&#xc5;" horiz-adv-x="1019" d="M35 0l401 1403h148l399 -1403h-121l-104 385h-500l-106 -385h-117zM285 483h446l-223 822zM334 1745q0 88 49 139t129 51q79 0 127.5 -51t48.5 -139t-48.5 -138.5t-127.5 -50.5q-81 0 -129.5 50.5t-48.5 138.5zM414 1745q0 -121 98 -121q96 0 96 121q0 123 -96 123 q-98 0 -98 -123z" />
<glyph unicode="&#xc6;" horiz-adv-x="1388" d="M-2 0l473 1403h756l-15 -98h-565l115 -529h450v-98h-430l123 -580h404v-98h-500l-78 379h-491l-123 -379h-119zM270 477h441l-172 832z" />
<glyph unicode="&#xc7;" horiz-adv-x="974" d="M115 702q0 182 38.5 322.5t106.5 226.5t156.5 130t193.5 44q97 0 170 -32t144 -97l-64 -73q-61 53 -118 77.5t-128 24.5q-81 0 -146.5 -33t-117.5 -104t-81 -194.5t-29 -291.5q0 -161 28 -282.5t79 -194t117.5 -108t147.5 -35.5q82 0 140.5 29.5t119.5 83.5l64 -74 q-126 -133 -297 -141l-2 -115q164 -17 164 -156q0 -81 -54 -126.5t-135 -45.5q-85 0 -145 43l37 66q60 -29 104 -29q42 0 69.5 23.5t27.5 68.5q0 48 -38 71.5t-120 24.5l14 175q-203 20 -324.5 204t-121.5 518z" />
<glyph unicode="&#xc8;" horiz-adv-x="903" d="M190 0v1403h623l-14 -98h-490v-529h424v-98h-424v-580h514v-98h-633zM309 1710l51 100l334 -192l-32 -64z" />
<glyph unicode="&#xc9;" horiz-adv-x="903" d="M190 0v1403h623l-14 -98h-490v-529h424v-98h-424v-580h514v-98h-633zM315 1620l334 190l51 -100l-352 -156z" />
<glyph unicode="&#xca;" horiz-adv-x="903" d="M190 0v1403h623l-14 -98h-490v-529h424v-98h-424v-580h514v-98h-633zM242 1616l227 211h72l227 -211l-49 -51l-215 164l-213 -164z" />
<glyph unicode="&#xcb;" horiz-adv-x="903" d="M190 0v1403h623l-14 -98h-490v-529h424v-98h-424v-580h514v-98h-633zM272 1694q0 34 21 56t55 22t55 -22t21 -56q0 -33 -21.5 -55.5t-54.5 -22.5t-54.5 22.5t-21.5 55.5zM608 1694q0 34 22 56t56 22t55 -22t21 -56q0 -33 -21.5 -55.5t-54.5 -22.5t-55.5 22.5t-22.5 55.5z " />
<glyph unicode="&#xcc;" horiz-adv-x="499" d="M49 1710l51 100l334 -192l-33 -64zM190 0v1403h119v-1403h-119z" />
<glyph unicode="&#xcd;" horiz-adv-x="499" d="M55 1620l334 190l51 -100l-352 -156zM190 0v1403h119v-1403h-119z" />
<glyph unicode="&#xce;" horiz-adv-x="499" d="M-16 1616l227 211h72l227 -211l-49 -51l-215 164l-213 -164zM190 0v1403h119v-1403h-119z" />
<glyph unicode="&#xcf;" horiz-adv-x="499" d="M12 1694q0 34 21 56t55 22t55 -22t21 -56q0 -33 -21.5 -55.5t-54.5 -22.5t-54.5 22.5t-21.5 55.5zM190 0v1403h119v-1403h-119zM348 1694q0 34 22 56t56 22t55 -22t21 -56q0 -33 -21.5 -55.5t-54.5 -22.5t-55.5 22.5t-22.5 55.5z" />
<glyph unicode="&#xd0;" horiz-adv-x="1132" d="M43 674v96h160v633h246q94 0 170 -15.5t152.5 -61t128 -119.5t84 -200t32.5 -294q0 -122 -17 -223t-46 -174t-71 -129t-89 -90.5t-103 -57t-109 -31t-112 -8.5h-266v674h-160zM322 98h153q68 0 124.5 14.5t112.5 56t94.5 108t62.5 178t24 258.5q0 108 -13 195.5 t-35 148.5t-55 106.5t-68.5 72t-80.5 42.5t-86 21.5t-90 5.5h-143v-535h294v-96h-294v-576z" />
<glyph unicode="&#xd1;" horiz-adv-x="1183" d="M190 0v1403h156l551 -1272q-16 244 -16 406v866h112v-1403h-155l-553 1270q16 -188 16 -465v-805h-111zM338 1669q67 137 164 137q35 0 72.5 -23t72 -46t62.5 -23t50 20.5t48 67.5l67 -33q-61 -141 -163 -141q-38 0 -77 22.5t-72 45t-58 22.5q-29 0 -50 -19t-48 -63z" />
<glyph unicode="&#xd2;" horiz-adv-x="1222" d="M115 698q0 352 134.5 539.5t362.5 187.5q230 0 363 -183t133 -542q0 -353 -132 -538t-364 -185q-230 0 -363.5 183.5t-133.5 537.5zM240 698q0 -316 99 -468t273 -152q371 0 371 622q0 321 -97 473t-274 152q-176 0 -274 -153.5t-98 -473.5zM414 1710l51 100l334 -192 l-33 -64z" />
<glyph unicode="&#xd3;" horiz-adv-x="1222" d="M115 698q0 352 134.5 539.5t362.5 187.5q230 0 363 -183t133 -542q0 -353 -132 -538t-364 -185q-230 0 -363.5 183.5t-133.5 537.5zM240 698q0 -316 99 -468t273 -152q371 0 371 622q0 321 -97 473t-274 152q-176 0 -274 -153.5t-98 -473.5zM420 1620l334 190l51 -100 l-352 -156z" />
<glyph unicode="&#xd4;" horiz-adv-x="1222" d="M115 698q0 352 134.5 539.5t362.5 187.5q230 0 363 -183t133 -542q0 -353 -132 -538t-364 -185q-230 0 -363.5 183.5t-133.5 537.5zM240 698q0 -316 99 -468t273 -152q371 0 371 622q0 321 -97 473t-274 152q-176 0 -274 -153.5t-98 -473.5zM346 1616l227 211h72 l227 -211l-49 -51l-215 164l-213 -164z" />
<glyph unicode="&#xd5;" horiz-adv-x="1222" d="M115 698q0 352 134.5 539.5t362.5 187.5q230 0 363 -183t133 -542q0 -353 -132 -538t-364 -185q-230 0 -363.5 183.5t-133.5 537.5zM240 698q0 -316 99 -468t273 -152q371 0 371 622q0 321 -97 473t-274 152q-176 0 -274 -153.5t-98 -473.5zM342 1669q67 137 164 137 q35 0 72.5 -23t72 -46t62.5 -23t50 20.5t48 67.5l68 -33q-61 -141 -164 -141q-38 0 -77 22.5t-72 45t-58 22.5q-29 0 -50 -19t-48 -63z" />
<glyph unicode="&#xd6;" horiz-adv-x="1222" d="M115 698q0 352 134.5 539.5t362.5 187.5q230 0 363 -183t133 -542q0 -353 -132 -538t-364 -185q-230 0 -363.5 183.5t-133.5 537.5zM240 698q0 -316 99 -468t273 -152q371 0 371 622q0 321 -97 473t-274 152q-176 0 -274 -153.5t-98 -473.5zM377 1694q0 34 21 56t55 22 q33 0 54 -22t21 -56q0 -33 -21 -55.5t-54 -22.5t-54.5 22.5t-21.5 55.5zM713 1694q0 34 22 56t56 22q33 0 54 -22t21 -56q0 -33 -21 -55.5t-54 -22.5t-55.5 22.5t-22.5 55.5z" />
<glyph unicode="&#xd7;" horiz-adv-x="870" d="M141 358l224 271l-224 272l76 62l217 -271l221 271l76 -62l-225 -272l225 -271l-76 -61l-219 266l-221 -266z" />
<glyph unicode="&#xd8;" horiz-adv-x="1222" d="M115 698q0 352 134.5 539.5t362.5 187.5q70 0 131 -18l62 250l100 -27l-71 -260q131 -72 202.5 -241t71.5 -429q0 -353 -132 -538t-364 -185q-67 0 -135 19l-59 -240l-101 27l70 252q-130 74 -201 241t-71 422zM238 698q0 -439 190 -567l297 1178q-56 16 -113 16 q-176 0 -275 -153.5t-99 -473.5zM498 96q52 -18 114 -18q368 0 371 622q0 450 -188 576z" />
<glyph unicode="&#xd9;" horiz-adv-x="1142" d="M170 389v1014h119v-1004q0 -319 282 -319q145 0 214 83.5t69 235.5v1004h119v-1014q0 -183 -103.5 -297.5t-298.5 -114.5q-197 0 -299 114t-102 298zM373 1710l51 100l334 -192l-33 -64z" />
<glyph unicode="&#xda;" horiz-adv-x="1142" d="M170 389v1014h119v-1004q0 -319 282 -319q145 0 214 83.5t69 235.5v1004h119v-1014q0 -183 -103.5 -297.5t-298.5 -114.5q-197 0 -299 114t-102 298zM379 1620l334 190l51 -100l-352 -156z" />
<glyph unicode="&#xdb;" horiz-adv-x="1142" d="M170 389v1014h119v-1004q0 -319 282 -319q145 0 214 83.5t69 235.5v1004h119v-1014q0 -183 -103.5 -297.5t-298.5 -114.5q-197 0 -299 114t-102 298zM307 1616l228 211h71l228 -211l-50 -51l-215 164l-213 -164z" />
<glyph unicode="&#xdc;" horiz-adv-x="1142" d="M170 389v1014h119v-1004q0 -319 282 -319q145 0 214 83.5t69 235.5v1004h119v-1014q0 -183 -103.5 -297.5t-298.5 -114.5q-197 0 -299 114t-102 298zM336 1694q0 34 21 56t55 22q33 0 54 -22t21 -56q0 -33 -21 -55.5t-54 -22.5t-54.5 22.5t-21.5 55.5zM672 1694 q0 34 22 56t56 22q33 0 54 -22t21 -56q0 -33 -21 -55.5t-54 -22.5t-55.5 22.5t-22.5 55.5z" />
<glyph unicode="&#xdd;" horiz-adv-x="927" d="M20 1403h127l322 -750l317 750h121l-383 -854v-549h-118v547zM272 1620l334 190l51 -100l-352 -156z" />
<glyph unicode="&#xde;" horiz-adv-x="1001" d="M190 0v1403h119v-252h135q244 0 366 -104t122 -320q0 -446 -488 -446h-135v-281h-119zM309 379h131q185 0 277 77.5t92 268.5q0 175 -89.5 252.5t-277.5 77.5h-133v-676z" />
<glyph unicode="&#xdf;" horiz-adv-x="1030" d="M182 0v1153q0 168 92.5 268.5t245.5 100.5q132 0 212.5 -76.5t80.5 -196.5q0 -61 -21 -111t-50.5 -82t-59.5 -60t-51 -60t-21 -68q0 -35 18.5 -66.5t48.5 -58t66 -54.5t72 -63t66 -76t48.5 -101t18.5 -132q0 -152 -81.5 -246t-207.5 -94q-101 0 -174 46l37 79 q58 -28 125 -28q85 0 134.5 62.5t49.5 180.5q0 63 -18 116.5t-46.5 90t-63.5 68.5t-69.5 60.5t-63 58t-46.5 68t-18 83.5t20.5 83t50 66.5t58.5 59t49.5 75t20.5 99.5q0 87 -51.5 134.5t-135.5 47.5q-102 0 -161.5 -71t-59.5 -205v-1151h-115z" />
<glyph unicode="&#xe0;" d="M96 297q0 168 105 257t297 89h155v117q0 122 -48.5 179.5t-155.5 57.5q-109 0 -256 -59l-29 84q163 72 299 72q155 0 230 -84t75 -242v-553q0 -71 18 -105.5t58 -52.5l-25 -80q-68 15 -104.5 56t-46.5 121q-98 -177 -283 -177q-134 0 -211.5 88t-77.5 232zM215 303 q0 -114 50 -173.5t141 -59.5q165 0 247 194v295h-143q-295 0 -295 -256zM274 1497l56 96l329 -209l-36 -61z" />
<glyph unicode="&#xe1;" d="M96 297q0 168 105 257t297 89h155v117q0 122 -48.5 179.5t-155.5 57.5q-109 0 -256 -59l-29 84q163 72 299 72q155 0 230 -84t75 -242v-553q0 -71 18 -105.5t58 -52.5l-25 -80q-68 15 -104.5 56t-46.5 121q-98 -177 -283 -177q-134 0 -211.5 88t-77.5 232zM215 303 q0 -114 50 -173.5t141 -59.5q165 0 247 194v295h-143q-295 0 -295 -256zM256 1384l332 209l53 -96l-348 -174z" />
<glyph unicode="&#xe2;" d="M96 297q0 168 105 257t297 89h155v117q0 122 -48.5 179.5t-155.5 57.5q-109 0 -256 -59l-29 84q163 72 299 72q155 0 230 -84t75 -242v-553q0 -71 18 -105.5t58 -52.5l-25 -80q-68 15 -104.5 56t-46.5 121q-98 -177 -283 -177q-134 0 -211.5 88t-77.5 232zM195 1374 l227 219h72l227 -219l-49 -53l-215 174l-213 -174zM215 303q0 -114 50 -173.5t141 -59.5q165 0 247 194v295h-143q-295 0 -295 -256z" />
<glyph unicode="&#xe3;" d="M96 297q0 168 105 257t297 89h155v117q0 122 -48.5 179.5t-155.5 57.5q-109 0 -256 -59l-29 84q163 72 299 72q155 0 230 -84t75 -242v-553q0 -71 18 -105.5t58 -52.5l-25 -80q-68 15 -104.5 56t-46.5 121q-98 -177 -283 -177q-134 0 -211.5 88t-77.5 232zM190 1411 q67 137 164 137q35 0 72.5 -23t72 -46t62.5 -23t50 20.5t48 67.5l68 -33q-61 -141 -164 -141q-38 0 -77 22.5t-72 45t-58 22.5q-29 0 -50 -19t-48 -63zM215 303q0 -114 50 -173.5t141 -59.5q165 0 247 194v295h-143q-295 0 -295 -256z" />
<glyph unicode="&#xe4;" d="M96 297q0 168 105 257t297 89h155v117q0 122 -48.5 179.5t-155.5 57.5q-109 0 -256 -59l-29 84q163 72 299 72q155 0 230 -84t75 -242v-553q0 -71 18 -105.5t58 -52.5l-25 -80q-68 15 -104.5 56t-46.5 121q-98 -177 -283 -177q-134 0 -211.5 88t-77.5 232zM213 1436 q0 34 21 55.5t55 21.5t55 -21.5t21 -55.5q0 -33 -21.5 -55.5t-54.5 -22.5t-54.5 22.5t-21.5 55.5zM215 303q0 -114 50 -173.5t141 -59.5q165 0 247 194v295h-143q-295 0 -295 -256zM549 1436q0 34 22 55.5t56 21.5t54.5 -21.5t20.5 -55.5q0 -33 -21 -55.5t-54 -22.5 t-55.5 22.5t-22.5 55.5z" />
<glyph unicode="&#xe5;" d="M96 297q0 168 105 257t297 89h155v117q0 122 -48.5 179.5t-155.5 57.5q-109 0 -256 -59l-29 84q163 72 299 72q155 0 230 -84t75 -242v-553q0 -71 18 -105.5t58 -52.5l-25 -80q-68 15 -104.5 56t-46.5 121q-98 -177 -283 -177q-134 0 -211.5 88t-77.5 232zM215 303 q0 -114 50 -173.5t141 -59.5q165 0 247 194v295h-143q-295 0 -295 -256zM281 1487q0 88 49 139t129 51q79 0 127.5 -51t48.5 -139t-48.5 -138.5t-127.5 -50.5q-81 0 -129.5 50.5t-48.5 138.5zM360 1487q0 -121 99 -121q96 0 96 121q0 123 -96 123q-99 0 -99 -123z" />
<glyph unicode="&#xe6;" horiz-adv-x="1497" d="M96 297q0 166 106.5 256t297.5 90h155v105q0 129 -49 189t-160 60q-102 0 -249 -59l-29 84q163 72 295 72q117 0 184 -52t94 -153q99 205 299 205q171 0 263 -135.5t92 -383.5q0 -40 -4 -86h-615q7 -211 82.5 -313t200.5 -102q70 0 127 25t119 77l53 -67 q-138 -132 -307 -132q-113 0 -197.5 56.5t-134.5 161.5q-69 -116 -148.5 -167t-181.5 -51q-135 0 -214 88t-79 232zM217 303q0 -112 51 -172.5t142 -60.5q84 0 149 52t127 167q-28 98 -31 235l2 4h-2v31h-147q-141 0 -216 -64.5t-75 -191.5zM776 578h504v34q0 387 -242 387 q-115 0 -185.5 -104.5t-76.5 -316.5z" />
<glyph unicode="&#xe7;" horiz-adv-x="823" d="M111 528q0 267 107 416.5t290 149.5q150 0 262 -109l-55 -72q-97 84 -203 84q-130 0 -204.5 -115.5t-74.5 -351.5q0 -233 73.5 -343.5t203.5 -110.5q106 0 209 86l57 -70q-110 -106 -244 -115l-2 -112q164 -17 164 -156q0 -81 -53.5 -126.5t-134.5 -45.5q-86 0 -146 43 l37 66q60 -29 105 -29q42 0 69 23.5t27 68.5q0 48 -38 71.5t-120 24.5l15 177q-162 21 -253 160.5t-91 385.5z" />
<glyph unicode="&#xe8;" d="M111 526q0 266 101.5 417t276.5 151q176 0 268.5 -135t92.5 -384q0 -40 -4 -86h-617q16 -415 281 -415q73 0 130.5 25t119.5 77l53 -67q-138 -132 -305 -132q-186 0 -291.5 142t-105.5 407zM229 578h508v34q0 387 -245 387q-116 0 -186 -101.5t-77 -319.5zM307 1497 l55 96l330 -209l-37 -61z" />
<glyph unicode="&#xe9;" d="M111 526q0 266 101.5 417t276.5 151q176 0 268.5 -135t92.5 -384q0 -40 -4 -86h-617q16 -415 281 -415q73 0 130.5 25t119.5 77l53 -67q-138 -132 -305 -132q-186 0 -291.5 142t-105.5 407zM229 578h508v34q0 387 -245 387q-116 0 -186 -101.5t-77 -319.5zM289 1384 l332 209l53 -96l-348 -174z" />
<glyph unicode="&#xea;" d="M111 526q0 266 101.5 417t276.5 151q176 0 268.5 -135t92.5 -384q0 -40 -4 -86h-617q16 -415 281 -415q73 0 130.5 25t119.5 77l53 -67q-138 -132 -305 -132q-186 0 -291.5 142t-105.5 407zM227 1374l228 219h71l228 -219l-49 -53l-216 174l-213 -174zM229 578h508v34 q0 387 -245 387q-116 0 -186 -101.5t-77 -319.5z" />
<glyph unicode="&#xeb;" d="M111 526q0 266 101.5 417t276.5 151q176 0 268.5 -135t92.5 -384q0 -40 -4 -86h-617q16 -415 281 -415q73 0 130.5 25t119.5 77l53 -67q-138 -132 -305 -132q-186 0 -291.5 142t-105.5 407zM229 578h508v34q0 387 -245 387q-116 0 -186 -101.5t-77 -319.5zM246 1436 q0 34 21 55.5t55 21.5t54.5 -21.5t20.5 -55.5q0 -33 -21 -55.5t-54 -22.5t-54.5 22.5t-21.5 55.5zM582 1436q0 34 21.5 55.5t55.5 21.5t55 -21.5t21 -55.5q0 -33 -21.5 -55.5t-54.5 -22.5t-55 22.5t-22 55.5z" />
<glyph unicode="&#xec;" horiz-adv-x="479" d="M55 1497l56 96l329 -209l-37 -61zM182 0v1071h115v-1071h-115z" />
<glyph unicode="&#xed;" horiz-adv-x="479" d="M37 1384l332 209l53 -96l-348 -174zM182 0v1071h115v-1071h-115z" />
<glyph unicode="&#xee;" horiz-adv-x="479" d="M-25 1374l228 219h71l228 -219l-49 -53l-215 174l-213 -174zM182 0v1071h115v-1071h-115z" />
<glyph unicode="&#xef;" horiz-adv-x="479" d="M-6 1436q0 34 21 55.5t55 21.5t54.5 -21.5t20.5 -55.5q0 -33 -21 -55.5t-54 -22.5t-54.5 22.5t-21.5 55.5zM182 0v1071h115v-1071h-115zM330 1436q0 34 22 55.5t56 21.5t54.5 -21.5t20.5 -55.5q0 -33 -21 -55.5t-54 -22.5t-55.5 22.5t-22.5 55.5z" />
<glyph unicode="&#xf0;" horiz-adv-x="987" d="M111 477q0 132 39.5 240t119.5 174.5t187 66.5q87 0 154.5 -40t125.5 -117q-19 160 -72.5 277t-156.5 210l-137 -158l-80 39l147 172q-117 72 -215 93l23 88q134 -30 258 -111l123 148l69 -56l-121 -145q152 -127 221.5 -313.5t69.5 -466.5q0 -293 -102.5 -447 t-280.5 -154q-170 0 -271 132.5t-101 367.5zM229 477q0 -197 67 -301t187 -104q127 0 197 128.5t70 381.5q0 67 -2 96q-114 186 -273 186q-122 0 -184 -105.5t-62 -281.5z" />
<glyph unicode="&#xf1;" horiz-adv-x="1030" d="M182 0v1071h99l12 -186q124 209 307 209q124 0 190 -86t66 -244v-764h-115v750q0 131 -40.5 190t-125.5 59q-155 0 -278 -227v-772h-115zM256 1411q67 137 164 137q35 0 72.5 -23t72 -46t62.5 -23t50 20.5t48 67.5l68 -33q-61 -141 -164 -141q-38 0 -77 22.5t-72 45 t-58 22.5q-29 0 -50 -19t-48 -63z" />
<glyph unicode="&#xf2;" horiz-adv-x="1011" d="M111 535q0 269 105 414t292 145t290 -141t103 -414q0 -267 -105.5 -414.5t-289.5 -147.5q-187 0 -291 146t-104 412zM231 535q0 -233 71.5 -347t203.5 -114q274 0 274 465q0 458 -272 458q-277 0 -277 -462zM324 1497l55 96l330 -209l-37 -61z" />
<glyph unicode="&#xf3;" horiz-adv-x="1011" d="M111 535q0 269 105 414t292 145t290 -141t103 -414q0 -267 -105.5 -414.5t-289.5 -147.5q-187 0 -291 146t-104 412zM231 535q0 -233 71.5 -347t203.5 -114q274 0 274 465q0 458 -272 458q-277 0 -277 -462zM303 1384l332 209l53 -96l-348 -174z" />
<glyph unicode="&#xf4;" horiz-adv-x="1011" d="M111 535q0 269 105 414t292 145t290 -141t103 -414q0 -267 -105.5 -414.5t-289.5 -147.5q-187 0 -291 146t-104 412zM231 535q0 -233 71.5 -347t203.5 -114q274 0 274 465q0 458 -272 458q-277 0 -277 -462zM242 1374l227 219h72l227 -219l-49 -53l-215 174l-213 -174z " />
<glyph unicode="&#xf5;" horiz-adv-x="1011" d="M111 535q0 269 105 414t292 145t290 -141t103 -414q0 -267 -105.5 -414.5t-289.5 -147.5q-187 0 -291 146t-104 412zM231 535q0 -233 71.5 -347t203.5 -114q274 0 274 465q0 458 -272 458q-277 0 -277 -462zM238 1411q67 137 163 137q35 0 72.5 -23t72 -46t62.5 -23 q29 0 51.5 20.5t47.5 67.5l67 -33q-61 -141 -164 -141q-38 0 -77 22.5t-72 45t-58 22.5q-29 0 -50 -19t-48 -63z" />
<glyph unicode="&#xf6;" horiz-adv-x="1011" d="M111 535q0 269 105 414t292 145t290 -141t103 -414q0 -267 -105.5 -414.5t-289.5 -147.5q-187 0 -291 146t-104 412zM231 535q0 -233 71.5 -347t203.5 -114q274 0 274 465q0 458 -272 458q-277 0 -277 -462zM260 1436q0 34 21 55.5t55 21.5t55 -21.5t21 -55.5 q0 -33 -21.5 -55.5t-54.5 -22.5t-54.5 22.5t-21.5 55.5zM596 1436q0 34 22 55.5t56 21.5t55 -21.5t21 -55.5q0 -33 -21.5 -55.5t-54.5 -22.5t-55.5 22.5t-22.5 55.5z" />
<glyph unicode="&#xf7;" horiz-adv-x="870" d="M119 631v96h633v-96h-633zM344 231q0 38 25.5 65.5t64.5 27.5q41 0 66.5 -27.5t25.5 -65.5t-25.5 -65t-66.5 -27q-39 0 -64.5 27t-25.5 65zM344 1124q0 38 25.5 65.5t64.5 27.5q41 0 66.5 -27.5t25.5 -65.5q0 -40 -25 -67t-67 -27q-39 0 -64.5 27.5t-25.5 66.5z" />
<glyph unicode="&#xf8;" horiz-adv-x="1011" d="M111 535q0 269 105 414t292 145q44 0 106 -15l70 246l94 -27l-76 -256q199 -122 199 -503q0 -267 -105.5 -414.5t-289.5 -147.5q-58 0 -107 15l-71 -246l-92 25l77 260q-98 61 -150 189.5t-52 314.5zM229 535q0 -316 125 -414l240 864q-40 12 -86 12q-279 0 -279 -462z M422 84q31 -10 84 -10q276 0 276 465q0 317 -123 411z" />
<glyph unicode="&#xf9;" horiz-adv-x="1021" d="M172 279v792h115v-782q0 -108 44 -162.5t128 -54.5q157 0 266 217v782h115v-1071h-99l-8 182q-112 -205 -295 -205q-123 0 -194.5 81t-71.5 221zM324 1497l55 96l330 -209l-37 -61z" />
<glyph unicode="&#xfa;" horiz-adv-x="1021" d="M172 279v792h115v-782q0 -108 44 -162.5t128 -54.5q157 0 266 217v782h115v-1071h-99l-8 182q-112 -205 -295 -205q-123 0 -194.5 81t-71.5 221zM305 1384l332 209l53 -96l-348 -174z" />
<glyph unicode="&#xfb;" horiz-adv-x="1021" d="M172 279v792h115v-782q0 -108 44 -162.5t128 -54.5q157 0 266 217v782h115v-1071h-99l-8 182q-112 -205 -295 -205q-123 0 -194.5 81t-71.5 221zM244 1374l227 219h72l227 -219l-49 -53l-215 174l-213 -174z" />
<glyph unicode="&#xfc;" horiz-adv-x="1021" d="M172 279v792h115v-782q0 -108 44 -162.5t128 -54.5q157 0 266 217v782h115v-1071h-99l-8 182q-112 -205 -295 -205q-123 0 -194.5 81t-71.5 221zM262 1436q0 34 21 55.5t55 21.5t55 -21.5t21 -55.5q0 -33 -21.5 -55.5t-54.5 -22.5t-54.5 22.5t-21.5 55.5zM598 1436 q0 34 22 55.5t56 21.5t55 -21.5t21 -55.5q0 -33 -21.5 -55.5t-54.5 -22.5t-55.5 22.5t-22.5 55.5z" />
<glyph unicode="&#xfd;" horiz-adv-x="843" d="M33 1071h119l274 -987l268 987h117l-313 -1075q-54 -185 -138 -281t-247 -133l-15 90q91 25 146.5 67.5t86 100t62.5 160.5h-43zM221 1384l332 209l53 -96l-348 -174z" />
<glyph unicode="&#xfe;" horiz-adv-x="1021" d="M182 -420v1927l115 15v-598q109 170 278 170q164 0 249 -140.5t85 -412.5q0 -267 -92 -415.5t-260 -148.5q-159 0 -260 150v-526zM297 236q98 -162 240 -162q251 0 251 467q0 235 -59 345.5t-176 110.5q-143 0 -256 -180v-581z" />
<glyph unicode="&#xff;" horiz-adv-x="843" d="M33 1071h119l274 -987l268 987h117l-313 -1075q-54 -185 -138 -281t-247 -133l-15 90q91 25 146.5 67.5t86 100t62.5 160.5h-43zM178 1436q0 34 21 55.5t55 21.5t55 -21.5t21 -55.5q0 -33 -21.5 -55.5t-54.5 -22.5t-54.5 22.5t-21.5 55.5zM514 1436q0 34 22 55.5t56 21.5 t55 -21.5t21 -55.5q0 -33 -21.5 -55.5t-54.5 -22.5t-55.5 22.5t-22.5 55.5z" />
<glyph unicode="&#x152;" horiz-adv-x="1542" d="M115 698q0 342 132 534.5t343 192.5q66 0 127 -22h731l-14 -98h-566q186 -157 201 -529h299v-98h-297q-9 -407 -207 -580h594v-98h-743q-64 -23 -125 -23q-212 0 -343.5 189.5t-131.5 531.5zM240 698q0 -307 96 -463.5t256 -156.5q167 0 260.5 158t93.5 477 q0 304 -95 458t-259 154q-161 0 -256.5 -158t-95.5 -469z" />
<glyph unicode="&#x153;" horiz-adv-x="1613" d="M109 535q0 266 105 412.5t290 146.5q236 0 336 -258q47 122 127.5 190t191.5 68q172 0 264.5 -137t92.5 -382q0 -29 -5 -86h-614q9 -210 83.5 -312.5t197.5 -102.5q72 0 128.5 24.5t118.5 77.5l54 -67q-138 -132 -305 -132q-120 0 -204.5 68.5t-133.5 194.5 q-49 -124 -133.5 -193.5t-200.5 -69.5q-185 0 -289 146t-104 412zM229 535q0 -233 70.5 -347t202.5 -114t203 118.5t71 346.5q0 225 -70 341.5t-202 116.5t-203.5 -113t-71.5 -349zM897 578h506v34q0 187 -61 287t-183 100q-115 0 -185.5 -104.5t-76.5 -316.5z" />
<glyph unicode="&#x178;" horiz-adv-x="927" d="M20 1403h127l322 -750l317 750h121l-383 -854v-549h-118v547zM229 1694q0 34 21 56t55 22t55 -22t21 -56q0 -33 -21.5 -55.5t-54.5 -22.5t-54.5 22.5t-21.5 55.5zM565 1694q0 34 22 56t56 22t55 -22t21 -56q0 -33 -21.5 -55.5t-54.5 -22.5t-55.5 22.5t-22.5 55.5z" />
<glyph unicode="&#x2c6;" horiz-adv-x="649" d="M70 1374l227 219h72l227 -219l-49 -53l-215 174l-213 -174z" />
<glyph unicode="&#x2dc;" horiz-adv-x="659" d="M70 1411q67 137 163 137q35 0 72.5 -23t72 -46t62.5 -23q27 0 50.5 21t48.5 67l67 -33q-61 -141 -164 -141q-38 0 -76.5 22.5t-71.5 45t-58 22.5q-29 0 -51 -19t-48 -63z" />
<glyph unicode="&#x2000;" horiz-adv-x="967" />
<glyph unicode="&#x2001;" horiz-adv-x="1935" />
<glyph unicode="&#x2002;" horiz-adv-x="967" />
<glyph unicode="&#x2003;" horiz-adv-x="1935" />
<glyph unicode="&#x2004;" horiz-adv-x="645" />
<glyph unicode="&#x2005;" horiz-adv-x="483" />
<glyph unicode="&#x2006;" horiz-adv-x="322" />
<glyph unicode="&#x2007;" horiz-adv-x="322" />
<glyph unicode="&#x2008;" horiz-adv-x="241" />
<glyph unicode="&#x2009;" horiz-adv-x="387" />
<glyph unicode="&#x200a;" horiz-adv-x="107" />
<glyph unicode="&#x2010;" horiz-adv-x="712" d="M121 592v98h471v-98h-471z" />
<glyph unicode="&#x2011;" horiz-adv-x="712" d="M121 592v98h471v-98h-471z" />
<glyph unicode="&#x2012;" horiz-adv-x="712" d="M121 592v98h471v-98h-471z" />
<glyph unicode="&#x2013;" horiz-adv-x="923" d="M74 592v98h778v-98h-778z" />
<glyph unicode="&#x2014;" horiz-adv-x="1388" d="M74 592v98h1243v-98h-1243z" />
<glyph unicode="&#x2018;" horiz-adv-x="407" d="M117 1167q0 34 26 95l99 254h71l-69 -275q39 -25 39 -72q0 -36 -23.5 -61t-60.5 -25t-59.5 24.5t-22.5 59.5z" />
<glyph unicode="&#x2019;" horiz-adv-x="407" d="M92 1083l72 273q-39 23 -39 71q0 37 22.5 61.5t61.5 24.5q37 0 59.5 -24t22.5 -59q0 -24 -27 -95l-100 -252h-72z" />
<glyph unicode="&#x201a;" horiz-adv-x="407" d="M92 -285l72 275q-39 23 -39 71q0 37 22.5 61.5t61.5 24.5q37 0 59.5 -24.5t22.5 -59.5q0 -23 -27 -94l-100 -254h-72z" />
<glyph unicode="&#x201c;" horiz-adv-x="710" d="M117 1178q0 33 26 94l99 254h71l-69 -275q39 -25 39 -71q0 -36 -23.5 -61t-60.5 -25t-59.5 24.5t-22.5 59.5zM420 1180q0 33 26 94l101 252h69l-69 -273q39 -28 39 -71q0 -38 -22.5 -63t-61.5 -25q-37 0 -59.5 25t-22.5 61z" />
<glyph unicode="&#x201d;" horiz-adv-x="710" d="M92 1083l72 273q-39 23 -39 71q0 37 22.5 61.5t61.5 24.5q37 0 59.5 -24t22.5 -59q0 -24 -27 -95l-100 -252h-72zM397 1081l70 275q-39 25 -39 71q0 36 23.5 61t60.5 25t59.5 -24t22.5 -59q0 -32 -27 -95l-98 -254h-72z" />
<glyph unicode="&#x201e;" horiz-adv-x="710" d="M92 -285l72 275q-39 23 -39 71q0 37 22.5 61.5t61.5 24.5q37 0 59.5 -24.5t22.5 -59.5q0 -23 -27 -94l-100 -254h-72zM397 -285l70 275q-39 25 -39 71q0 36 23.5 61t60.5 25t59.5 -24.5t22.5 -59.5q0 -31 -27 -94l-98 -254h-72z" />
<glyph unicode="&#x2022;" horiz-adv-x="540" d="M127 709q0 63 40 104t103 41q64 0 104 -41.5t40 -103.5t-40 -104t-104 -42q-62 0 -102.5 42t-40.5 104z" />
<glyph unicode="&#x2026;" horiz-adv-x="1157" d="M100 72q0 38 26.5 65t66.5 27t66 -27t26 -65t-26 -66.5t-66 -28.5t-66.5 28.5t-26.5 66.5zM487 72q0 38 25.5 65t65.5 27q41 0 66.5 -27t25.5 -65q0 -39 -25.5 -67t-66.5 -28q-40 0 -65.5 28.5t-25.5 66.5zM872 72q0 38 26.5 65t66.5 27t66 -27t26 -65t-26 -66.5 t-66 -28.5t-66.5 28.5t-26.5 66.5z" />
<glyph unicode="&#x202f;" horiz-adv-x="387" />
<glyph unicode="&#x2039;" horiz-adv-x="630" d="M135 549v78l289 436l72 -47l-248 -426l248 -426l-70 -47z" />
<glyph unicode="&#x203a;" horiz-adv-x="630" d="M135 164l246 426l-246 426l70 47l291 -436v-78l-291 -432z" />
<glyph unicode="&#x205f;" horiz-adv-x="483" />
<glyph unicode="&#x20ac;" horiz-adv-x="1009" d="M61 498l19 84h121v215h-140l19 84h127q39 247 156 375t286 128q162 0 299 -110l-45 -82q-68 51 -124 72.5t-128 21.5q-124 0 -208 -98.5t-115 -306.5h475l-21 -84h-460v-215h426l-17 -84h-407q22 -223 105.5 -322.5t225.5 -99.5q71 0 125.5 21t120.5 63v-103 q-129 -80 -260 -80q-182 0 -294 129.5t-142 391.5h-144z" />
<glyph unicode="&#x2122;" horiz-adv-x="1529" d="M72 1319v84h553l-15 -84h-217v-705h-96v705h-225zM686 614l33 789h129l186 -600l185 600h127l32 -789h-92l-18 424q-5 121 -2 267h-2l-189 -603h-82l-196 609h-2q3 -140 -2 -273l-17 -424h-90z" />
<glyph unicode="&#x25fc;" horiz-adv-x="1075" d="M0 0v1075h1075v-1075h-1075z" />
</font>
</defs>
</svg>
