<?xml version="1.0" standalone="no"?>
<!DOCTYPE svg PUBLIC "-//W3C//DTD SVG 1.1//EN" "http://www.w3.org/Graphics/SVG/1.1/DTD/svg11.dtd" >
<svg xmlns="http://www.w3.org/2000/svg" xmlns:xlink="http://www.w3.org/1999/xlink" version="1.1">
<metadata></metadata>
<defs>
<font id="fira_sansbold" horiz-adv-x="491" >
<font-face units-per-em="2048" ascent="1638" descent="-410" />
<missing-glyph horiz-adv-x="485" />
<glyph unicode="&#xfb01;" horiz-adv-x="1226" d="M6 862v225h166v95q0 81 26 147t78.5 117t141.5 79.5t207 28.5q194 0 360 -81l-90 -207q-120 49 -227 49q-99 0 -135.5 -33t-36.5 -113v-82h604v-1087h-324v862h-280v-862h-324v862h-166z" />
<glyph unicode="&#xfb02;" horiz-adv-x="1292" d="M6 862v225h166v97q0 164 108 267t314 103q107 0 237 -36l293 30v-1243q0 -84 56 -84q30 0 53 10l63 -229q-88 -37 -209 -37q-136 0 -211 79t-75 228v1026q-94 23 -154 23q-87 0 -119 -32.5t-32 -112.5v-89h206l-36 -225h-170v-862h-324v862h-166z" />
<glyph horiz-adv-x="0" />
<glyph horiz-adv-x="682" />
<glyph unicode="&#xd;" horiz-adv-x="485" />
<glyph unicode=" "  horiz-adv-x="485" />
<glyph unicode="&#x09;" horiz-adv-x="485" />
<glyph unicode="&#xa0;" horiz-adv-x="485" />
<glyph unicode="!" d="M61 152q0 75 54.5 129.5t130.5 54.5q78 0 132 -54t54 -130q0 -77 -54 -132t-132 -55q-76 0 -130.5 55t-54.5 132zM74 1419h344l-41 -897h-262z" />
<glyph unicode="&#x22;" horiz-adv-x="899" d="M98 1419h293l-41 -571h-213zM510 1419h293l-39 -571h-215z" />
<glyph unicode="#" horiz-adv-x="1140" d="M31 293v215h141l53 393h-119v215h148l35 268h268l-35 -268h205l35 268h268l-35 -268h115v-215h-143l-52 -393h119v-215h-147l-39 -293h-268l38 293h-204l-39 -293h-269l39 293h-114zM440 508h207l51 393h-204z" />
<glyph unicode="$" horiz-adv-x="1124" d="M18 174l166 180q146 -137 340 -137q100 0 157.5 45t57.5 123q0 76 -49.5 118t-197.5 87q-225 71 -320.5 170t-95.5 252q0 154 106.5 257t280.5 130v301h233v-303q201 -33 340 -166l-149 -176q-134 114 -297 114q-86 0 -135 -34.5t-49 -98.5t51.5 -100.5t212.5 -87.5 q207 -66 306 -164t99 -274q0 -159 -100 -269t-279 -147v-324h-233v312q-271 22 -445 192z" />
<glyph unicode="%" horiz-adv-x="1759" d="M59 1044q0 165 104.5 267t260.5 102q157 0 260.5 -101.5t103.5 -267.5t-103.5 -267t-260.5 -101q-156 0 -260.5 101.5t-104.5 266.5zM291 1044q0 -174 133 -174q131 0 131 174q0 175 -131 175q-133 0 -133 -175zM309 45l948 1430l199 -127l-948 -1430zM969 334 q0 165 104.5 265.5t261.5 100.5t261 -100.5t104 -265.5q0 -167 -104 -268t-261 -101t-261.5 101t-104.5 268zM1202 334q0 -35 6 -64t20.5 -55.5t41.5 -41.5t65 -15q131 0 131 176q0 172 -131 172q-133 0 -133 -172z" />
<glyph unicode="&#x26;" horiz-adv-x="1617" d="M123 362q0 123 66 215t210 187q-110 107 -153 181t-43 169q0 67 27.5 127.5t79.5 108.5t137.5 76t193.5 28q202 0 320 -92.5t118 -235.5q0 -120 -69 -210t-201 -177l276 -260q59 123 99 295l270 -80q-77 -227 -188 -381l247 -219l-276 -129l-160 154q-191 -154 -448 -154 q-228 0 -367 108.5t-139 288.5zM461 381q0 -85 61 -135.5t162 -50.5q128 0 231 77l-331 318q-123 -89 -123 -209zM514 1114q0 -53 25 -95.5t92 -109.5q72 47 105.5 96.5t33.5 112.5q0 59 -33.5 93t-91.5 34q-61 0 -96 -36t-35 -95z" />
<glyph unicode="'" horiz-adv-x="487" d="M98 1419h293l-41 -571h-213z" />
<glyph unicode="(" horiz-adv-x="665" d="M37 717q0 102 12 198t29.5 171.5t50.5 157.5t60.5 138t76 132.5t80 121.5t88.5 123l207 -139q-146 -209 -211 -416.5t-65 -486.5t65 -486.5t211 -416.5l-207 -140q-56 77 -88 123t-80 122t-76 132.5t-61 138t-50.5 157.5t-29.5 172t-12 198z" />
<glyph unicode=")" horiz-adv-x="665" d="M25 -186q145 210 210.5 418t65.5 485t-65.5 485t-210.5 418l206 139q57 -80 87.5 -123.5t79.5 -121t76 -132.5t60.5 -138t50.5 -158t29.5 -171t12.5 -198t-12 -198t-29.5 -171.5t-51 -158t-60.5 -138t-76 -133t-79.5 -121.5t-87.5 -123z" />
<glyph unicode="*" horiz-adv-x="919" d="M16 1096l84 258l262 -129l-40 295h278l-43 -297l260 133l86 -260l-289 -47l207 -209l-225 -164l-137 260l-133 -262l-226 164l205 211z" />
<glyph unicode="+" horiz-adv-x="1087" d="M98 555v250h312v319h268v-319h309v-250h-309v-319h-268v319h-312z" />
<glyph unicode="," d="M53 -362l88 360q-82 56 -82 154q0 78 54 131t133 53q78 0 131 -53t53 -131q0 -45 -14.5 -91.5t-50.5 -126.5l-129 -296h-183z" />
<glyph unicode="-" horiz-adv-x="833" d="M90 516v250h653v-250h-653z" />
<glyph unicode="." d="M59 152q0 75 54.5 129.5t132.5 54.5q76 0 130 -54.5t54 -129.5q0 -77 -54 -132t-130 -55q-78 0 -132.5 55t-54.5 132z" />
<glyph unicode="/" horiz-adv-x="1064" d="M150 -164l483 1835l282 -63l-481 -1837z" />
<glyph unicode="0" horiz-adv-x="1198" d="M78 690q0 350 134 536.5t388 186.5t388 -186.5t134 -536.5q0 -349 -134 -537t-388 -188t-388 188t-134 537zM410 690q0 -184 20 -289.5t60.5 -150.5t109.5 -45t109.5 43t61 149.5t20.5 292.5q0 187 -20.5 293.5t-61 148.5t-109.5 42t-109.5 -44.5t-60.5 -150t-20 -289.5z " />
<glyph unicode="1" horiz-adv-x="950" d="M27 1102l467 282h288v-1384h-317v1069l-297 -182z" />
<glyph unicode="2" horiz-adv-x="1058" d="M12 1174q183 239 475 239q223 0 350.5 -113t127.5 -282q0 -111 -45.5 -210.5t-160 -230t-333.5 -329.5h567l-32 -248h-902v229q127 126 205 204.5t149.5 156.5t108 126t65 98t37.5 88.5t9 82.5q0 84 -48 132t-130 48q-73 0 -130.5 -34t-119.5 -109z" />
<glyph unicode="3" horiz-adv-x="1064" d="M-8 174l174 170q70 -70 136 -101.5t147 -31.5q97 0 156 53.5t59 147.5q0 105 -56.5 151.5t-169.5 46.5h-114l34 224h80q93 0 146 47t53 133q0 75 -49.5 117.5t-134.5 42.5q-147 0 -271 -121l-159 174q195 186 466 186q217 0 339 -100t122 -252q0 -124 -70.5 -208.5 t-199.5 -121.5q139 -15 227 -100t88 -240q0 -87 -35 -164t-100 -135.5t-166.5 -92.5t-226.5 -34q-301 0 -475 209z" />
<glyph unicode="4" horiz-adv-x="1157" d="M57 299v215l394 905l274 -102l-334 -776h254l35 327h278v-327h156v-242h-156v-299h-315l-2 299h-584z" />
<glyph unicode="5" horiz-adv-x="1097" d="M27 174l182 168q111 -133 266 -133q105 0 164 63.5t59 182.5q0 231 -194 231q-78 0 -166 -49h-219v747h848l-37 -231h-502v-291q95 45 205 45q175 0 286 -120t111 -330q0 -221 -148.5 -356.5t-394.5 -135.5q-280 0 -460 209z" />
<glyph unicode="6" horiz-adv-x="1155" d="M78 633q0 234 71.5 410t208.5 273t322 97q176 0 315 -92l-118 -193q-93 54 -189 54q-117 0 -189 -98.5t-85 -280.5q123 129 293 129q175 0 286 -122.5t111 -336.5q0 -106 -35.5 -199t-99.5 -161.5t-159 -108t-208 -39.5q-108 0 -195 31.5t-148 89t-102 141t-60 184.5 t-19 222zM414 600q3 -219 46 -311t146 -92q86 0 130 72.5t44 199.5q0 129 -40.5 184.5t-123.5 55.5q-110 0 -202 -109z" />
<glyph unicode="7" horiz-adv-x="958" d="M27 1141v243h895v-219l-508 -1198l-293 99l465 1075h-559z" />
<glyph unicode="8" horiz-adv-x="1189" d="M59 369q0 231 258 344q-202 120 -202 327q0 166 135 269.5t346 103.5t345 -95.5t134 -260.5q0 -196 -221 -314q274 -131 274 -368q0 -174 -145.5 -292t-394.5 -118q-243 0 -386 116t-143 288zM385 385q0 -86 57.5 -137t155.5 -51q99 0 153 50.5t54 129.5q0 83 -47 131.5 t-166 91.5l-70 25q-137 -79 -137 -240zM428 1036q0 -70 40 -113.5t128 -80.5l45 -17q68 47 94.5 98t26.5 117q0 70 -42.5 112t-121.5 42q-78 0 -124 -41t-46 -117z" />
<glyph unicode="9" horiz-adv-x="1146" d="M53 936q0 213 146.5 345t367.5 132q167 0 284.5 -69t174.5 -188t57 -279q0 -212 -50.5 -367t-159.5 -266.5t-267 -183t-385 -117.5l-65 225q270 65 404.5 164t174.5 278q-111 -131 -286 -131q-167 0 -281.5 125t-114.5 332zM379 946q0 -127 46.5 -183t123.5 -56 q123 0 203 120q3 195 -39.5 275t-145.5 80q-88 0 -138 -60.5t-50 -175.5z" />
<glyph unicode=":" d="M59 152q0 75 54.5 129.5t132.5 54.5q76 0 130 -54.5t54 -129.5q0 -77 -54 -132t-130 -55q-78 0 -132.5 55t-54.5 132zM59 858q0 75 54.5 129.5t132.5 54.5q76 0 130 -54.5t54 -129.5t-54 -129.5t-130 -54.5q-78 0 -132.5 54.5t-54.5 129.5z" />
<glyph unicode=";" d="M53 -362l88 360q-82 56 -82 154q0 78 54 131t133 53q78 0 131 -53t53 -131q0 -45 -14.5 -91.5t-50.5 -126.5l-129 -296h-183zM59 858q0 75 54.5 129.5t132.5 54.5q76 0 130 -54.5t54 -129.5t-54 -129.5t-130 -54.5q-78 0 -132.5 54.5t-54.5 129.5z" />
<glyph unicode="&#x3c;" horiz-adv-x="1062" d="M70 539v284l819 357l102 -228l-647 -270l647 -262l-102 -236z" />
<glyph unicode="=" horiz-adv-x="1062" d="M98 338v252h865v-252h-865zM98 768v252h865v-252h-865z" />
<glyph unicode="&#x3e;" horiz-adv-x="1062" d="M70 420l647 262l-647 270l102 228l819 -357v-284l-819 -355z" />
<glyph unicode="?" horiz-adv-x="985" d="M29 1235q187 219 479 219q214 0 331 -98.5t117 -243.5q0 -67 -20.5 -121.5t-53 -91t-71.5 -66.5t-78 -56.5t-71.5 -54t-53 -65.5t-20.5 -84v-51h-295v64q0 72 18 129.5t46.5 94.5t63.5 66.5t69.5 52t63 44t46.5 49t18 61.5q0 55 -37.5 86t-105.5 31q-129 0 -239 -125z M260 152q0 75 54 129.5t130 54.5t130.5 -54.5t54.5 -129.5q0 -77 -54.5 -132t-130.5 -55t-130 55t-54 132z" />
<glyph unicode="@" horiz-adv-x="2088" d="M98 496q0 206 73.5 384t202.5 304t311.5 198t393.5 72q170 0 317.5 -43.5t255.5 -119.5t185 -178t115.5 -221t38.5 -245q0 -184 -55 -329.5t-157 -227.5t-235 -82q-114 0 -184 62t-90 147q-39 -92 -112.5 -146.5t-180.5 -54.5q-126 0 -212 61t-124.5 162.5t-38.5 237.5 q0 255 126 404t351 149q188 0 355 -92v-506q0 -126 21.5 -174.5t74.5 -48.5q170 0 170 434q0 274 -155.5 425t-467.5 151q-216 0 -372 -92.5t-235 -254.5t-79 -376q0 -333 177.5 -522t510.5 -189q102 0 211.5 19.5t192.5 50.5l76 -224q-101 -38 -229.5 -62t-252.5 -24 q-295 0 -516.5 116t-342 332t-120.5 503zM895 475q0 -139 29.5 -197.5t95.5 -58.5q90 0 139 100v488q-47 18 -90 18q-85 0 -129.5 -80.5t-44.5 -269.5z" />
<glyph unicode="A" horiz-adv-x="1208" d="M-27 0l428 1419h408l428 -1419h-356l-72 305h-416l-71 -305h-349zM451 549h299l-150 627z" />
<glyph unicode="B" horiz-adv-x="1263" d="M133 0v1419h402q147 0 257.5 -19.5t192 -61.5t123 -112.5t41.5 -168.5q0 -125 -75 -202t-185 -103q66 -13 118 -34.5t100 -59.5t74.5 -100t26.5 -144q0 -95 -30.5 -167.5t-84 -118.5t-133 -75.5t-169 -41t-201.5 -11.5h-457zM469 244h123q64 0 109.5 7.5t84 27.5t57.5 58 t19 95q0 197 -246 197h-147v-385zM469 852h125q213 0 213 172q0 87 -57.5 122.5t-182.5 35.5h-98v-330z" />
<glyph unicode="C" horiz-adv-x="1177" d="M68 713q0 174 48.5 315.5t134 234t202.5 142t254 49.5q138 0 241.5 -39t196.5 -117l-164 -194q-117 102 -254 102q-142 0 -224.5 -121t-82.5 -372q0 -248 83 -368t230 -120q77 0 139 30.5t138 88.5l151 -197q-77 -79 -191.5 -130.5t-252.5 -51.5q-298 0 -473.5 195.5 t-175.5 552.5z" />
<glyph unicode="D" horiz-adv-x="1333" d="M133 0v1419h395q86 0 160.5 -8t151.5 -29t138 -54.5t116.5 -88t92 -126.5t58 -172.5t21.5 -223.5q0 -166 -39.5 -293.5t-104.5 -206t-158.5 -129t-191.5 -69.5t-213 -19h-426zM469 244h111q81 0 139.5 21.5t105 73t70 146t23.5 232.5q0 112 -17 194t-46.5 132.5 t-74.5 80.5t-93.5 41t-111.5 11h-106v-932z" />
<glyph unicode="E" horiz-adv-x="1077" d="M133 0v1419h871l-35 -239h-500v-340h436v-236h-436v-362h535v-242h-871z" />
<glyph unicode="F" horiz-adv-x="997" d="M133 0v1419h846l-35 -239h-475v-377h414v-240h-414v-563h-336z" />
<glyph unicode="G" horiz-adv-x="1320" d="M68 711q0 141 34 261.5t95.5 208.5t146 150t186.5 92.5t215 30.5q276 0 476 -174l-174 -182q-70 60 -135 86t-150 26q-158 0 -252 -123t-94 -376q0 -184 33.5 -295t97 -158t164.5 -47q108 0 192 47v322h-184l-33 237h543v-702q-110 -71 -244 -110.5t-272 -39.5 q-319 0 -482 190t-163 556z" />
<glyph unicode="H" horiz-adv-x="1363" d="M133 0v1419h336v-549h426v549h336v-1419h-336v608h-426v-608h-336z" />
<glyph unicode="I" horiz-adv-x="600" d="M133 0v1419h336v-1419h-336z" />
<glyph unicode="J" horiz-adv-x="649" d="M-23 -109q68 27 110.5 58.5t64 74.5t29 88.5t7.5 114.5v1192h336v-1204q0 -104 -25.5 -188.5t-65.5 -141.5t-102 -103t-122.5 -74t-140.5 -54z" />
<glyph unicode="K" horiz-adv-x="1296" d="M133 0v1419h336v-1419h-336zM479 758l451 661h354l-453 -637l490 -782h-389z" />
<glyph unicode="L" horiz-adv-x="1050" d="M133 0v1419h336v-1153h553l-35 -266h-854z" />
<glyph unicode="M" horiz-adv-x="1624" d="M68 0l106 1419h424l213 -962l199 962h426l106 -1419h-330l-24 555q-10 196 -10 356q0 122 6 224l-219 -985h-318l-233 985q11 -165 11 -342q0 -118 -5 -242l-25 -551h-327z" />
<glyph unicode="N" horiz-adv-x="1357" d="M133 0v1419h418l420 -1102q-45 288 -45 529v573h301v-1419h-428l-410 1100q0 -4 6 -50t7.5 -59.5t7 -60.5t7.5 -71.5t5.5 -72.5t5 -84.5t3 -85t1.5 -96.5v-520h-299z" />
<glyph unicode="O" horiz-adv-x="1415" d="M68 711q0 347 170 545t469 198q302 0 471.5 -195t169.5 -548q0 -349 -170.5 -547.5t-470.5 -198.5t-469.5 196.5t-169.5 549.5zM420 711q0 -263 72.5 -381.5t214.5 -118.5q148 0 218 117.5t70 382.5q0 263 -71 380t-217 117q-145 0 -216 -117.5t-71 -379.5z" />
<glyph unicode="P" horiz-adv-x="1228" d="M133 0v1419h459q281 0 436.5 -117t155.5 -346q0 -239 -152.5 -361t-408.5 -122h-154v-473h-336zM469 715h125q120 0 182 56.5t62 184.5q0 224 -250 224h-119v-465z" />
<glyph unicode="Q" horiz-adv-x="1413" d="M68 711q0 347 170 545t469 198q302 0 471.5 -195t169.5 -548q0 -435 -334 -619q132 0 230.5 -32t189.5 -97l-203 -264q-56 62 -105 105.5t-115 84.5t-147.5 61.5t-177.5 20.5q-287 0 -452.5 194.5t-165.5 545.5zM420 711q0 -263 72.5 -381.5t214.5 -118.5 q148 0 218 117.5t70 382.5q0 263 -71 380t-217 117q-145 0 -216 -117.5t-71 -379.5z" />
<glyph unicode="R" horiz-adv-x="1263" d="M133 0v1419h465q291 0 437.5 -106.5t146.5 -325.5q0 -137 -66 -227t-207 -156l361 -604h-379l-291 543h-131v-543h-336zM469 774h141q113 0 169.5 51.5t56.5 161.5q0 102 -60.5 149.5t-185.5 47.5h-121v-410z" />
<glyph unicode="S" horiz-adv-x="1171" d="M18 168l170 186q164 -139 359 -139q105 0 165 46.5t60 127.5q0 79 -53 123.5t-207 91.5q-234 72 -334 175.5t-100 264.5q0 185 144 297.5t368 112.5q159 0 277 -45t214 -137l-155 -182q-145 118 -312 118q-89 0 -139.5 -36t-50.5 -103t54 -105.5t220 -91.5 q107 -34 180 -71.5t130.5 -91t84.5 -126.5t27 -169q0 -201 -151 -325t-412 -124q-329 0 -539 203z" />
<glyph unicode="T" horiz-adv-x="1105" d="M18 1161v258h1086l-33 -258h-350v-1161h-336v1161h-367z" />
<glyph unicode="U" horiz-adv-x="1333" d="M113 471v948h336v-934q0 -138 52 -204t165 -66q114 0 166.5 66t52.5 204v934h336v-948q0 -225 -143.5 -365.5t-411.5 -140.5q-270 0 -411.5 137t-141.5 369z" />
<glyph unicode="V" horiz-adv-x="1167" d="M-27 1419h355l270 -1157l254 1157h344l-395 -1419h-418z" />
<glyph unicode="W" horiz-adv-x="1734" d="M18 1419h336l142 -1165l196 1165h352l185 -1165l166 1165h319l-237 -1419h-437l-176 1083l-186 -1083h-426z" />
<glyph unicode="X" horiz-adv-x="1189" d="M-8 0l397 754l-366 665h364l205 -454l215 454h356l-375 -653l410 -766h-367l-243 541l-240 -541h-356z" />
<glyph unicode="Y" horiz-adv-x="1216" d="M-14 1419h366l262 -624l263 624h354l-455 -887v-532h-336v530z" />
<glyph unicode="Z" horiz-adv-x="1114" d="M37 0v252l629 907h-566v260h949v-254l-617 -897h627l-33 -268h-989z" />
<glyph unicode="[" horiz-adv-x="663" d="M70 -252v1938h542v-242h-235v-1456h235v-240h-542z" />
<glyph unicode="\" horiz-adv-x="1064" d="M150 1608l282 63l483 -1835l-284 -65z" />
<glyph unicode="]" horiz-adv-x="663" d="M51 -10h236v1454h-236v242h543v-1938h-543v242z" />
<glyph unicode="^" horiz-adv-x="1144" d="M37 1079l387 650h295l387 -650h-315l-222 408l-211 -408h-321z" />
<glyph unicode="_" horiz-adv-x="1064" d="M20 -96h1024v-254h-1024v254z" />
<glyph unicode="`" horiz-adv-x="696" d="M61 1468l127 242l447 -270l-90 -166z" />
<glyph unicode="a" horiz-adv-x="1122" d="M53 305q0 178 131 272.5t379 94.5h111v47q0 95 -41.5 131.5t-143.5 36.5q-113 0 -284 -58l-74 213q215 80 410 80q232 0 341 -96.5t109 -288.5v-422q0 -61 17 -90t57 -43l-68 -211q-99 8 -162 43.5t-100 112.5q-106 -162 -327 -162q-161 0 -258 94.5t-97 245.5zM375 334 q0 -65 33.5 -101t93.5 -36q109 0 172 102v195h-80q-219 0 -219 -160z" />
<glyph unicode="b" horiz-adv-x="1222" d="M127 0v1520l324 34v-577q48 66 125 105.5t161 39.5q199 0 304.5 -151.5t105.5 -427.5q0 -257 -116.5 -417.5t-315.5 -160.5q-181 0 -285 139l-16 -104h-287zM451 307q64 -106 172 -106q188 0 188 342q0 100 -12.5 169t-37.5 106t-54.5 52t-69.5 15q-111 0 -186 -127v-451 z" />
<glyph unicode="c" horiz-adv-x="980" d="M66 535q0 262 145 424.5t387 162.5q216 0 373 -133l-140 -192q-102 77 -206 77q-108 0 -163.5 -80t-55.5 -257q0 -172 55.5 -244t159.5 -72q55 0 99.5 17t108.5 57l142 -201q-161 -129 -367 -129q-249 0 -393.5 155t-144.5 415z" />
<glyph unicode="d" horiz-adv-x="1228" d="M76 547q0 168 53.5 297.5t156 203.5t240.5 74q145 0 252 -102v534l324 -34v-1520h-287l-16 127q-110 -162 -310 -162q-202 0 -307.5 155.5t-105.5 426.5zM412 545q0 -79 8.5 -139t24 -98t38.5 -62t49.5 -33.5t59.5 -9.5q109 0 186 121v471q-79 92 -168 92q-92 0 -145 -83 t-53 -259z" />
<glyph unicode="e" horiz-adv-x="1134" d="M66 539q0 165 57 295.5t173.5 209t276.5 78.5q234 0 368 -147t134 -410q0 -67 -6 -116h-672q14 -138 76 -193t170 -55q123 0 260 96l133 -180q-193 -152 -424 -152q-177 0 -301.5 73t-184.5 201t-60 300zM395 643h363v14q-3 250 -176 250q-85 0 -130 -60.5t-57 -203.5z " />
<glyph unicode="f" horiz-adv-x="729" d="M6 862v225h164v97q0 164 107 267t309 103q162 0 297 -69l-88 -211q-81 41 -170 41q-70 0 -100.5 -33.5t-30.5 -110.5v-84h256l-35 -225h-221v-862h-324v862h-164z" />
<glyph unicode="g" horiz-adv-x="1128" d="M12 -104h291q0 -50 18 -78t70.5 -43t149.5 -15q133 0 184 32t51 91q0 50 -38 78.5t-117 28.5h-158q-169 0 -251.5 60t-82.5 155q0 60 35 116t94 93q-103 55 -149 129.5t-46 181.5q0 183 131 290t347 107h32q143 0 245 33q114 37 235 109l75 -240q-105 -43 -313 -43 q105 -45 155 -111.5t50 -169.5q0 -161 -124 -262.5t-333 -101.5q-67 0 -125 12q-35 -18 -35 -61q0 -30 24 -48t95 -18h164q188 0 302 -88.5t114 -226.5q0 -170 -147 -265.5t-423 -95.5q-151 0 -254.5 24t-160.5 71.5t-81 109t-24 146.5zM385 729q0 -88 44.5 -136t119.5 -48 q80 0 122 47.5t42 140.5q0 176 -164 176q-76 0 -120 -48t-44 -132z" />
<glyph unicode="h" horiz-adv-x="1181" d="M127 0v1520l324 32v-579q134 149 313 149q141 0 221 -86t80 -241v-795h-324v739q0 81 -26 113.5t-76 32.5q-97 0 -188 -140v-745h-324z" />
<glyph unicode="i" horiz-adv-x="577" d="M96 1477q0 79 53.5 131.5t137.5 52.5t138 -52.5t54 -131.5t-54 -132t-138 -53t-137.5 53t-53.5 132zM127 0v1087h324v-1087h-324z" />
<glyph unicode="j" horiz-adv-x="575" d="M-96 -217q59 27 94.5 49.5t67 58.5t45.5 87t14 124v985h324v-964q0 -104 -22 -187t-58 -142t-94 -106.5t-119.5 -79t-143.5 -61.5zM96 1477q0 79 53.5 131.5t137.5 52.5t138 -52.5t54 -131.5t-54 -132t-138 -53t-137.5 53t-53.5 132z" />
<glyph unicode="k" horiz-adv-x="1130" d="M127 0v1520l324 34v-1554h-324zM461 594l332 493h329l-329 -477l356 -610h-365z" />
<glyph unicode="l" horiz-adv-x="608" d="M117 276v1244l323 34v-1265q0 -68 56 -68q30 0 53 10l63 -229q-91 -37 -196 -37q-142 0 -220.5 81t-78.5 230z" />
<glyph unicode="m" horiz-adv-x="1730" d="M127 0v1087h283l22 -126q128 161 316 161q91 0 157.5 -44.5t98.5 -127.5q66 87 144.5 129.5t180.5 42.5q128 0 206.5 -87t78.5 -240v-795h-324v739q0 146 -92 146q-50 0 -89.5 -35.5t-76.5 -106.5v-743h-323v739q0 146 -93 146q-91 0 -165 -142v-743h-324z" />
<glyph unicode="n" horiz-adv-x="1181" d="M127 0v1087h283l22 -129q142 164 332 164q141 0 221 -86t80 -241v-795h-324v739q0 82 -25.5 114t-76.5 32q-98 0 -188 -142v-743h-324z" />
<glyph unicode="o" horiz-adv-x="1196" d="M66 545q0 263 142.5 420t389.5 157q250 0 391 -152.5t141 -426.5q0 -263 -142.5 -420.5t-389.5 -157.5q-249 0 -390.5 153t-141.5 427zM401 545q0 -179 48.5 -260.5t148.5 -81.5q99 0 148 82.5t49 257.5q0 179 -48.5 260.5t-148.5 81.5q-99 0 -148 -82.5t-49 -257.5z" />
<glyph unicode="p" horiz-adv-x="1222" d="M127 -455v1542h285l16 -120q64 80 144.5 117.5t162.5 37.5q209 0 310.5 -151t101.5 -424q0 -168 -51.5 -299.5t-150.5 -207t-230 -75.5q-164 0 -264 115v-500zM451 299q65 -96 165 -96q195 0 195 340q0 132 -22 208.5t-59 105t-97 28.5q-107 0 -182 -127v-459z" />
<glyph unicode="q" horiz-adv-x="1218" d="M66 547q0 168 53.5 297.5t156 203.5t240.5 74q159 0 277 -127l16 92h283v-1542l-324 35v524q-109 -139 -289 -139q-202 0 -307.5 155.5t-105.5 426.5zM401 545q0 -98 13 -166.5t38 -106t56.5 -53.5t73.5 -16q109 0 186 121v471q-79 92 -168 92q-93 0 -146 -83.5 t-53 -258.5z" />
<glyph unicode="r" horiz-adv-x="821" d="M127 0v1087h283l26 -208q37 112 112 175.5t169 63.5q59 0 108 -14l-51 -313q-61 14 -98 14q-95 0 -146 -65t-79 -197v-543h-324z" />
<glyph unicode="s" horiz-adv-x="989" d="M12 127l158 176q138 -106 289 -106q74 0 115.5 26.5t41.5 75.5q0 56 -41 83.5t-188 68.5q-321 91 -321 340q0 143 121.5 237t322.5 94q237 0 399 -133l-118 -182q-133 84 -269 84q-64 0 -97.5 -22t-33.5 -60q0 -31 15.5 -50t62.5 -39.5t145 -49.5q171 -48 253.5 -127 t82.5 -219q0 -110 -64.5 -192.5t-173.5 -124.5t-245 -42q-137 0 -255 43.5t-200 118.5z" />
<glyph unicode="t" horiz-adv-x="790" d="M4 862v225h154v236l323 37v-273h250l-35 -225h-215v-500q0 -76 25 -108.5t78 -32.5q57 0 116 37l109 -207q-60 -41 -139.5 -63.5t-155.5 -22.5q-356 3 -356 393v504h-154z" />
<glyph unicode="u" horiz-adv-x="1171" d="M117 307v780h323v-739q0 -80 25.5 -111.5t79.5 -31.5q103 0 176 127v755h323v-1087h-280l-14 137q-120 -172 -330 -172q-149 0 -226 90t-77 252z" />
<glyph unicode="v" horiz-adv-x="1050" d="M-12 1087h352l192 -841l201 841h330l-342 -1087h-383z" />
<glyph unicode="w" horiz-adv-x="1533" d="M8 1087h328l113 -845l169 845h316l149 -845l131 845h310l-226 -1087h-387l-145 799l-143 -799h-383z" />
<glyph unicode="x" horiz-adv-x="1048" d="M-23 0l351 571l-316 516h363l151 -348l146 348h344l-297 -505l350 -582h-367l-188 408l-184 -408h-353z" />
<glyph unicode="y" horiz-adv-x="1060" d="M-12 1087h344l194 -880l213 880h334l-346 -1089q-66 -212 -214 -326t-398 -127l-35 228q106 13 173 40.5t106.5 71t70.5 115.5h-111z" />
<glyph unicode="z" horiz-adv-x="940" d="M27 0v229l493 615h-450v243h823v-227l-492 -614h502l-29 -246h-847z" />
<glyph unicode="{" horiz-adv-x="663" d="M18 584v264q77 0 105.5 38t28.5 130v366q0 88 20 147.5t70.5 104.5t140.5 65.5t227 20.5v-225q-90 0 -122.5 -27.5t-32.5 -95.5v-381q0 -129 -51.5 -188.5t-161.5 -87.5q107 -23 160 -84t53 -189v-381q0 -67 33 -94.5t122 -27.5v-226q-110 0 -189.5 14.5t-131 40.5 t-82.5 69t-43 93.5t-12 120.5v367q0 92 -28 129t-106 37z" />
<glyph unicode="|" horiz-adv-x="770" d="M236 -215v1874h301v-1874h-301z" />
<glyph unicode="}" horiz-adv-x="663" d="M53 -61q89 0 121.5 27t32.5 95v381q0 128 53.5 189t161.5 84q-110 28 -161.5 87.5t-51.5 188.5v381q0 68 -33 95.5t-123 27.5v225q110 0 189.5 -14t131 -40t82 -69t42.5 -94t12 -121v-366q0 -92 28.5 -130t104.5 -38v-264q-76 0 -104.5 -37.5t-28.5 -128.5v-367 q0 -70 -12 -120.5t-42.5 -93.5t-82 -69t-131 -40.5t-189.5 -14.5v226z" />
<glyph unicode="~" horiz-adv-x="1052" d="M33 580q21 42 42 76t51.5 70t63.5 59.5t77.5 39t94.5 15.5q62 0 116.5 -19t87 -42.5t71 -42.5t70.5 -19q34 0 62 16t42.5 32t38.5 50l170 -84q-27 -54 -55 -95t-67.5 -80t-91.5 -60t-114 -21t-117 19.5t-87.5 43t-70 43t-69.5 19.5q-33 0 -61 -17t-38.5 -30t-36.5 -50 q-5 -6 -7 -9z" />
<glyph unicode="&#xa1;" d="M61 858q0 75 54.5 129.5t130.5 54.5q78 0 132 -54t54 -130t-54 -130t-132 -54q-76 0 -130.5 54.5t-54.5 129.5zM76 -420l41 901h260l43 -901h-344z" />
<glyph unicode="&#xa2;" horiz-adv-x="980" d="M66 535q0 227 110 382t301 193v305h232v-301q141 -23 262 -125l-140 -192q-102 77 -206 77q-108 0 -163.5 -80t-55.5 -257q0 -172 55.5 -244t159.5 -72q55 0 99.5 17t108.5 57l142 -201q-119 -95 -262 -121v-303h-234v307q-193 38 -301 186.5t-108 371.5z" />
<glyph unicode="&#xa3;" horiz-adv-x="1128" d="M57 0v233q46 14 77.5 31.5t50 36.5t28 48t12 56.5t2.5 71.5v160h-139v168h139v182q0 190 113.5 308t323.5 118q138 0 239.5 -50.5t177.5 -154.5l-198 -145q-40 59 -84.5 83.5t-102.5 24.5q-151 0 -151 -186v-180h379v-168h-379v-143q0 -93 -27 -149.5t-104 -98.5h628 l-36 -246h-949z" />
<glyph unicode="&#xa4;" horiz-adv-x="1146" d="M35 303l158 156q-68 111 -68 241t65 238l-155 160l143 143l160 -160q108 62 235 62q130 0 238 -62l160 160l141 -143l-154 -156q68 -111 68 -242q0 -132 -68 -243l154 -154l-141 -143l-160 155q-103 -59 -238 -59q-132 0 -235 59l-160 -155zM375 700q0 -108 51.5 -167.5 t148.5 -59.5t147 59t50 168q0 107 -50 166.5t-147 59.5t-148.5 -59.5t-51.5 -166.5z" />
<glyph unicode="&#xa5;" horiz-adv-x="1163" d="M-14 1384h344l260 -575l256 575h334l-363 -663h201v-168h-273v-147h273v-168h-273v-238h-323v238h-270v168h270v147h-270v168h196z" />
<glyph unicode="&#xa6;" horiz-adv-x="770" d="M236 -215v752h301v-752h-301zM236 907v752h301v-752h-301z" />
<glyph unicode="&#xa7;" horiz-adv-x="1126" d="M109 610q0 80 43.5 144.5t115.5 109.5q-57 42 -82.5 94.5t-25.5 124.5q0 144 120.5 236t319.5 92q221 0 395 -115l-108 -186q-130 78 -271 78q-72 0 -110.5 -24.5t-38.5 -67.5q0 -36 17 -57.5t66 -44t155 -56.5q158 -48 235.5 -118t77.5 -193q0 -156 -160 -254 q60 -41 86.5 -92t26.5 -125q0 -147 -124.5 -236.5t-330.5 -89.5q-231 0 -391 111l102 198q136 -86 273 -86q77 0 119.5 23.5t42.5 66.5q0 36 -16 57.5t-67.5 45.5t-160.5 57q-157 48 -233 116.5t-76 190.5zM391 657q0 -53 32.5 -84t125.5 -63q73 -27 135 -51q51 63 51 125 q0 53 -40 85.5t-160 71.5q-47 16 -101 37q-43 -57 -43 -121z" />
<glyph unicode="&#xa8;" horiz-adv-x="927" d="M61 1475q0 67 48.5 114t117.5 47q70 0 118 -46.5t48 -114.5t-48 -115t-118 -47q-69 0 -117.5 47.5t-48.5 114.5zM537 1475q0 67 47.5 114t115.5 47q71 0 118.5 -46.5t47.5 -114.5t-47.5 -115t-118.5 -47q-68 0 -115.5 47.5t-47.5 114.5z" />
<glyph unicode="&#xa9;" horiz-adv-x="1658" d="M137 885q0 188 92.5 345.5t252 248t349.5 90.5t348.5 -90.5t250.5 -248t92 -345.5q0 -187 -92 -344t-250.5 -247.5t-348.5 -90.5t-349.5 90.5t-252 247.5t-92.5 344zM326 885q0 -143 65 -261.5t181 -187.5t259 -69q215 0 359.5 150t144.5 368q0 220 -144.5 371 t-359.5 151q-143 0 -259 -69.5t-181 -189t-65 -263.5zM473 887q0 185 101.5 294t261.5 109q155 0 268 -104l-100 -125q-63 51 -146 51q-68 0 -109.5 -54t-41.5 -171q0 -223 149 -223q87 0 164 59l90 -131q-116 -109 -272 -109q-168 0 -266.5 106t-98.5 298z" />
<glyph unicode="&#xaa;" horiz-adv-x="1024" d="M96 801q0 136 106.5 208t307.5 72h76v23q0 64 -29.5 87t-107.5 23q-89 0 -226 -43l-65 185q171 63 336 63q197 0 286.5 -73.5t89.5 -225.5v-291q0 -42 13 -63.5t43 -30.5l-60 -188q-79 5 -132 31t-89 81q-86 -118 -262 -118q-131 0 -209 72.5t-78 187.5zM104 0v250h838 v-250h-838zM391 823q0 -36 21 -57t63 -21q67 0 111 54v129h-47q-148 0 -148 -105z" />
<glyph unicode="&#xab;" horiz-adv-x="1286" d="M74 479v205l389 455l199 -133l-265 -422l265 -424l-199 -133zM625 479v205l387 455l200 -133l-264 -422l264 -424l-200 -133z" />
<glyph unicode="&#xac;" horiz-adv-x="1087" d="M98 547v252h891v-566h-268v314h-623z" />
<glyph unicode="&#xad;" horiz-adv-x="833" d="M90 516v250h653v-250h-653z" />
<glyph unicode="&#xae;" horiz-adv-x="1304" d="M90 991q0 157 73 286t202 203t288 74q158 0 287 -74t201.5 -202.5t72.5 -286.5q0 -238 -160 -397.5t-401 -159.5t-402 159.5t-161 397.5zM250 991q0 -181 113.5 -300.5t289.5 -119.5q177 0 289.5 119t112.5 301q0 183 -112.5 304.5t-289.5 121.5q-176 0 -289.5 -121.5 t-113.5 -304.5zM440 721v577h172q273 0 273 -180q0 -111 -119 -157l152 -240h-168l-119 209h-45v-209h-146zM586 1049h61q88 0 88 73q0 66 -92 66h-57v-139z" />
<glyph unicode="&#xaf;" horiz-adv-x="747" d="M61 1341v226h625v-226h-625z" />
<glyph unicode="&#xb0;" horiz-adv-x="1067" d="M80 1108q0 79 32 146t84 110t117 66.5t133 23.5q92 0 174 -39.5t136.5 -120.5t54.5 -186q0 -106 -54.5 -188t-136.5 -123t-174 -41q-68 0 -133 24.5t-117 68.5t-84 112t-32 147zM303 1108q0 -73 39 -117.5t104 -44.5q64 0 103 44t39 118q0 73 -38.5 116.5t-103.5 43.5 t-104 -43.5t-39 -116.5z" />
<glyph unicode="&#xb1;" horiz-adv-x="1087" d="M100 702v250h310v322h268v-322h311v-250h-311v-317h-268v317h-310zM113 0v250h864v-250h-864z" />
<glyph unicode="&#xb2;" horiz-adv-x="819" d="M74 1382q124 158 323 158q155 0 240.5 -75t85.5 -183q0 -95 -69 -186t-273 -256h362l-24 -183h-610v168q227 206 296.5 288.5t69.5 148.5q0 45 -28 71.5t-74 26.5q-86 0 -160 -86z" />
<glyph unicode="&#xb3;" horiz-adv-x="819" d="M68 770l133 127q74 -80 174 -80q58 0 92.5 26t34.5 77q0 56 -33.5 81t-103.5 25h-76l26 164h54q116 0 116 88q0 41 -29 62.5t-79 21.5q-94 0 -172 -72l-121 127q132 123 322 123q150 0 232.5 -60.5t82.5 -156.5q0 -162 -191 -211q101 -6 161.5 -60t60.5 -155 q0 -111 -95 -187.5t-264 -76.5q-208 0 -325 137z" />
<glyph unicode="&#xb4;" horiz-adv-x="696" d="M61 1440l447 270l127 -242l-483 -194z" />
<glyph unicode="&#xb5;" horiz-adv-x="1191" d="M127 -451v1538h324v-745q0 -125 102 -125q103 0 174 131v739h324v-714q0 -204 49 -373l-297 -35q-28 62 -47 174q-94 -155 -221 -155q-60 0 -103.5 19t-79.5 67q43 -78 62.5 -141t19.5 -160v-189z" />
<glyph unicode="&#xb6;" horiz-adv-x="1613" d="M133 979q0 208 145 327t406 113h692v-1839l-282 -37v1651h-189v-1614l-282 -37v996q-239 6 -364.5 125.5t-125.5 314.5z" />
<glyph unicode="&#xb7;" d="M59 631q0 75 54.5 129.5t132.5 54.5q76 0 130 -54.5t54 -129.5q0 -77 -54 -132t-130 -55q-78 0 -132.5 55t-54.5 132z" />
<glyph unicode="&#xb8;" horiz-adv-x="657" d="M61 -475l74 149q70 -34 131 -34q96 0 96 61q0 37 -45 53.5t-143 16.5l31 262h178v-131q107 -12 160 -64.5t53 -138.5q0 -105 -83.5 -170.5t-221.5 -65.5q-140 0 -230 62z" />
<glyph unicode="&#xb9;" horiz-adv-x="819" d="M80 1337l315 183h219v-863h-239v637l-187 -116z" />
<glyph unicode="&#xba;" horiz-adv-x="1024" d="M76 981q0 200 117 319t319 119q205 0 321.5 -115t116.5 -325q0 -200 -117 -319t-319 -119q-205 0 -321.5 115t-116.5 325zM80 0v250h864v-250h-864zM375 981q0 -123 33.5 -177t105.5 -54q70 0 103.5 55t33.5 174q0 124 -33.5 177.5t-105.5 53.5q-70 0 -103.5 -55 t-33.5 -174z" />
<glyph unicode="&#xbb;" horiz-adv-x="1280" d="M74 160l264 424l-264 422l200 133l388 -455v-205l-388 -452zM618 160l265 424l-265 422l201 133l387 -455v-205l-387 -452z" />
<glyph unicode="&#xbc;" horiz-adv-x="1984" d="M80 1237l315 182h219v-862h-239v637l-187 -117zM477 -82l842 1636l188 -92l-841 -1636zM1217 172v160l247 551l203 -74l-205 -461h150l41 195h184v-195h94v-176h-94v-172h-229v172h-391z" />
<glyph unicode="&#xbd;" horiz-adv-x="1984" d="M80 1237l315 182h219v-862h-239v637l-187 -117zM477 -82l842 1636l188 -92l-841 -1636zM1239 725q57 73 140 115.5t184 42.5q155 0 240 -75t85 -183q0 -95 -69 -187t-273 -256h363l-25 -182h-610v168q228 207 297 288.5t69 147.5q0 45 -28 71.5t-74 26.5q-86 0 -160 -86z " />
<glyph unicode="&#xbe;" horiz-adv-x="1984" d="M68 670l133 127q74 -80 174 -80q58 0 92.5 25.5t34.5 76.5q0 56 -33.5 81.5t-103.5 25.5h-76l26 164h54q116 0 116 88q0 41 -29 62.5t-79 21.5q-94 0 -172 -72l-121 127q132 123 322 123q150 0 232.5 -60.5t82.5 -156.5q0 -162 -191 -211q101 -6 161.5 -60t60.5 -155 q0 -111 -95 -188t-264 -77q-207 0 -325 138zM477 -82l842 1636l188 -92l-841 -1636zM1217 172v160l247 551l203 -74l-205 -461h150l41 195h184v-195h94v-176h-94v-172h-229v172h-391z" />
<glyph unicode="&#xbf;" horiz-adv-x="985" d="M29 -113q0 67 20.5 121.5t53 90.5t71.5 66.5t78 56.5t71.5 53t53 64.5t20.5 82.5v61h295v-73q0 -97 -33.5 -168t-81 -110t-94.5 -69t-80.5 -66t-33.5 -81q0 -56 37 -86.5t104 -30.5q132 0 242 125l204 -160q-184 -219 -479 -219q-213 0 -330.5 98.5t-117.5 243.5z M356 858q0 75 54.5 129.5t132.5 54.5q76 0 130 -54.5t54 -129.5t-54 -129.5t-130 -54.5q-78 0 -132.5 54.5t-54.5 129.5z" />
<glyph unicode="&#xc0;" horiz-adv-x="1208" d="M-27 0l428 1419h408l428 -1419h-356l-72 305h-416l-71 -305h-349zM311 1716l123 242l451 -256l-82 -164zM451 549h299l-150 627z" />
<glyph unicode="&#xc1;" horiz-adv-x="1208" d="M-27 0l428 1419h408l428 -1419h-356l-72 305h-416l-71 -305h-349zM319 1702l449 256l125 -242l-492 -178zM451 549h299l-150 627z" />
<glyph unicode="&#xc2;" horiz-adv-x="1208" d="M-27 0l428 1419h408l428 -1419h-356l-72 305h-416l-71 -305h-349zM217 1679l291 265h197l288 -265l-114 -133l-273 172l-272 -172zM451 549h299l-150 627z" />
<glyph unicode="&#xc3;" horiz-adv-x="1208" d="M-27 0l428 1419h408l428 -1419h-356l-72 305h-416l-71 -305h-349zM221 1638q42 107 109.5 174.5t154.5 67.5q42 0 80 -14.5t60.5 -31.5t49 -31.5t48.5 -14.5q32 0 56 21.5t50 68.5l162 -80q-42 -108 -110.5 -173.5t-155.5 -65.5q-51 0 -94.5 23t-77.5 46t-61 23 q-34 0 -58 -21.5t-51 -68.5zM451 549h299l-150 627z" />
<glyph unicode="&#xc4;" horiz-adv-x="1208" d="M-27 0l428 1419h408l428 -1419h-356l-72 305h-416l-71 -305h-349zM201 1733q0 67 48.5 114t117.5 47q70 0 117.5 -46.5t47.5 -114.5t-47.5 -115t-117.5 -47q-69 0 -117.5 47.5t-48.5 114.5zM451 549h299l-150 627zM676 1733q0 67 48.5 114t117.5 47q70 0 118 -46.5 t48 -114.5t-48 -115t-118 -47q-69 0 -117.5 47.5t-48.5 114.5z" />
<glyph unicode="&#xc5;" horiz-adv-x="1208" d="M-27 0l428 1419h408l428 -1419h-356l-72 305h-416l-71 -305h-349zM322 1765q0 113 78 191t206 78t206.5 -78t78.5 -191q0 -112 -78.5 -190t-206.5 -78t-206 77.5t-78 190.5zM451 549h299l-150 627zM514 1765q0 -50 25 -76t67 -26q41 0 66.5 26.5t25.5 75.5q0 50 -25 76.5 t-67 26.5t-67 -26.5t-25 -76.5z" />
<glyph unicode="&#xc6;" horiz-adv-x="1730" d="M-47 0l557 1419h1077l-35 -239h-553l70 -344h500v-236h-451l74 -358h471v-242h-754l-53 305h-440l-103 -305h-360zM498 549h317l-108 625z" />
<glyph unicode="&#xc7;" horiz-adv-x="1177" d="M68 713q0 174 48.5 315.5t134 234t202.5 142t254 49.5q138 0 241.5 -39t196.5 -117l-164 -194q-117 102 -254 102q-142 0 -224.5 -121t-82.5 -372q0 -248 83 -368t230 -120q77 0 139 30.5t138 88.5l151 -197q-67 -69 -164 -118t-213 -60v-67q107 -12 160 -64.5t53 -138.5 q0 -105 -83.5 -170.5t-221.5 -65.5q-139 0 -229 62l74 149q70 -34 131 -34q96 0 96 61q0 37 -45.5 53.5t-143.5 16.5l25 202q-248 38 -390 228.5t-142 511.5z" />
<glyph unicode="&#xc8;" horiz-adv-x="1077" d="M133 0v1419h871l-35 -239h-500v-340h436v-236h-436v-362h535v-242h-871zM276 1716l123 242l451 -256l-82 -164z" />
<glyph unicode="&#xc9;" horiz-adv-x="1077" d="M133 0v1419h871l-35 -239h-500v-340h436v-236h-436v-362h535v-242h-871zM285 1702l448 256l125 -242l-491 -178z" />
<glyph unicode="&#xca;" horiz-adv-x="1077" d="M133 0v1419h871l-35 -239h-500v-340h436v-236h-436v-362h535v-242h-871zM182 1679l291 265h197l288 -265l-114 -133l-273 172l-272 -172z" />
<glyph unicode="&#xcb;" horiz-adv-x="1077" d="M133 0v1419h871l-35 -239h-500v-340h436v-236h-436v-362h535v-242h-871zM166 1733q0 67 48.5 114t117.5 47q70 0 118 -46.5t48 -114.5t-48 -115t-118 -47q-69 0 -117.5 47.5t-48.5 114.5zM641 1733q0 67 48.5 114t117.5 47q70 0 118 -46.5t48 -114.5t-48 -115t-118 -47 q-69 0 -117.5 47.5t-48.5 114.5z" />
<glyph unicode="&#xcc;" horiz-adv-x="600" d="M6 1716l123 242l451 -256l-82 -164zM133 0v1419h336v-1419h-336z" />
<glyph unicode="&#xcd;" horiz-adv-x="600" d="M12 1702l449 256l125 -242l-492 -178zM133 0v1419h336v-1419h-336z" />
<glyph unicode="&#xce;" horiz-adv-x="600" d="M-90 1679l291 265h196l289 -265l-115 -133l-272 172l-272 -172zM133 0v1419h336v-1419h-336z" />
<glyph unicode="&#xcf;" horiz-adv-x="600" d="M-104 1733q0 67 48 114t117 47q70 0 118 -46.5t48 -114.5t-48 -115t-118 -47q-69 0 -117 47t-48 115zM133 0v1419h336v-1419h-336zM371 1733q0 67 48.5 114t117.5 47q70 0 117.5 -46.5t47.5 -114.5t-47.5 -115t-117.5 -47q-69 0 -117.5 47.5t-48.5 114.5z" />
<glyph unicode="&#xd0;" horiz-adv-x="1361" d="M29 623v200h131v596h397q86 0 160.5 -8t151 -29t138 -54.5t116.5 -88t91.5 -126.5t58 -172.5t21.5 -223.5q0 -166 -39.5 -293.5t-104 -206t-158 -129t-191.5 -69.5t-213 -19h-428v623h-131zM496 244h112q81 0 139.5 21.5t105 73t70 146t23.5 232.5q0 112 -17 194 t-46 132.5t-74 80.5t-93.5 41t-111.5 11h-108v-353h276v-200h-276v-379z" />
<glyph unicode="&#xd1;" horiz-adv-x="1357" d="M133 0v1419h418l420 -1102q-45 288 -45 529v573h301v-1419h-428l-410 1100q0 -4 6 -50t7.5 -59.5t7 -60.5t7.5 -71.5t5.5 -72.5t5 -84.5t3 -85t1.5 -96.5v-520h-299zM303 1638q42 107 109.5 174.5t154.5 67.5q42 0 80 -14.5t60.5 -31.5t49 -31.5t48.5 -14.5q32 0 56 21.5 t50 68.5l162 -80q-42 -108 -110.5 -173.5t-155.5 -65.5q-40 0 -77 14.5t-59.5 31.5t-49 31.5t-48.5 14.5q-34 0 -57 -21t-51 -69z" />
<glyph unicode="&#xd2;" horiz-adv-x="1415" d="M68 711q0 347 170 545t469 198q302 0 471.5 -195t169.5 -548q0 -349 -170.5 -547.5t-470.5 -198.5t-469.5 196.5t-169.5 549.5zM414 1716l123 242l450 -256l-82 -164zM420 711q0 -263 72.5 -381.5t214.5 -118.5q148 0 218 117.5t70 382.5q0 263 -71 380t-217 117 q-145 0 -216 -117.5t-71 -379.5z" />
<glyph unicode="&#xd3;" horiz-adv-x="1415" d="M68 711q0 347 170 545t469 198q302 0 471.5 -195t169.5 -548q0 -349 -170.5 -547.5t-470.5 -198.5t-469.5 196.5t-169.5 549.5zM420 711q0 -263 72.5 -381.5t214.5 -118.5q148 0 218 117.5t70 382.5q0 263 -71 380t-217 117q-145 0 -216 -117.5t-71 -379.5zM420 1702 l448 256l125 -242l-491 -178z" />
<glyph unicode="&#xd4;" horiz-adv-x="1415" d="M68 711q0 347 170 545t469 198q302 0 471.5 -195t169.5 -548q0 -349 -170.5 -547.5t-470.5 -198.5t-469.5 196.5t-169.5 549.5zM317 1679l291 265h197l289 -265l-115 -133l-272 172l-273 -172zM420 711q0 -263 72.5 -381.5t214.5 -118.5q148 0 218 117.5t70 382.5 q0 263 -71 380t-217 117q-145 0 -216 -117.5t-71 -379.5z" />
<glyph unicode="&#xd5;" horiz-adv-x="1415" d="M68 711q0 347 170 545t469 198q302 0 471.5 -195t169.5 -548q0 -349 -170.5 -547.5t-470.5 -198.5t-469.5 196.5t-169.5 549.5zM322 1638q42 107 109.5 174.5t154.5 67.5q42 0 80 -14.5t60 -31.5t48.5 -31.5t48.5 -14.5q32 0 56.5 21.5t50.5 68.5l162 -80 q-42 -108 -111 -173.5t-156 -65.5q-51 0 -94.5 23t-77.5 46t-61 23q-34 0 -58 -21.5t-51 -68.5zM420 711q0 -263 72.5 -381.5t214.5 -118.5q148 0 218 117.5t70 382.5q0 263 -71 380t-217 117q-145 0 -216 -117.5t-71 -379.5z" />
<glyph unicode="&#xd6;" horiz-adv-x="1415" d="M68 711q0 347 170 545t469 198q302 0 471.5 -195t169.5 -548q0 -349 -170.5 -547.5t-470.5 -198.5t-469.5 196.5t-169.5 549.5zM303 1733q0 67 48.5 114t117.5 47q70 0 118 -46.5t48 -114.5t-48 -115t-118 -47q-69 0 -117.5 47.5t-48.5 114.5zM420 711 q0 -263 72.5 -381.5t214.5 -118.5q148 0 218 117.5t70 382.5q0 263 -71 380t-217 117q-145 0 -216 -117.5t-71 -379.5zM778 1733q0 67 48.5 114t117.5 47q70 0 118 -46.5t48 -114.5t-48 -115t-118 -47q-69 0 -117.5 47.5t-48.5 114.5z" />
<glyph unicode="&#xd7;" horiz-adv-x="1062" d="M115 389l241 238l-241 239l178 178l237 -241l240 241l178 -178l-241 -239l241 -238l-178 -178l-240 242l-237 -242z" />
<glyph unicode="&#xd8;" horiz-adv-x="1415" d="M68 711q0 347 170 545t469 198q53 0 100 -6l78 248l252 -68l-84 -262q142 -87 218.5 -254t76.5 -401q0 -349 -170.5 -547.5t-470.5 -198.5q-51 0 -101 6l-74 -245l-253 65l81 264q-141 89 -216.5 256t-75.5 400zM420 711q0 -295 78 -408l270 901q-36 4 -61 4 q-145 0 -216 -117.5t-71 -379.5zM645 215q40 -4 62 -4q148 0 218 117.5t70 382.5q0 297 -77 409z" />
<glyph unicode="&#xd9;" horiz-adv-x="1333" d="M113 471v948h336v-934q0 -138 52 -204t165 -66q114 0 166.5 66t52.5 204v934h336v-948q0 -225 -143.5 -365.5t-411.5 -140.5q-270 0 -411.5 137t-141.5 369zM373 1716l123 242l450 -256l-82 -164z" />
<glyph unicode="&#xda;" horiz-adv-x="1333" d="M113 471v948h336v-934q0 -138 52 -204t165 -66q114 0 166.5 66t52.5 204v934h336v-948q0 -225 -143.5 -365.5t-411.5 -140.5q-270 0 -411.5 137t-141.5 369zM379 1702l448 256l125 -242l-491 -178z" />
<glyph unicode="&#xdb;" horiz-adv-x="1333" d="M113 471v948h336v-934q0 -138 52 -204t165 -66q114 0 166.5 66t52.5 204v934h336v-948q0 -225 -143.5 -365.5t-411.5 -140.5q-270 0 -411.5 137t-141.5 369zM276 1679l291 265h197l289 -265l-115 -133l-272 172l-273 -172z" />
<glyph unicode="&#xdc;" horiz-adv-x="1333" d="M113 471v948h336v-934q0 -138 52 -204t165 -66q114 0 166.5 66t52.5 204v934h336v-948q0 -225 -143.5 -365.5t-411.5 -140.5q-270 0 -411.5 137t-141.5 369zM262 1733q0 67 48.5 114t117.5 47q70 0 118 -46.5t48 -114.5t-48 -115t-118 -47q-69 0 -117.5 47.5t-48.5 114.5 zM737 1733q0 67 48.5 114t117.5 47q70 0 118 -46.5t48 -114.5t-48 -115t-118 -47q-69 0 -117.5 47.5t-48.5 114.5z" />
<glyph unicode="&#xdd;" horiz-adv-x="1216" d="M-14 1419h366l262 -624l263 624h354l-455 -887v-532h-336v530zM322 1702l448 256l125 -242l-492 -178z" />
<glyph unicode="&#xde;" horiz-adv-x="1228" d="M133 0v1419h336v-221h123q281 0 436.5 -118.5t155.5 -350.5q0 -125 -41 -220.5t-116.5 -155.5t-177 -90t-226.5 -30h-154v-233h-336zM469 477h125q120 0 182 58.5t62 193.5q0 117 -62 173t-188 56h-119v-481z" />
<glyph unicode="&#xdf;" horiz-adv-x="1241" d="M127 0v1092q0 218 125.5 340t357.5 122q197 0 310.5 -89t113.5 -218q0 -57 -21.5 -104t-52 -78.5t-60.5 -59t-51.5 -58.5t-21.5 -64q0 -31 21 -59.5t54 -53t73.5 -52t80.5 -62.5t73 -77t54 -104t21 -135q0 -172 -117 -273.5t-296 -101.5q-139 0 -244 55l96 220 q48 -25 107 -25q57 0 88.5 33t31.5 98q0 45 -18 82.5t-46.5 64.5t-63 52.5t-68.5 52.5t-62.5 57.5t-46.5 75t-18 98.5q0 50 13.5 90.5t33.5 65t44 50t44 46.5t33.5 54t13.5 73q0 55 -34.5 86t-92.5 31q-151 0 -151 -223v-1102h-324z" />
<glyph unicode="&#xe0;" horiz-adv-x="1122" d="M53 305q0 178 131 272.5t379 94.5h111v47q0 95 -41.5 131.5t-143.5 36.5q-113 0 -284 -58l-74 213q215 80 410 80q232 0 341 -96.5t109 -288.5v-422q0 -61 17 -90t57 -43l-68 -211q-99 8 -162 43.5t-100 112.5q-106 -162 -327 -162q-161 0 -258 94.5t-97 245.5zM289 1468 l127 242l446 -270l-90 -166zM375 334q0 -65 33.5 -101t93.5 -36q109 0 172 102v195h-80q-219 0 -219 -160z" />
<glyph unicode="&#xe1;" horiz-adv-x="1122" d="M53 305q0 178 131 272.5t379 94.5h111v47q0 95 -41.5 131.5t-143.5 36.5q-113 0 -284 -58l-74 213q215 80 410 80q232 0 341 -96.5t109 -288.5v-422q0 -61 17 -90t57 -43l-68 -211q-99 8 -162 43.5t-100 112.5q-106 -162 -327 -162q-161 0 -258 94.5t-97 245.5zM256 1440 l446 270l127 -242l-483 -194zM375 334q0 -65 33.5 -101t93.5 -36q109 0 172 102v195h-80q-219 0 -219 -160z" />
<glyph unicode="&#xe2;" horiz-adv-x="1122" d="M53 305q0 178 131 272.5t379 94.5h111v47q0 95 -41.5 131.5t-143.5 36.5q-113 0 -284 -58l-74 213q215 80 410 80q232 0 341 -96.5t109 -288.5v-422q0 -61 17 -90t57 -43l-68 -211q-99 8 -162 43.5t-100 112.5q-106 -162 -327 -162q-161 0 -258 94.5t-97 245.5zM166 1403 l289 280h198l289 -280l-115 -133l-272 188l-274 -188zM375 334q0 -65 33.5 -101t93.5 -36q109 0 172 102v195h-80q-219 0 -219 -160z" />
<glyph unicode="&#xe3;" horiz-adv-x="1122" d="M53 305q0 178 131 272.5t379 94.5h111v47q0 95 -41.5 131.5t-143.5 36.5q-113 0 -284 -58l-74 213q215 80 410 80q232 0 341 -96.5t109 -288.5v-422q0 -61 17 -90t57 -43l-68 -211q-99 8 -162 43.5t-100 112.5q-106 -162 -327 -162q-161 0 -258 94.5t-97 245.5zM170 1380 q42 107 109.5 174.5t154.5 67.5q42 0 80 -14.5t60.5 -31.5t49 -31.5t48.5 -14.5q32 0 56 21.5t50 68.5l162 -80q-42 -109 -110.5 -174.5t-155.5 -65.5q-40 0 -77 14.5t-59.5 32t-49 32t-48.5 14.5q-34 0 -57 -21t-51 -69zM375 334q0 -65 33.5 -101t93.5 -36q109 0 172 102 v195h-80q-219 0 -219 -160z" />
<glyph unicode="&#xe4;" horiz-adv-x="1122" d="M53 305q0 178 131 272.5t379 94.5h111v47q0 95 -41.5 131.5t-143.5 36.5q-113 0 -284 -58l-74 213q215 80 410 80q232 0 341 -96.5t109 -288.5v-422q0 -61 17 -90t57 -43l-68 -211q-99 8 -162 43.5t-100 112.5q-106 -162 -327 -162q-161 0 -258 94.5t-97 245.5zM150 1475 q0 67 48 114t117 47q70 0 118 -46.5t48 -114.5t-48 -115t-118 -47q-69 0 -117 47t-48 115zM375 334q0 -65 33.5 -101t93.5 -36q109 0 172 102v195h-80q-219 0 -219 -160zM625 1475q0 67 48.5 114t117.5 47q70 0 117.5 -46.5t47.5 -114.5t-47.5 -115t-117.5 -47 q-69 0 -117.5 47.5t-48.5 114.5z" />
<glyph unicode="&#xe5;" horiz-adv-x="1122" d="M53 305q0 178 131 272.5t379 94.5h111v47q0 95 -41.5 131.5t-143.5 36.5q-113 0 -284 -58l-74 213q215 80 410 80q232 0 341 -96.5t109 -288.5v-422q0 -61 17 -90t57 -43l-68 -211q-99 8 -162 43.5t-100 112.5q-106 -162 -327 -162q-161 0 -258 94.5t-97 245.5zM270 1507 q0 113 78.5 191t206.5 78t206.5 -78t78.5 -191q0 -112 -78.5 -190t-206.5 -78t-206.5 78t-78.5 190zM375 334q0 -65 33.5 -101t93.5 -36q109 0 172 102v195h-80q-219 0 -219 -160zM463 1507q0 -50 25 -76t67 -26q41 0 66.5 26.5t25.5 75.5q0 50 -25 76.5t-67 26.5t-67 -26.5 t-25 -76.5z" />
<glyph unicode="&#xe6;" horiz-adv-x="1755" d="M53 305q0 178 134 272.5t388 94.5h111v45q0 94 -41.5 131t-142.5 37q-114 0 -285 -58l-74 215q215 80 410 80q226 0 334 -137q127 137 332 137q217 0 347 -148t130 -409q0 -67 -6 -116h-674q16 -138 78 -193t170 -55q123 0 260 96l133 -180q-193 -152 -424 -152 q-282 0 -432 187q-132 -187 -385 -187q-167 0 -265 94.5t-98 245.5zM395 328q0 -62 32 -96.5t91 -34.5t105.5 32.5t89.5 98.5q-20 80 -23 151v8h-82q-109 0 -161 -37.5t-52 -121.5zM1016 643h360v14q0 250 -176 250q-83 0 -128.5 -60.5t-55.5 -203.5z" />
<glyph unicode="&#xe7;" horiz-adv-x="980" d="M66 535q0 262 145 424.5t387 162.5q216 0 373 -133l-140 -192q-102 77 -206 77q-108 0 -163.5 -80t-55.5 -257q0 -172 55.5 -244t159.5 -72q55 0 99.5 17t108.5 57l142 -201q-135 -110 -309 -127v-65q107 -12 159.5 -64.5t52.5 -138.5q0 -105 -83.5 -170.5t-221.5 -65.5 q-139 0 -229 62l74 149q70 -34 131 -34q96 0 96 61q0 37 -45 53.5t-143 16.5l24 206q-193 38 -302 186.5t-109 371.5z" />
<glyph unicode="&#xe8;" horiz-adv-x="1134" d="M66 539q0 165 57 295.5t173.5 209t276.5 78.5q234 0 368 -147t134 -410q0 -67 -6 -116h-672q14 -138 76 -193t170 -55q123 0 260 96l133 -180q-193 -152 -424 -152q-177 0 -301.5 73t-184.5 201t-60 300zM313 1468l127 242l447 -270l-90 -166zM395 643h363v14 q-3 250 -176 250q-85 0 -130 -60.5t-57 -203.5z" />
<glyph unicode="&#xe9;" horiz-adv-x="1134" d="M66 539q0 165 57 295.5t173.5 209t276.5 78.5q234 0 368 -147t134 -410q0 -67 -6 -116h-672q14 -138 76 -193t170 -55q123 0 260 96l133 -180q-193 -152 -424 -152q-177 0 -301.5 73t-184.5 201t-60 300zM281 1440l446 270l127 -242l-483 -194zM395 643h363v14 q-3 250 -176 250q-85 0 -130 -60.5t-57 -203.5z" />
<glyph unicode="&#xea;" horiz-adv-x="1134" d="M66 539q0 165 57 295.5t173.5 209t276.5 78.5q234 0 368 -147t134 -410q0 -67 -6 -116h-672q14 -138 76 -193t170 -55q123 0 260 96l133 -180q-193 -152 -424 -152q-177 0 -301.5 73t-184.5 201t-60 300zM190 1403l289 280h199l289 -280l-115 -133l-272 188l-275 -188z M395 643h363v14q-3 250 -176 250q-85 0 -130 -60.5t-57 -203.5z" />
<glyph unicode="&#xeb;" horiz-adv-x="1134" d="M66 539q0 165 57 295.5t173.5 209t276.5 78.5q234 0 368 -147t134 -410q0 -67 -6 -116h-672q14 -138 76 -193t170 -55q123 0 260 96l133 -180q-193 -152 -424 -152q-177 0 -301.5 73t-184.5 201t-60 300zM174 1475q0 67 48.5 114t117.5 47q70 0 118 -46.5t48 -114.5 t-48 -115t-118 -47q-69 0 -117.5 47.5t-48.5 114.5zM395 643h363v14q-3 250 -176 250q-85 0 -130 -60.5t-57 -203.5zM649 1475q0 67 48.5 114t117.5 47q70 0 118 -46.5t48 -114.5t-48 -115t-118 -47q-69 0 -117.5 47.5t-48.5 114.5z" />
<glyph unicode="&#xec;" horiz-adv-x="577" d="M23 1468l127 242l446 -270l-90 -166zM127 0v1087h324v-1087h-324z" />
<glyph unicode="&#xed;" horiz-adv-x="577" d="M-10 1440l446 270l127 -242l-483 -194zM127 0v1087h324v-1087h-324z" />
<glyph unicode="&#xee;" horiz-adv-x="577" d="M-100 1403l288 280h199l289 -280l-115 -133l-272 188l-275 -188zM127 0v1087h324v-1087h-324z" />
<glyph unicode="&#xef;" horiz-adv-x="577" d="M-115 1475q0 67 48.5 114t117.5 47q70 0 118 -46.5t48 -114.5t-48 -115t-118 -47q-69 0 -117.5 47.5t-48.5 114.5zM127 0v1087h324v-1087h-324zM360 1475q0 67 48.5 114t117.5 47q70 0 118 -46.5t48 -114.5t-48 -115t-118 -47q-69 0 -117.5 47.5t-48.5 114.5z" />
<glyph unicode="&#xf0;" horiz-adv-x="1185" d="M66 479q0 138 54 253t152.5 182t219.5 67q157 0 270 -96q-29 96 -77.5 169t-131.5 138l-113 -113l-202 95l114 122q-107 32 -186 43l65 213q163 -27 297 -75l152 157l164 -145l-113 -117q205 -146 292 -341t87 -464q0 -170 -61 -305t-183 -216t-286 -81 q-225 0 -369.5 138t-144.5 376zM395 485q0 -284 189 -284q196 0 196 323q0 26 -1 74.5t-1 71.5q-80 86 -198 86q-185 0 -185 -271z" />
<glyph unicode="&#xf1;" horiz-adv-x="1181" d="M127 0v1087h283l22 -129q142 164 332 164q141 0 221 -86t80 -241v-795h-324v739q0 82 -25.5 114t-76.5 32q-98 0 -188 -142v-743h-324zM215 1380q42 107 109.5 174.5t154.5 67.5q42 0 80 -14.5t60.5 -31.5t49 -31.5t48.5 -14.5q32 0 56 21.5t50 68.5l162 -80 q-42 -109 -110.5 -174.5t-155.5 -65.5q-40 0 -77 14.5t-59.5 32t-49 32t-48.5 14.5q-34 0 -57 -21t-51 -69z" />
<glyph unicode="&#xf2;" horiz-adv-x="1196" d="M66 545q0 263 142.5 420t389.5 157q250 0 391 -152.5t141 -426.5q0 -263 -142.5 -420.5t-389.5 -157.5q-249 0 -390.5 153t-141.5 427zM332 1468l127 242l446 -270l-90 -166zM401 545q0 -179 48.5 -260.5t148.5 -81.5q99 0 148 82.5t49 257.5q0 179 -48.5 260.5 t-148.5 81.5q-99 0 -148 -82.5t-49 -257.5z" />
<glyph unicode="&#xf3;" horiz-adv-x="1196" d="M66 545q0 263 142.5 420t389.5 157q250 0 391 -152.5t141 -426.5q0 -263 -142.5 -420.5t-389.5 -157.5q-249 0 -390.5 153t-141.5 427zM299 1440l446 270l127 -242l-483 -194zM401 545q0 -179 48.5 -260.5t148.5 -81.5q99 0 148 82.5t49 257.5q0 179 -48.5 260.5 t-148.5 81.5q-99 0 -148 -82.5t-49 -257.5z" />
<glyph unicode="&#xf4;" horiz-adv-x="1196" d="M66 545q0 263 142.5 420t389.5 157q250 0 391 -152.5t141 -426.5q0 -263 -142.5 -420.5t-389.5 -157.5q-249 0 -390.5 153t-141.5 427zM209 1403l289 280h198l289 -280l-115 -133l-272 188l-274 -188zM401 545q0 -179 48.5 -260.5t148.5 -81.5q99 0 148 82.5t49 257.5 q0 179 -48.5 260.5t-148.5 81.5q-99 0 -148 -82.5t-49 -257.5z" />
<glyph unicode="&#xf5;" horiz-adv-x="1196" d="M66 545q0 263 142.5 420t389.5 157q250 0 391 -152.5t141 -426.5q0 -263 -142.5 -420.5t-389.5 -157.5q-249 0 -390.5 153t-141.5 427zM213 1380q42 107 109.5 174.5t154.5 67.5q42 0 80 -14.5t60.5 -31.5t49 -31.5t48.5 -14.5q32 0 56 21.5t50 68.5l162 -80 q-42 -109 -110.5 -174.5t-155.5 -65.5q-40 0 -77 14.5t-59.5 32t-49 32t-48.5 14.5q-34 0 -57 -21t-51 -69zM401 545q0 -179 48.5 -260.5t148.5 -81.5q99 0 148 82.5t49 257.5q0 179 -48.5 260.5t-148.5 81.5q-99 0 -148 -82.5t-49 -257.5z" />
<glyph unicode="&#xf6;" horiz-adv-x="1196" d="M66 545q0 263 142.5 420t389.5 157q250 0 391 -152.5t141 -426.5q0 -263 -142.5 -420.5t-389.5 -157.5q-249 0 -390.5 153t-141.5 427zM195 1475q0 67 48 114t117 47q70 0 118 -46.5t48 -114.5t-48 -115t-118 -47q-69 0 -117 47t-48 115zM401 545q0 -179 48.5 -260.5 t148.5 -81.5q99 0 148 82.5t49 257.5q0 179 -48.5 260.5t-148.5 81.5q-99 0 -148 -82.5t-49 -257.5zM670 1475q0 67 48.5 114t117.5 47q70 0 117.5 -46.5t47.5 -114.5t-47.5 -115t-117.5 -47q-69 0 -117.5 47.5t-48.5 114.5z" />
<glyph unicode="&#xf7;" horiz-adv-x="1062" d="M98 555v250h865v-250h-865zM346 186q0 77 54 131t130 54q78 0 132.5 -54t54.5 -131q0 -75 -54.5 -129.5t-132.5 -54.5q-76 0 -130 54.5t-54 129.5zM346 1176q0 75 54 129.5t130 54.5q78 0 132.5 -54.5t54.5 -129.5q0 -77 -54.5 -132t-132.5 -55q-76 0 -130 55t-54 132z " />
<glyph unicode="&#xf8;" horiz-adv-x="1196" d="M66 545q0 263 142.5 420t389.5 157q47 0 70 -2l77 246l238 -70l-84 -252q111 -70 171 -198t60 -303q0 -263 -142.5 -420.5t-389.5 -157.5q-28 0 -68 4l-77 -245l-236 69l80 250q-112 71 -171.5 199t-59.5 303zM375 545q0 -201 53 -275l203 615h-33q-223 0 -223 -340z M567 205q10 -2 31 -2q223 0 223 340q0 198 -51 274z" />
<glyph unicode="&#xf9;" horiz-adv-x="1171" d="M117 307v780h323v-739q0 -80 25.5 -111.5t79.5 -31.5q103 0 176 127v755h323v-1087h-280l-14 137q-120 -172 -330 -172q-149 0 -226 90t-77 252zM315 1468l127 242l447 -270l-90 -166z" />
<glyph unicode="&#xfa;" horiz-adv-x="1171" d="M117 307v780h323v-739q0 -80 25.5 -111.5t79.5 -31.5q103 0 176 127v755h323v-1087h-280l-14 137q-120 -172 -330 -172q-149 0 -226 90t-77 252zM283 1440l446 270l127 -242l-483 -194z" />
<glyph unicode="&#xfb;" horiz-adv-x="1171" d="M117 307v780h323v-739q0 -80 25.5 -111.5t79.5 -31.5q103 0 176 127v755h323v-1087h-280l-14 137q-120 -172 -330 -172q-149 0 -226 90t-77 252zM193 1403l288 280h199l289 -280l-115 -133l-272 188l-275 -188z" />
<glyph unicode="&#xfc;" horiz-adv-x="1171" d="M117 307v780h323v-739q0 -80 25.5 -111.5t79.5 -31.5q103 0 176 127v755h323v-1087h-280l-14 137q-120 -172 -330 -172q-149 0 -226 90t-77 252zM178 1475q0 67 48.5 114t117.5 47q70 0 118 -46.5t48 -114.5t-48 -115t-118 -47q-69 0 -117.5 47.5t-48.5 114.5zM653 1475 q0 67 48.5 114t117.5 47q70 0 118 -46.5t48 -114.5t-48 -115t-118 -47q-69 0 -117.5 47.5t-48.5 114.5z" />
<glyph unicode="&#xfd;" horiz-adv-x="1060" d="M-12 1087h344l194 -880l213 880h334l-346 -1089q-66 -212 -214 -326t-398 -127l-35 228q106 13 173 40.5t106.5 71t70.5 115.5h-111zM231 1440l447 270l127 -242l-483 -194z" />
<glyph unicode="&#xfe;" horiz-adv-x="1222" d="M127 -455v1975l324 34v-569q116 137 284 137q209 0 310.5 -151t101.5 -424q0 -168 -51.5 -299.5t-150.5 -207t-230 -75.5q-164 0 -264 115v-498zM451 299q65 -96 165 -96q195 0 195 340q0 132 -22 208.5t-59 105t-97 28.5q-107 0 -182 -127v-459z" />
<glyph unicode="&#xff;" horiz-adv-x="1060" d="M-12 1087h344l194 -880l213 880h334l-346 -1089q-66 -212 -214 -326t-398 -127l-35 228q106 13 173 40.5t106.5 71t70.5 115.5h-111zM127 1475q0 67 48.5 114t117.5 47q70 0 118 -46.5t48 -114.5t-48 -115t-118 -47q-69 0 -117.5 47.5t-48.5 114.5zM602 1475 q0 67 48.5 114t117.5 47q70 0 118 -46.5t48 -114.5t-48 -115t-118 -47q-69 0 -117.5 47.5t-48.5 114.5z" />
<glyph unicode="&#x152;" horiz-adv-x="1861" d="M68 711q0 345 164.5 544t441.5 199q120 0 200 -35h906l-35 -239h-578q102 -133 131 -340h383v-236h-381q-26 -220 -139 -362h619v-242h-912q-90 -35 -194 -35q-278 0 -442 197.5t-164 548.5zM420 711q0 -500 266 -500q133 0 200.5 118.5t67.5 381.5q0 261 -68 379 t-200 118q-131 0 -198.5 -118.5t-67.5 -378.5z" />
<glyph unicode="&#x153;" horiz-adv-x="1861" d="M66 545q0 262 142.5 419.5t389.5 157.5q227 0 363 -161q132 161 339 161q234 0 368 -147t134 -410q0 -67 -6 -116h-674q16 -138 78 -193t170 -55q123 0 260 96l133 -180q-193 -152 -424 -152q-242 0 -378 168q-136 -168 -365 -168q-248 0 -389 153t-141 427zM401 545 q0 -179 48.5 -260.5t146.5 -81.5q100 0 148.5 82t48.5 260q0 175 -48.5 257.5t-146.5 82.5q-99 0 -148 -82.5t-49 -257.5zM1122 643h361v14q0 250 -176 250q-83 0 -129 -61t-56 -203z" />
<glyph unicode="&#x178;" horiz-adv-x="1216" d="M-14 1419h366l262 -624l263 624h354l-455 -887v-532h-336v530zM203 1733q0 67 48.5 114t117.5 47q70 0 118 -46.5t48 -114.5t-48 -115t-118 -47q-69 0 -117.5 47.5t-48.5 114.5zM678 1733q0 67 48.5 114t117.5 47q70 0 118 -46.5t48 -114.5t-48 -115t-118 -47 q-69 0 -117.5 47.5t-48.5 114.5z" />
<glyph unicode="&#x2c6;" horiz-adv-x="899" d="M61 1403l289 280h199l289 -280l-115 -133l-272 188l-275 -188z" />
<glyph unicode="&#x2dc;" horiz-adv-x="892" d="M61 1380q42 107 110 174.5t155 67.5q42 0 80 -14.5t60 -31.5t48.5 -31.5t48.5 -14.5q32 0 56.5 21.5t50.5 68.5l161 -80q-42 -109 -110.5 -174.5t-155.5 -65.5q-40 0 -77 14.5t-59 32t-48.5 32t-48.5 14.5q-34 0 -58 -21.5t-51 -68.5z" />
<glyph unicode="&#x2000;" horiz-adv-x="1017" />
<glyph unicode="&#x2001;" horiz-adv-x="2034" />
<glyph unicode="&#x2002;" horiz-adv-x="1017" />
<glyph unicode="&#x2003;" horiz-adv-x="2034" />
<glyph unicode="&#x2004;" horiz-adv-x="678" />
<glyph unicode="&#x2005;" horiz-adv-x="508" />
<glyph unicode="&#x2006;" horiz-adv-x="339" />
<glyph unicode="&#x2007;" horiz-adv-x="339" />
<glyph unicode="&#x2008;" horiz-adv-x="254" />
<glyph unicode="&#x2009;" horiz-adv-x="406" />
<glyph unicode="&#x200a;" horiz-adv-x="113" />
<glyph unicode="&#x2010;" horiz-adv-x="833" d="M90 516v250h653v-250h-653z" />
<glyph unicode="&#x2011;" horiz-adv-x="833" d="M90 516v250h653v-250h-653z" />
<glyph unicode="&#x2012;" horiz-adv-x="833" d="M90 516v250h653v-250h-653z" />
<glyph unicode="&#x2013;" horiz-adv-x="1064" d="M43 516v250h979v-250h-979z" />
<glyph unicode="&#x2014;" horiz-adv-x="1630" d="M43 516v250h1544v-250h-1544z" />
<glyph unicode="&#x2018;" horiz-adv-x="497" d="M63 1110q0 71 58 190l131 271h166l-84 -322q74 -54 74 -141q0 -69 -50.5 -116.5t-124.5 -47.5q-72 0 -121 48t-49 118z" />
<glyph unicode="&#x2019;" horiz-adv-x="497" d="M63 942l87 322q-76 53 -76 141q0 69 50.5 116.5t123.5 47.5t122.5 -47.5t49.5 -118.5q0 -68 -60 -191l-131 -270h-166z" />
<glyph unicode="&#x201a;" horiz-adv-x="497" d="M63 -334l87 320q-76 53 -76 141q0 70 50 117t124 47t123 -47t49 -119q0 -39 -13.5 -80t-46.5 -111l-131 -268h-166z" />
<glyph unicode="&#x201c;" horiz-adv-x="917" d="M63 1110q0 38 13 79t47 111l129 269h166l-84 -320q76 -53 76 -141q0 -70 -50.5 -117t-123.5 -47q-74 0 -123.5 47t-49.5 119zM483 1110q0 67 60 190l129 271h166l-84 -322q75 -53 75 -141q0 -69 -51 -116.5t-123 -47.5q-73 0 -122.5 47.5t-49.5 118.5z" />
<glyph unicode="&#x201d;" horiz-adv-x="917" d="M63 942l87 322q-76 53 -76 141q0 69 50.5 116.5t123.5 47.5t122.5 -47.5t49.5 -118.5q0 -68 -60 -191l-131 -270h-166zM485 944l84 320q-75 53 -75 141q0 70 50.5 117t123.5 47q74 0 123 -47t49 -119q0 -39 -13.5 -80t-46.5 -111l-129 -268h-166z" />
<glyph unicode="&#x201e;" horiz-adv-x="917" d="M63 -334l87 320q-76 53 -76 141q0 70 50 117t124 47t123 -47t49 -119q0 -39 -13.5 -80t-46.5 -111l-131 -268h-166zM485 -334l84 320q-75 53 -75 141q0 70 50.5 117t123.5 47q74 0 123 -47t49 -119q0 -39 -13.5 -80t-46.5 -111l-129 -268h-166z" />
<glyph unicode="&#x2022;" horiz-adv-x="708" d="M72 700q0 122 80.5 202.5t201.5 80.5t202 -81.5t81 -203.5q0 -121 -80.5 -201.5t-202.5 -80.5q-121 0 -201.5 81.5t-80.5 202.5z" />
<glyph unicode="&#x2026;" horiz-adv-x="1488" d="M59 152q0 75 54.5 129.5t132.5 54.5q76 0 130 -54.5t54 -129.5q0 -77 -54 -132t-130 -55q-78 0 -132.5 55t-54.5 132zM559 152q0 75 54 129.5t130 54.5q78 0 132.5 -54.5t54.5 -129.5q0 -77 -54.5 -132t-132.5 -55q-76 0 -130 55t-54 132zM1057 152q0 75 54 129.5 t130 54.5q77 0 131.5 -54t54.5 -130q0 -77 -54 -132t-132 -55q-76 0 -130 55t-54 132z" />
<glyph unicode="&#x202f;" horiz-adv-x="406" />
<glyph unicode="&#x2039;" horiz-adv-x="735" d="M74 479v205l389 455l199 -133l-265 -422l265 -424l-199 -133z" />
<glyph unicode="&#x203a;" horiz-adv-x="735" d="M74 160l264 424l-264 422l200 133l388 -455v-205l-388 -452z" />
<glyph unicode="&#x205f;" horiz-adv-x="508" />
<glyph unicode="&#x20ac;" horiz-adv-x="1210" d="M18 451l45 167h123v146h-168l45 170h136q60 222 222 350.5t380 128.5q216 0 391 -119l-115 -196q-125 82 -264 82q-101 0 -176 -61.5t-109 -184.5h496l-45 -170h-467v-146h436l-43 -167h-383q30 -129 104.5 -189.5t194.5 -60.5q147 0 299 88v-248q-169 -76 -329 -76 q-236 0 -390.5 127t-205.5 359h-177z" />
<glyph unicode="&#x2122;" horiz-adv-x="1855" d="M59 1233v186h727l-30 -186h-226v-627h-237v627h-234zM815 606l29 813h305l135 -512l119 512h317l29 -813h-227l-9 332q-5 142 15 297h-6l-144 -545h-184l-160 543h-4q15 -152 12 -295l-8 -332h-219z" />
<glyph unicode="&#x25fc;" horiz-adv-x="1085" d="M0 0v1085h1085v-1085h-1085z" />
</font>
</defs>
</svg>
