<?xml version="1.0" standalone="no"?>
<!DOCTYPE svg PUBLIC "-//W3C//DTD SVG 1.1//EN" "http://www.w3.org/Graphics/SVG/1.1/DTD/svg11.dtd" >
<svg xmlns="http://www.w3.org/2000/svg" xmlns:xlink="http://www.w3.org/1999/xlink" version="1.1">
<metadata></metadata>
<defs>
<font id="adobe_garamond_proSBdIt" horiz-adv-x="1044" >
<font-face units-per-em="2048" ascent="1485" descent="-563" />
<missing-glyph horiz-adv-x="501" />
<glyph unicode="&#xfb01;" horiz-adv-x="1071" d="M-315 -414q0 41 23 69t54 28q40 0 64 -41q66 -103 119 -103q25 0 48 37t52 137q32 111 123.5 461.5t146.5 542.5h-182q-15 22 -6 51.5t31 38.5h182q87 282 182 418q166 239 428 239q112 0 182 -54t70 -130q0 -50 -39.5 -81.5t-83.5 -31.5q-74 0 -78 66q-6 158 -106 158 q-47 0 -88 -33.5t-90 -112.5q-71 -117 -172 -438h139q94 0 201.5 18.5t118.5 18.5q19 0 35 -20.5t10 -41.5q0 -40 -17 -86l-213 -542q-7 -14 -5 -24.5t13 -10.5q25 0 92.5 45t112.5 94q15 0 25.5 -13t7.5 -28q-46 -77 -171 -161.5t-230 -84.5q-27 0 -48.5 20.5t-21.5 41.5 q0 22 22 86l195 528q10 25 11.5 38.5t-9.5 21t-27.5 9t-52.5 1.5h-213q-39 -114 -120.5 -406.5t-106.5 -371.5q-78 -246 -158 -349q-40 -52 -116 -96.5t-162 -44.5q-72 0 -122 41t-50 96z" />
<glyph unicode="&#xfb02;" horiz-adv-x="1073" d="M-315 -414q0 41 23 69t54 28q40 0 64 -41q66 -103 119 -103q25 0 48 37t52 137q32 111 123.5 461.5t146.5 542.5h-182q-12 22 -3 51.5t28 38.5h186q84 285 182 422q80 110 187 172.5t233 62.5q119 0 178 -59q22 9 57.5 24t55.5 23t33 12q6 -2 12 -7t6 -9 q-47 -122 -110 -309l-330 -971q-7 -21 -10.5 -35.5t-3 -25.5t5.5 -16t16 -5q55 0 223 197q43 0 37 -37q-25 -48 -56.5 -91t-78.5 -87t-112 -70.5t-138 -26.5q-56 0 -81 22t-25 52q0 47 37 152l176 520h-318q-39 -114 -120.5 -406.5t-106.5 -371.5q-78 -246 -158 -349 q-40 -52 -116 -96.5t-162 -44.5q-72 0 -122 41t-50 96zM545 807h323l142 405q26 68 3 123.5t-85 55.5q-107 0 -199 -136q-44 -63 -95 -186.5t-89 -261.5z" />
<glyph unicode="&#xfb03;" horiz-adv-x="1607" d="M-315 -414q0 41 23 69t54 28q40 0 64 -41q66 -103 119 -103q25 0 48 37t52 137q32 111 123.5 461.5t146.5 542.5h-186q-11 25 -2.5 53t27.5 37h186q76 247 172 385q154 225 391 225q83 0 135.5 -39t59.5 -90h4q81 90 171.5 133t213.5 43q112 0 182 -54t70 -130 q0 -50 -39.5 -81.5t-83.5 -31.5q-74 0 -78 66q-6 158 -106 158q-48 0 -89.5 -33.5t-93.5 -114.5q-84 -131 -168 -436h140q94 0 201 18.5t118 18.5q19 0 35 -20.5t10 -41.5q0 -43 -16 -86l-213 -542q-7 -14 -5 -24.5t13 -10.5q25 0 92.5 45t112.5 94q15 0 25.5 -13t7.5 -28 q-46 -77 -171.5 -161.5t-230.5 -84.5q-27 0 -48.5 20.5t-21.5 41.5q0 19 23 86l195 528q10 25 11.5 38.5t-9.5 21t-27.5 9t-52.5 1.5h-213q-30 -86 -108.5 -366t-104.5 -363q-78 -244 -158 -348q-42 -54 -117 -99t-161 -45q-70 0 -119 41t-49 96q0 37 23 64t54 27 q39 0 60 -35q64 -103 119 -103q25 0 48 37.5t52 138.5q33 118 121.5 456t134.5 499h-332q-39 -114 -120.5 -406.5t-106.5 -371.5q-78 -246 -158 -349q-40 -52 -116 -96.5t-162 -44.5q-72 0 -122 41t-50 96zM553 807h328q63 216 131 348q1 79 -37.5 133.5t-95.5 54.5 q-106 0 -187 -153q-66 -123 -139 -383z" />
<glyph unicode="&#xfb04;" horiz-adv-x="1609" d="M-315 -414q0 41 23 69t54 28q40 0 64 -41q66 -103 119 -103q25 0 48 37t52 137q32 111 123.5 461.5t146.5 542.5h-186q-11 25 -2.5 53t27.5 37h186q76 247 172 385q156 225 391 225q85 0 138.5 -39t60.5 -90h4q162 176 362 176q134 0 193 -59q23 10 57.5 24.5t54.5 22.5 t33 12q6 -2 12.5 -7t6.5 -9q-55 -141 -111 -309l-330 -971q-9 -28 -12 -45t2 -27t19 -10q55 0 223 197q43 0 37 -37q-25 -48 -56.5 -91t-78.5 -87t-112 -70.5t-138 -26.5q-56 0 -81.5 22t-25.5 52q0 47 37 152l176 520h-317q-30 -86 -108.5 -366t-104.5 -363 q-78 -244 -158 -348q-42 -54 -117 -99t-161 -45q-70 0 -119 41t-49 96q0 37 23 64t54 27q39 0 60 -35q64 -103 119 -103q25 0 48 37.5t52 138.5q33 118 121.5 456t134.5 499h-332q-39 -114 -120.5 -406.5t-106.5 -371.5q-78 -246 -158 -349q-40 -52 -116 -96.5t-162 -44.5 q-72 0 -122 41t-50 96zM553 807h328q66 229 133 348q0 79 -39 133.5t-96 54.5q-106 0 -187 -153q-66 -123 -139 -383zM1081 807h324l141 405q26 68 2.5 123.5t-88.5 55.5q-105 0 -200 -136q-43 -61 -91.5 -183.5t-87.5 -264.5z" />
<glyph horiz-adv-x="0" />
<glyph horiz-adv-x="682" />
<glyph unicode=" "  horiz-adv-x="501" />
<glyph unicode="&#x09;" horiz-adv-x="501" />
<glyph unicode="&#xa0;" horiz-adv-x="501" />
<glyph unicode="!" horiz-adv-x="512" d="M84 90q0 66 42 113t105 47q52 0 81.5 -33.5t29.5 -89.5q0 -67 -42 -111.5t-101 -44.5q-53 0 -84 32t-31 87zM270 422l125 618q38 182 47 209q16 43 48.5 58.5t91.5 15.5q63 0 89 -21t17 -57q-4 -15 -13.5 -39t-32 -74.5t-38.5 -87.5l-264 -622q-12 -12 -35 -12t-35 12z " />
<glyph unicode="&#x22;" horiz-adv-x="880" d="M440 901l37 373q6 70 17 98q9 38 33.5 50t80.5 12t79.5 -14t14.5 -52q-5 -24 -36 -94l-164 -373q-12 -12 -32.5 -12t-29.5 12zM805 901l37 373q6 73 16 98q9 38 34 50t81 12t79.5 -14t14.5 -52q-4 -20 -37 -94l-164 -373q-12 -12 -32 -12t-29 12z" />
<glyph unicode="#" d="M106 389l39 111h226l137 323h-219l41 111h225l145 344h107l-148 -344h218l145 344h106l-147 -344h211l-35 -111h-223l-137 -323h202l-38 -111h-211l-164 -383h-105l164 383h-217l-164 -383h-104l164 383h-218zM475 500h217l137 323h-217z" />
<glyph unicode="$" d="M78.5 266q4.5 80 23.5 160q9 9 29 9t29 -9q6 -116 71.5 -211t178.5 -121l155 508q-113 69 -173 142.5t-60 173.5q0 171 125 272t321 104l49 160q15 15 45.5 15t45.5 -15l-50 -164q105 -9 242 -69q8 -115 -33 -258q-9 -9 -28.5 -9t-28.5 9q0 91 -44 160t-136 89l-135 -450 q61 -34 105 -66.5t84 -76.5t60.5 -100t20.5 -122q0 -181 -137.5 -289t-350.5 -108h-16l-61 -193q-15 -12 -46 -12t-40 12l57 201q-110 14 -189.5 54.5t-105.5 80.5q-12 43 -7.5 123zM496 78h16q114 0 188 66.5t74 170.5q0 89 -33.5 143.5t-101.5 98.5zM512 995 q0 -114 119 -188l123 410q-106 -3 -174 -67t-68 -155z" />
<glyph unicode="%" horiz-adv-x="1769" d="M274 786q0 124 54 244t154 200.5t218 80.5q123 0 186.5 -75.5t63.5 -207.5q0 -117 -53 -234.5t-152.5 -199.5t-216.5 -82q-125 0 -189.5 74.5t-64.5 199.5zM422 -33q105 124 552 698t529 674q24 3 47 -11.5t23 -37.5q-105 -124 -552 -698t-529 -674q-28 -3 -47.5 10.5 t-22.5 38.5zM434 721q0 -63 22.5 -99t67.5 -36q75 0 144 106q51 83 89 212t38 206q0 60 -22.5 93.5t-67.5 33.5q-75 0 -144 -102q-53 -83 -90 -208t-37 -206zM1065 246q0 124 54 244t154 200t218 80q123 0 186.5 -75.5t63.5 -207.5q0 -117 -53 -234.5t-152.5 -199.5 t-216.5 -82q-125 0 -189.5 75t-64.5 200zM1225 180q0 -63 22.5 -99t67.5 -36q74 0 143 107q51 83 89 212t38 205q0 60 -22.5 93.5t-67.5 33.5q-74 0 -143 -102q-53 -83 -90 -208t-37 -206z" />
<glyph unicode="&#x26;" horiz-adv-x="1613" d="M180 381q0 105 42 221t140 215q51 52 104.5 89t97 53t72 22t48.5 6q33 0 57.5 -8t39.5 -24t22.5 -27.5t15.5 -30.5q63 52 140.5 132.5t117.5 137.5q24 32 47 80t23 84q0 34 -23 60q-22 28 -22 59q0 50 30 78t74 28q47 0 80 -33.5t33 -97.5q0 -84 -63 -182.5t-207 -238.5 q-114 -112 -316 -274.5t-368 -287.5q12 -130 108 -214.5t227 -84.5q133 0 255.5 70.5t211.5 212.5q107 168 107 365q-12 19 -47.5 34t-71.5 15q-42 0 -80.5 -33t-38.5 -74q0 -14 25 -74q16 -40 16 -57q0 -26 -21 -48t-63 -22q-38 0 -65 27.5t-27 71.5q0 114 143 237 q54 46 111 66t90 20q41 0 77 -10.5t71.5 -36.5t59 -47t65.5 -63q41 -41 53.5 -50.5t30.5 -9.5q15 0 25.5 15t10.5 39q0 15 -12 57q-8 24 -8 41q0 21 20 41t50 20q48 0 73 -36.5t25 -94.5q0 -53 -47 -112q-21 -18 -49 -23q-100 -18 -174 -66q-27 -19 -48 9q-14 21 -51.5 59 t-77.5 68q0 -103 -4 -144q0 -68 -48 -184.5t-152 -228.5q-108 -114 -243.5 -170t-268.5 -56q-93 0 -168.5 23t-125.5 62t-84.5 92t-49.5 111.5t-15 121.5zM360 528q26 21 100 80t115.5 93.5t67.5 60.5q12 12 12 53q0 31 -19 50.5t-50 19.5q-26 0 -67 -27t-77 -80 q-69 -104 -82 -250z" />
<glyph unicode="'" horiz-adv-x="495" d="M430 901l37 373q6 73 16 98q9 38 34 50t81 12t79.5 -14t14.5 -52q-4 -20 -37 -94l-163 -373q-12 -12 -32.5 -12t-29.5 12z" />
<glyph unicode="(" horiz-adv-x="675" d="M193 307q0 244 98 469t274 404q71 71 151.5 130t120.5 81t97 51q18 -3 27 -14t6 -23q-98 -62 -192 -151.5t-165 -196.5q-125 -187 -197.5 -397t-72.5 -422q0 -151 30 -294t93 -247q0 -13 -11.5 -23t-29.5 -10q-116 116 -172.5 282t-56.5 361z" />
<glyph unicode=")" horiz-adv-x="675" d="M-104 -299q98 62 191 151.5t165 196.5q125 187 197.5 397t72.5 422q0 151 -30 294t-93 247q0 13 11.5 23t29.5 10q116 -116 173 -282t57 -361q0 -244 -98.5 -469t-274.5 -404q-71 -71 -151.5 -130t-120.5 -81t-97 -51q-18 3 -26.5 13.5t-5.5 23.5z" />
<glyph unicode="*" horiz-adv-x="819" d="M292.5 932q-5.5 21 6.5 33l260 98l-184 215q-4 17 9.5 31.5t27.5 11.5l217 -180l86 241q10 9 29 6.5t26 -14.5l-39 -258l277 58q12 -5 16 -26t-6 -30l-264 -104l184 -209q5 -18 -9 -34t-32 -13l-211 182l-90 -240q-12 -8 -32.5 -3.5t-26.5 18.5l47 254l-271 -66 q-15 8 -20.5 29z" />
<glyph unicode="+" d="M152 356v129h317v322h154v-322h317v-129h-317v-356h-154v356h-317z" />
<glyph unicode="," horiz-adv-x="522" d="M-18 -209q-5 18 2 33q78 29 139 85t61 124q0 65 -65 90q-16 6 -26.5 23t-10.5 38q0 43 34.5 75t80.5 32q66 0 114.5 -54.5t48.5 -138.5q0 -77 -51.5 -145.5t-130.5 -114.5t-174 -71q-17 6 -22 24z" />
<glyph unicode="-" horiz-adv-x="655" d="M117 399q0 38 18 68l488 45q18 -18 18 -68q0 -41 -18 -65l-488 -45q-18 18 -18 65z" />
<glyph unicode="." horiz-adv-x="522" d="M82 90q0 66 42 113t105 47q52 0 81.5 -33.5t29.5 -89.5q0 -67 -42 -111.5t-101 -44.5q-53 0 -84 32t-31 87z" />
<glyph unicode="/" horiz-adv-x="552" d="M-18 -33l630 1417h160l-631 -1417h-159z" />
<glyph unicode="0" d="M143 369q0 185 76.5 386.5t194.5 338.5q190 217 397 217q76 0 133.5 -24.5t92 -63.5t56.5 -94t29.5 -109t7.5 -115q0 -174 -78 -380.5t-196 -348.5q-78 -94 -177.5 -149.5t-211.5 -55.5q-76 0 -134 24t-93.5 62.5t-58 92.5t-30.5 106.5t-8 112.5zM348 238 q0 -91 31.5 -140t93.5 -49q134 0 272 316q76 173 130.5 358.5t54.5 312.5q0 197 -117 197q-35 0 -70.5 -23t-63.5 -55.5t-61 -87t-54.5 -97t-51.5 -106.5q-71 -154 -117.5 -329t-46.5 -297z" />
<glyph unicode="1" d="M167 26q2 22 17 31l62 9q88 12 117.5 45t66.5 155l205 668q33 105 33 147q0 24 -15 34t-51 15l-90 13q-12 9 -11.5 30t15.5 27q106 14 250 53q40 11 100.5 33.5t71.5 24.5q23 0 29 -17q-49 -119 -86 -241l-246 -795q-25 -82 -25.5 -119.5t20 -52t75.5 -20.5l65 -9 q12 -9 10 -32.5t-14 -32.5q-212 8 -307 8q-91 0 -279 -8q-15 12 -13 34z" />
<glyph unicode="2" d="M-29 33q83 54 159.5 113t250.5 198q47 38 64.5 52.5t67 56.5t73.5 65t68.5 66.5t68 73t55 71.5t47 76.5t27.5 73.5t12 75q0 112 -56.5 171t-156.5 59q-80 0 -158 -53t-133 -136q-20 -6 -38 5t-15 32q70 129 191 204t256 75q161 0 256.5 -85.5t95.5 -234.5 q0 -76 -29 -144.5t-98.5 -139t-112 -106t-139.5 -108.5q-12 -9 -18 -14l-148 -110q-128 -96 -170.5 -132t-42.5 -47q0 -18 66 -18h237q85 0 123.5 7.5t66.5 29t72 78.5q13 5 30.5 -1t23.5 -20q-22 -72 -64 -156t-72 -116q-98 4 -147 4q-49 2 -152 2h-319q-159 0 -233 -6 q-16 19 -9 39z" />
<glyph unicode="3" d="M-29 16q0 43 30 73t73 30q17 0 32 -4.5t28.5 -17t19.5 -18.5t19.5 -25.5t14.5 -20.5q44 -62 119 -62q54 0 120 23t122 63q94 66 147.5 172t53.5 226q0 104 -55.5 166.5t-157.5 62.5q-113 0 -218 -98q-31 3 -42.5 36t10.5 58q262 100 360 160q81 48 128.5 105t47.5 116 q0 70 -43.5 106.5t-111.5 36.5q-73 0 -148.5 -47.5t-134.5 -128.5q-22 -3 -35.5 8t-13.5 33q65 108 182 175t248 67q120 0 199 -59.5t79 -161.5q0 -167 -299 -279q-23 -9 -17 -19.5t30 -13.5q98 -13 169.5 -87t71.5 -195q0 -135 -90 -260t-217 -203q-123 -79 -254.5 -113.5 t-240.5 -34.5q-101 0 -163.5 34t-62.5 97z" />
<glyph unicode="4" d="M72 434q0 3 1.5 7t6 8.5l8 8l10.5 10.5l11 11l942 938q29 29 57 29h57q15 0 21.5 -6t3.5 -15q0 -7 -21 -28l-897 -877q-29 -29 12 -35l33 -2h279q35 0 47 7t19 34l102 348q7 23 19.5 35.5t33.5 22.5q33 16 84 32.5t72 16.5q35 0 20 -49l-123 -402q-10 -28 -5.5 -36.5 t34.5 -8.5h131q15 -15 6.5 -50.5t-30.5 -47.5h-127q-33 0 -43.5 -8t-22.5 -41l-37 -103q-34 -100 -22 -133t80 -39l45 -4q12 -9 7.5 -34t-16.5 -31q-188 8 -266 8q-94 0 -274 -8q-12 12 -10 34t14 31l78 4q27 2 45.5 5t34 13.5t24.5 19.5t19.5 33t16.5 42.5t19 58.5l33 107 q9 31 2.5 38t-43.5 7h-471q-26 10 -20 49z" />
<glyph unicode="5" d="M7 -105.5q-3 27.5 13 39.5q107 3 213 26t200.5 66t167 100t115 134t42.5 162q0 304 -459 326q-55 3 -16 67l192 397q14 28 34.5 40t68.5 18l536 69q11 0 18 -8.5t7 -15.5q-15 -43 -48 -90.5t-67 -75.5l-459 -62q-41 -5 -58 -13t-28 -34l-37 -86q-8 -26 -4 -33.5t21 -9.5 q86 -12 155.5 -30.5t139 -52.5t116 -81t74.5 -118.5t27 -161.5q-3 -159 -117 -290t-281 -204q-117 -51 -263 -80t-277 -32q-23 6 -26 33.5z" />
<glyph unicode="6" d="M131 383q0 202 121 414t321 358q171 123 372.5 189t361.5 73q14 -3 16 -25.5t-8 -31.5q-325 -64 -561 -250q-178 -140 -288 -361.5t-110 -424.5q0 -275 185 -275q65 0 119 42t85.5 106.5t48.5 133t17 128.5q0 91 -36 152.5t-111 68.5q-56 4 -99 -8q-9 9 -11 24.5t7 24.5 q39 29 92 49.5t97 20.5q133 0 213.5 -86t80.5 -242q0 -130 -67.5 -243t-186 -181t-258.5 -68q-195 0 -298 110.5t-103 301.5z" />
<glyph unicode="7" d="M147 -74l811 1069q35 47 44.5 65t9.5 32q0 18 -58 18h-385q-101 0 -145 -18t-92 -84q-9 -9 -29.5 -2t-23.5 22q67 121 118 258q49 -4 234 -4h389q233 0 262 4q19 -6 12 -29q-103 -108 -278 -339l-795 -1049q-28 -6 -52.5 12t-21.5 45z" />
<glyph unicode="8" d="M104 289q0 62 21.5 117t55.5 95.5t84 76t98.5 60t107.5 46.5q-139 103 -139 246q0 161 119.5 271t287.5 110q157 0 258 -84t101 -228q0 -60 -26 -111.5t-71.5 -89t-95.5 -64t-110 -46.5q188 -134 188 -315q0 -120 -64.5 -212.5t-174 -141t-244.5 -48.5 q-169 0 -282.5 84.5t-113.5 233.5zM307 295q0 -114 61.5 -180t157.5 -66q102 0 173 70t71 188q0 58 -19.5 109t-56.5 91t-71.5 67.5t-81.5 56.5q-105 -53 -169.5 -139t-64.5 -197zM524 1008q0 -47 14.5 -86t45.5 -71.5t61.5 -55.5t79.5 -54q75 33 129.5 112t54.5 175 q0 90 -46.5 147.5t-129.5 57.5q-90 0 -149.5 -63.5t-59.5 -161.5z" />
<glyph unicode="9" d="M-2 -96q-4 21 6 30q392 97 625 359q127 142 205.5 333t78.5 357q0 250 -172 250q-76 0 -141 -61t-99 -150t-34 -178q0 -204 151 -226q25 -4 87 -4q6 -3 8 -17.5t-4 -23.5q-32 -23 -84.5 -38t-92.5 -15q-127 0 -204.5 83t-77.5 220q0 121 66 233t183 183.5t253 71.5 q186 0 284.5 -112t98.5 -298q0 -153 -85.5 -325.5t-222.5 -309.5q-155 -158 -380 -262t-431 -127q-14 6 -18 27z" />
<glyph unicode=":" horiz-adv-x="522" d="M82 90q0 66 42 113t105 47q52 0 81.5 -33.5t29.5 -89.5q0 -67 -42 -111.5t-101 -44.5q-53 0 -84 32t-31 87zM299 786q0 66 42 113t105 47q52 0 81.5 -33.5t29.5 -89.5q0 -67 -42 -111t-101 -44q-53 0 -84 31.5t-31 86.5z" />
<glyph unicode=";" horiz-adv-x="522" d="M-18 -209q-5 18 2 33q78 29 139 85t61 124q0 65 -65 90q-16 6 -26.5 23t-10.5 38q0 43 34.5 75t80.5 32q66 0 114.5 -54.5t48.5 -138.5q0 -77 -51.5 -145.5t-130.5 -114.5t-174 -71q-17 6 -22 24zM299 786q0 66 42 113t105 47q52 0 81.5 -33.5t29.5 -89.5q0 -67 -42 -111 t-101 -44q-53 0 -84 31.5t-31 86.5z" />
<glyph unicode="&#x3c;" d="M115 377v92l796 379v-154l-608 -268v-4l608 -270v-152z" />
<glyph unicode="=" d="M150 203v129h788v-129h-788zM150 510v129h788v-129h-788z" />
<glyph unicode="&#x3e;" d="M188 0v152l609 270v4l-609 268v154l797 -379v-92z" />
<glyph unicode="?" horiz-adv-x="667" d="M143 90q0 66 42.5 113t105.5 47q52 0 81 -33.5t29 -89.5q0 -67 -42 -111.5t-101 -44.5q-53 0 -84 32t-31 87zM233 627q9 67 56 114.5t137 89.5l139 66q76 36 114 67.5t38 71.5q0 48 -40.5 81.5t-94.5 33.5q-49 0 -99 -16q-11 -3 -25 -7.5t-22.5 -7t-13.5 -2.5 q-25 0 -41 19.5t-16 50.5q0 53 46.5 94t125.5 41q101 0 185.5 -96.5t84.5 -222.5q0 -91 -55 -163t-158 -120l-148 -70q-62 -29 -88 -58t-26 -69q0 -42 12 -98q-6 -9 -21 -11.5t-24 3.5q-32 39 -52 97.5t-14 111.5z" />
<glyph unicode="@" horiz-adv-x="1585" d="M236 315q0 177 67.5 328t180 251.5t259 157t304.5 56.5q141 0 257 -45.5t189.5 -122.5t113.5 -176t40 -209q0 -204 -140.5 -337.5t-373.5 -133.5q-62 0 -98 11.5t-44 22.5t-8 23q0 25 14 68l50 110l-5 3q-93 -96 -209 -167t-180 -71q-43 0 -66.5 26.5t-23.5 63.5 q0 40 39 129.5t119 188.5q207 256 414 256q23 0 44.5 -12.5t28.5 -33.5l49 105q26 8 58.5 0t56.5 -25q-11 -27 -114.5 -270.5t-120.5 -284.5q-14 -37 -7 -51.5t39 -17.5q92 -9 179.5 38t144.5 141t57 210q0 147 -67.5 257.5t-181 167t-254.5 56.5q-142 0 -264 -60 t-203 -159.5t-126.5 -229t-45.5 -268.5q0 -74 16 -145.5t57 -145.5t104 -129.5t165.5 -91t232.5 -35.5q158 0 324 68q11 -6 16 -20t2 -25q-170 -94 -412 -94q-104 0 -202.5 24.5t-184.5 76t-150.5 124t-102 175t-37.5 222.5zM741 211q0 -29 13 -29q9 0 25.5 6t55.5 30.5 t83 64.5q69 62 144 170.5t95 162.5q-8 24 -30.5 40t-53.5 16q-57 0 -123 -58q-80 -70 -144.5 -197t-64.5 -206z" />
<glyph unicode="A" horiz-adv-x="1245" d="M-128.5 23.5q-0.5 20.5 11.5 29.5l51 8q62 9 99 36.5t92 105.5q208 285 297 415l328 472q119 169 127 219q26 1 56 11.5t49.5 20.5t46 25t32.5 18q13 0 23 -6t10 -16q0 -14 -1.5 -47.5t-4.5 -104t-5 -143.5q-12 -391 -18 -788q-2 -29 -2 -54q-1 -21 1 -39q4 -38 7 -61 t17.5 -37t32 -19.5t50.5 -9.5l50 -6q9 -10 6 -31t-15 -28q-129 6 -266 6q-158 0 -252 -6q-18 7 -18.5 28.5t12.5 30.5l55 8q64 9 81 30.5t20 94.5l12 273q1 31 -9.5 39t-51.5 8h-269q-45 0 -57 -7.5t-39 -49.5l-141 -228q-66 -109 -66 -127q0 -20 51 -28l66 -13 q12 -9 10 -29.5t-16 -29.5q-129 6 -236 6q-111 0 -213 -6q-13 9 -13.5 29.5zM542.5 605q6.5 -7 45.5 -7h219q31 0 39.5 8t9.5 41l18 346q1 23 1.5 62t1.5 63h-5q-10 -18 -98 -149l-223 -334q-15 -23 -8.5 -30z" />
<glyph unicode="B" horiz-adv-x="1253" d="M16 24.5q2 22.5 17 28.5l51 8q51 8 76 23.5t49 62t55 148.5l246 788q16 52 22.5 78.5t10 50t-4.5 33.5t-21 16t-38 9l-65 8q-13 9 -10 30t20 27q212 23 403 23q510 0 510 -305q0 -56 -19.5 -104t-51 -81.5t-71.5 -59t-80 -39t-79 -17.5q-47 -7 -47 -19q9 -9 31 -16 q86 -31 142 -107q57 -78 57 -183q-1 -112 -65 -206q-66 -95 -175 -151q-153 -76 -438 -76q-54 0 -137.5 3t-112.5 3q-142 0 -262 -6q-15 8 -13 30.5zM472 114q30 -40 120 -40q68 0 133.5 23t120.5 66.5t89 116t34 162.5q0 117 -74 180.5t-190 63.5q-68 0 -87 -10t-32 -55 l-113 -367q-15 -50 -15 -85q-1 -35 14 -55zM648.5 772q12.5 -10 74.5 -10q68 0 133 19.5t120.5 57t89.5 100t34 140.5q0 88 -59.5 143.5t-166.5 55.5q-53 0 -69.5 -10t-32.5 -60l-123 -389q-13 -37 -0.5 -47z" />
<glyph unicode="C" horiz-adv-x="1343" d="M292 860q82 168 212 283q122 108 294.5 174.5t379.5 66.5q28 0 55.5 -1.5t55 -5t49.5 -7t48.5 -9.5t42 -9.5t40 -10.5t32.5 -9.5t29 -9.5l22 -7q-50 -111 -96 -297q-9 -12 -35.5 -11.5t-29.5 15.5q5 36 5 68q0 94 -42 146q-56 69 -197 69q-124 0 -248 -59.5t-235 -184.5 q-90 -103 -152.5 -259t-62.5 -319q0 -221 97 -328.5t259 -107.5q136 0 237 72.5t201 214.5q15 9 34 6t28 -16q-45 -139 -139 -308q-24 -2 -79.5 -13t-80.5 -15q-128 -21 -205 -21q-273 -1 -438 139q-164 139 -164 395q0 189 83 359z" />
<glyph unicode="D" horiz-adv-x="1550" d="M19.5 24q0.5 23 15.5 29l57 8q49 6 73.5 23.5t45.5 62t53 148.5l250 801q26 85 26 120v10q-6 30 -57 40l-69 12q-12 9 -10 30t14 29q200 21 428 21q334 0 522 -121q221 -145 221 -446q0 -164 -72.5 -315.5t-199.5 -258.5q-267 -223 -733 -223q-50 0 -146 3t-137 3 q-120 0 -270 -6q-12 7 -11.5 30zM481 131q29 -57 148 -57q221 0 409 137q142 104 221.5 276t79.5 324q0 43 -3 79.5t-14 86.5t-30 90t-54.5 81.5t-83 69t-119.5 44.5q-68 16 -151 16h-10q-52 0 -70 -16t-38 -80l-281 -903q-17 -54 -17 -93q0 -33 13 -55z" />
<glyph unicode="E" horiz-adv-x="1204" d="M-3 23q2 21 17 30l70 8q39 5 60.5 13t42.5 34t37 67.5t40 119.5l238 762q18 59 26 91t11 60t-6.5 41.5t-26 23t-47.5 17.5l-49 13q-12 9 -7.5 28t19.5 27q22 -1 67 -2t68 -2q23 0 67.5 -1t63.5 -1h418q238 0 283 6q-13 -29 -43.5 -124.5t-49.5 -172.5q-9 -13 -34 -13.5 t-31 13.5q5 35 5 64q0 24 -4 45q-8 45 -40 65q-61 37 -195 37h-135q-46 0 -60.5 -12t-29.5 -62l-123 -391q-13 -43 -7.5 -51t48.5 -8h111q113 0 155 19t78 89l29 55q12 12 37 10t28 -14q-6 -14 -73 -209q-27 -78 -56 -206q-12 -10 -35.5 -10t-29.5 10l4 53q1 11 1 21 q0 54 -28 70q-33 18 -139 19h-106q-42 0 -55 -9t-25 -48l-84 -262q-36 -110 -36 -168q0 -26 7 -41q11 -25 52.5 -36t152.5 -11q70 0 109.5 3t84.5 14.5t78.5 36t72 65t83.5 104.5q12 10 34 6t29 -18q-22 -68 -68 -163t-79 -134q-132 4 -231 4q-84 2 -254 2h-248 q-116 0 -279 -6q-15 8 -13 29z" />
<glyph unicode="F" horiz-adv-x="1118" d="M11.5 23.5q0.5 20.5 15.5 29.5l61 8q49 6 74.5 23t48 62.5t53.5 148.5l238 762q15 49 23 78t12.5 56.5t1.5 41.5t-12.5 27t-25.5 19.5t-42 12.5l-45 11q-13 9 -9.5 28.5t21.5 26.5q82 -4 125 -4q43 -2 137 -2h399q238 0 283 6q-12 -29 -42 -125t-50 -172 q-6 -13 -33 -13.5t-33 13.5q5 36 5 66q0 23 -3 43q-7 46 -38 65q-65 37 -197 37h-129q-39 0 -51 -11.5t-27 -62.5l-129 -416q-11 -35 -5.5 -44t40.5 -9h137q79 0 119 8t66 29t51 68l30 57q9 12 34.5 10t31.5 -14q-29 -68 -74 -205q-15 -45 -35.5 -122.5t-23.5 -86.5 q-9 -12 -33 -12t-33 12l6 64q1 9 1 18q0 46 -28 62q-33 20 -136 20h-142q-36 0 -47.5 -9.5t-23.5 -49.5l-86 -283q-15 -50 -23 -79t-13 -57.5t-2.5 -43t12 -27.5t26 -18.5t43.5 -8.5l73 -8q9 -12 6 -31t-18 -28q-176 6 -299 6q-118 0 -274 -6q-12 9 -11.5 29.5z" />
<glyph unicode="G" horiz-adv-x="1472" d="M213 514q0 170 77 335t214 286q285 249 710 249q194 0 385 -67q-44 -102 -98 -299q-9 -14 -33 -13.5t-30 13.5q6 40 6 75q0 92 -43 143q-59 69 -211 69q-282 0 -490 -228q-105 -115 -172 -282.5t-67 -329.5q0 -92 21.5 -164.5t57.5 -119t86 -77.5t104 -44t114 -13 q89 0 134 30.5t75 123.5l53 170q21 65 21 101q0 18 -5 28q-15 33 -96 43l-74 10q-15 9 -13 30t17 29q193 -6 308 -6q156 0 233 6q14 -8 13.5 -29t-13.5 -30l-43 -10q-52 -12 -71 -39.5t-52 -132.5l-55 -178q-14 -41 -14 -65q0 -27 22 -36q4 -6 1.5 -20t-13.5 -17 q-14 -4 -42.5 -12.5t-51.5 -15.5t-39 -11q-161 -49 -320 -49q-296 0 -451 146t-155 401z" />
<glyph unicode="H" horiz-adv-x="1581" d="M25.5 25q0.5 22 15.5 28l47 6q49 6 74.5 24t47.5 63.5t54 148.5l238 762q19 61 27 93t11.5 62.5t-6 44t-27.5 22.5t-52 13l-52 6q-9 12 -4 32t17 28q147 -6 282 -6q137 0 269 6q12 -9 11.5 -31.5t-15.5 -28.5l-58 -8q-49 -6 -74 -23t-47 -62t-55 -148l-78 -246 q-14 -44 -3 -53.5t81 -9.5h422q54 0 74.5 4t30.5 15.5t20 43.5l76 246q19 61 27 93t11.5 62.5t-6 44t-27.5 22.5t-52 13l-52 6q-9 12 -4 32t17 28q150 -6 284 -6t269 6q12 -9 11.5 -31.5t-15.5 -28.5l-58 -8q-50 -6 -75 -22.5t-48.5 -62.5t-54.5 -148l-238 -762 q-18 -60 -26.5 -92.5t-11 -62t7 -43t28 -23t52.5 -13.5l59 -8q9 -12 5 -31.5t-15 -27.5q-166 6 -293 6q-136 0 -268 -6q-12 9 -11.5 31t15.5 28l55 6q49 5 74.5 23t47.5 64t54 149l96 311q13 34 1 41.5t-85 7.5h-426q-47 0 -67.5 -5t-28 -14.5t-16.5 -37.5l-96 -303 q-19 -60 -27.5 -92.5t-12 -62.5t6 -43.5t28 -22.5t52.5 -13l71 -8q9 -12 4.5 -31.5t-16.5 -27.5q-178 6 -303 6q-141 0 -258 -6q-12 9 -11.5 31z" />
<glyph unicode="I" horiz-adv-x="731" d="M15.5 25q0.5 22 15.5 28l57 8q49 6 74.5 23t48 62.5t53.5 148.5l238 762q16 51 23.5 78.5t12.5 57t2 43t-12.5 26.5t-27 18.5t-45.5 9.5l-62 8q-9 12 -4 32t17 28q164 -6 292 -6q137 0 269 6q12 -9 11.5 -31.5t-15.5 -28.5l-58 -8q-50 -6 -75 -23t-47.5 -62.5 t-53.5 -147.5l-237 -762q-19 -61 -27 -92.5t-11.5 -62t6 -43.5t27.5 -22.5t52 -13.5l61 -8q9 -12 4.5 -31.5t-16.5 -27.5q-163 6 -293 6q-136 0 -268 -6q-12 9 -11.5 31z" />
<glyph unicode="J" horiz-adv-x="739" d="M-254 -340q0 34 37 80q33 33 59 33q31 0 90 -41q2 -2 13 -10t13.5 -10t11 -8t12.5 -7.5t11.5 -4.5t13.5 -4t13 -1q34 0 62 44t61 128q42 104 133 399l248 799q18 60 26.5 92.5t11.5 62.5t-6.5 44t-28 23t-52.5 13l-74 8q-9 12 -4 31t17 27q185 -6 307 -6q142 0 256 6 q12 -9 11.5 -30.5t-15.5 -27.5l-45 -6q-49 -6 -75 -24t-49 -64.5t-54 -148.5l-275 -887q-70 -221 -137 -332q-152 -252 -442 -252q-62 0 -106 18.5t-44 55.5z" />
<glyph unicode="K" horiz-adv-x="1361" d="M15.5 25q0.5 22 15.5 28l57 8q49 6 74.5 23t48 62.5t53.5 148.5l238 762q19 61 27 93t11.5 62.5t-6 44t-27.5 22.5t-52 13l-52 6q-9 12 -4 32t17 28q147 -6 282 -6q137 0 269 6q12 -9 11.5 -31.5t-15.5 -28.5l-58 -8q-49 -6 -74 -23t-47 -62t-55 -148l-86 -266 q-11 -34 -6 -47t31 -13q34 0 69 14q58 34 181 150l231 215q73 65 115 117q20 20 20 33q0 17 -45 28l-33 8q-13 12 -9 34t22 28q132 -6 249 -6q45 0 126.5 3t107.5 3q15 -6 15 -29t-15 -31l-39 -8q-64 -12 -133 -35q-122 -44 -375 -266l-201 -178q-49 -46 -49 -66 q0 -7 19 -63q16 -41 61.5 -139.5t102 -215.5t65.5 -137q31 -67 60 -94.5t85 -34.5l52 -12q12 -9 10 -30t-14 -27q-156 8 -254 8q-132 0 -261 -6q-12 9 -12 30t12 29l54 8q45 7 52 29q2 5 2 11q0 20 -17 51q-39 78 -95 204l-82 181q-34 76 -52.5 100.5t-41.5 24.5 q-30 0 -45 -20.5t-31 -76.5l-83 -270q-16 -51 -23.5 -79t-12.5 -57.5t-2 -43.5t12.5 -27t27 -18.5t45.5 -8.5l67 -8q9 -12 4.5 -31.5t-16.5 -27.5q-172 6 -299 6q-136 0 -268 -6q-12 9 -11.5 31z" />
<glyph unicode="L" horiz-adv-x="1142" d="M17.5 24q0.5 23 15.5 29l57 8q49 6 73.5 24t45 61.5t53.5 148.5l242 762q19 59 27 91.5t11 60.5t-7 41.5t-27.5 22.5t-50.5 15l-54 10q-13 9 -9 31.5t22 28.5q147 -6 276 -6q118 0 277 6q12 -9 11.5 -31.5t-15.5 -28.5l-58 -8q-53 -7 -78.5 -24.5t-45 -60t-52.5 -148.5 l-227 -721q-37 -113 -37 -169q0 -22 6 -36q12 -29 51.5 -40t134.5 -11q59 0 94.5 2t77 9t69 21t61 39t64 62t67.5 90q19 9 37.5 6t27.5 -18q-23 -68 -68.5 -162.5t-76.5 -134.5q-136 4 -234 4q-84 2 -248 2h-237q-132 0 -264 -6q-12 7 -11.5 30z" />
<glyph unicode="M" horiz-adv-x="1792" d="M-49.5 25.5q0.5 21.5 12.5 27.5l51 8q90 14 119 50q49 55 197 446l174 459q57 150 57 209q0 15 -4 24q-13 31 -61 37l-78 12q-10 10 -6 31.5t22 28.5q156 -6 271 -6q67 0 178 6q-17 -45 -19 -123q-1 -24 -1 -45q-1 -47 3 -80q4 -47 17 -149l24 -218q30 -271 39 -321 q79 98 195 256l280 379q164 221 191 301q50 -6 153 -6q109 0 256 6q14 -9 13.5 -31.5t-15.5 -28.5l-51 -8q-44 -6 -67.5 -16t-40.5 -31q-44 -58 -91 -229l-182 -682q-43 -163 -43 -214q0 -11 2 -16q6 -18 22.5 -26.5t57.5 -14.5l55 -8q11 -12 9 -31t-15 -28q-163 6 -303 6 q-133 0 -262 -6q-12 10 -11.5 31.5t15.5 27.5l57 10q72 12 95 35q21 19 41.5 70.5t52.5 155.5l168 563q40 129 69 239l-4 4q-17 -24 -72 -95t-102 -136l-303 -412q-202 -272 -311 -454q-13 -10 -34 -8t-30 16v23q0 113 -24 397q-18 180 -29 338q-6 78 -17.5 197.5 t-13.5 144.5h-4q-21 -48 -110 -293l-129 -356q-73 -202 -95.5 -271.5t-23.5 -99.5q-2 -21 10.5 -35t44.5 -18l92 -15q10 -12 8 -31t-16 -28q-114 6 -250 6q-117 0 -225 -6q-9 10 -8.5 31.5z" />
<glyph unicode="N" horiz-adv-x="1495" d="M-8 23.5q-1 19.5 12 29.5l51 10q55 10 86.5 28t55.5 63q37 73 118 342l162 532q44 145 47 175q4 32 -6 48q-11 29 -57 35l-68 17q-12 9 -7 28t20 27q86 -4 116 -4q37 -2 117 -2q129 0 154 4q1 -19 4 -40.5t9 -46t11.5 -44.5t16.5 -48.5t17 -45t19 -47t18 -42t18.5 -42 t15.5 -35.5l153 -359q93 -217 115 -260q13 24 35 98l127 412q57 183 84 326q3 17 3 31q0 30 -13 45q-19 22 -85 32l-53 8q-10 12 -8 31t16 29q126 -6 246 -6q104 0 227 6q10 -10 10.5 -30t-10.5 -30l-53 -10q-37 -7 -58 -14t-43.5 -25.5t-39.5 -50.5q-33 -64 -119 -342 l-151 -485q-26 -85 -62 -206.5t-51 -166.5q-12 -9 -41.5 -14t-56.5 -2q-4 10 -22 57.5t-53 136t-77 186.5l-190 449q-19 44 -68.5 164.5t-65.5 154.5q-5 -7 -55 -169l-141 -465q-67 -224 -86 -326q-3 -17 -3 -31q0 -29 13 -45q19 -22 86 -33l51 -8q10 -12 8 -30.5t-16 -28.5 q-126 6 -246 6q-105 0 -225 -6q-11 10 -12 29.5z" />
<glyph unicode="O" horiz-adv-x="1531" d="M213 508q3 195 89 377.5t241 312.5q217 186 504 186q82 0 157.5 -19t145 -62.5t120.5 -107.5t80 -161q27 -91 27 -200v-15q-3 -173 -75 -340t-199 -291q-91 -91 -232 -156t-311 -65q-119 0 -215.5 33.5t-157.5 87t-102 125.5q-41 71 -57 145q-15 69 -15 141v9zM451 412 v-16q0 -64 14 -120q16 -64 50 -116t94 -82.5t139 -30.5q178 0 317 154q134 149 202.5 347.5t71.5 403.5v13q0 159 -73 247q-76 92 -207 93q-127 0 -262 -105q-131 -107 -235.5 -325.5t-110.5 -462.5z" />
<glyph unicode="P" horiz-adv-x="1196" d="M12 24q0 23 17 29l61 8q49 6 73.5 23.5t45.5 62t53 148.5l254 809q25 78 25 114q0 6 -1 12q-6 32 -59 40l-86 12q-12 9 -7 28t20 25q196 23 364 23q286 0 420 -92q141 -95 141 -277q0 -145 -100 -247t-246 -138q-130 -33 -254 -33q-12 9 -13 25.5t9 28.5 q71 10 135.5 41.5t117 83t83.5 128t31 166.5q0 114 -63 174t-175 60q-39 0 -51.5 -12t-26.5 -58l-288 -913q-18 -59 -26.5 -92t-11.5 -63t6 -43.5t27 -22.5t50 -13l69 -8q7 -12 3 -31.5t-15 -27.5q-163 6 -301 6q-122 0 -266 -6q-15 7 -15 30z" />
<glyph unicode="Q" horiz-adv-x="1531" d="M213 508q3 195 89 377.5t241 312.5q217 186 504 186q82 0 157.5 -19t145 -62.5t120.5 -107.5t80 -161q27 -91 27 -200v-15q-3 -173 -75 -340t-199 -291q-136 -136 -336 -192q4 -18 16 -33q251 -242 442 -303q68 -20 160 -20q53 0 103 16q11 -3 15 -15t1 -22 q-46 -34 -118 -52t-140 -18q-206 0 -389.5 103t-323.5 270q-25 29 -44.5 40.5t-45.5 14.5q-197 20 -315 172q-115 148 -115 349v10zM451 412v-16q0 -63 14 -120q16 -63 50 -115.5t94 -83t139 -30.5q178 0 317 154q134 149 202.5 347.5t71.5 403.5v13q0 159 -73 247 q-76 93 -207 93q-127 0 -262 -105q-131 -107 -235.5 -325.5t-110.5 -462.5z" />
<glyph unicode="R" horiz-adv-x="1232" d="M17.5 24q0.5 23 15.5 29l53 8q50 8 74.5 24.5t47.5 62t54 147.5l242 770q21 68 30 104t7 61t-15 33.5t-41 12.5l-69 10q-12 12 -7.5 29.5t19.5 25.5q149 17 377 17q530 0 530 -342q0 -60 -22 -113.5t-56.5 -92t-80 -69t-91 -49t-90.5 -28.5q-23 -6 -27 -19.5t3 -42.5 q72 -338 104 -418q24 -63 64 -92.5t110 -38.5q9 -9 7 -26.5t-11 -26.5q-62 -8 -149 -8q-110 0 -158 26q-55 28 -90 134q-10 28 -23.5 83t-23.5 101.5t-21.5 102.5t-13.5 65q-13 66 -32.5 85t-69.5 19q-57 0 -73 -9.5t-28 -49.5l-80 -254q-15 -50 -23 -78.5t-12.5 -57 t-2 -42.5t12.5 -27t26.5 -19t43.5 -10l54 -8q9 -12 4 -31.5t-17 -27.5q-147 6 -272 6q-142 0 -268 -6q-12 7 -11.5 30zM616.5 704.5q2.5 -10.5 5.5 -13.5t19 -6t29.5 -3h46.5q97 0 184 48t140.5 132t54.5 182v7q0 97 -56 161q-58 66 -176 66q-39 0 -57 -6t-25 -17t-16 -41 l-139 -456q-7 -22 -10 -32.5t-0.5 -21z" />
<glyph unicode="S" horiz-adv-x="1019" d="M115 125q-9 49 -9 105q0 78 17 171q9 9 31 8.5t32 -12.5q21 -127 74 -213q39 -64 104 -100.5t148 -36.5q68 0 127.5 28t101 89.5t41.5 146.5q0 161 -215 318q-81 59 -141.5 147.5t-60.5 196.5q-1 184 133 299q130 112 326 112h10q101 -1 197 -30t147 -70 q-46 -104 -78 -254q-12 -12 -34.5 -9.5t-31.5 17.5q3 24 3 46q-1 28 -5 52q-8 46 -31.5 85t-73 61.5t-120.5 22.5q-115 0 -182.5 -70t-67.5 -166q0 -38 15 -76.5t34.5 -66t51 -57.5t51 -45.5t47.5 -35.5q111 -78 172 -172t61 -221q0 -188 -137.5 -308t-370.5 -120 q-130 0 -233 45.5t-133 112.5z" />
<glyph unicode="T" horiz-adv-x="1310" d="M279.5 25q0.5 22 15.5 28l82 10q50 6 74.5 22.5t47.5 62t54 147.5l283 903q12 37 12 53q0 7 -2 10q-7 11 -60 11h-104q-115 0 -176 -35q-41 -22 -76 -59.5t-82 -104.5q-15 -9 -36.5 -1.5t-24.5 22.5q95 169 153 307q6 9 21.5 9.5t27.5 -5.5q-3 -31 26.5 -42t127.5 -11 h774q67 0 98 10t60 39q9 6 27 3.5t24 -11.5q-30 -57 -69.5 -161t-51.5 -159q-9 -15 -33.5 -15t-33.5 15q5 35 5 66q0 23 -3 43q-6 47 -33 63q-47 27 -147 27h-113q-45 0 -56.5 -10.5t-29.5 -63.5l-281 -903q-16 -50 -23.5 -79t-12.5 -58t-2 -43.5t12.5 -27.5t27 -18t45.5 -8 l86 -8q8 -12 4 -32t-16 -27q-199 6 -317 6q-124 0 -293 -6q-12 9 -11.5 31z" />
<glyph unicode="U" horiz-adv-x="1486" d="M276 328q3 99 41 217l160 512q18 59 26.5 92.5t11.5 63.5t-6.5 44.5t-28.5 23.5t-52 13l-51 6q-11 12 -7 31.5t19 26.5q150 -6 283 -6q135 0 270 6q11 -9 10 -30.5t-14 -27.5l-57 -8q-50 -6 -75.5 -23t-49 -63.5t-54.5 -148.5l-147 -471q-44 -138 -47 -240v-7 q0 -130 68 -204q70 -76 221 -76q76 0 141.5 28t113 72.5t89 111t69.5 131.5t54 147l98 307q59 189 84 328q3 17 3 31q0 29 -13 45q-19 22 -84 32l-54 8q-10 12 -7.5 30t16.5 28q126 -6 245 -6q105 0 228 6q11 -10 12 -29t-12 -29l-54 -10q-54 -11 -85.5 -29t-55.5 -63 q-31 -57 -119 -342l-100 -319q-45 -140 -98.5 -246.5t-137.5 -181.5q-75 -66 -183 -104t-216 -38q-217 0 -339 89q-116 85 -116 255v17z" />
<glyph unicode="V" horiz-adv-x="1302" d="M277.5 1331.5q3.5 19.5 21.5 26.5q102 -6 229 -6q116 0 254 6q14 -8 13.5 -30t-13.5 -28l-67 -14q-5 -1 -17 -3t-17.5 -3.5t-14 -4t-13 -6.5t-6.5 -9q-8 -16 -8 -63q0 -34 4 -85q26 -317 72 -805q427 602 583 867q35 56 35 81q0 12 -10 18.5t-39 12.5l-65 14 q-11 9 -8 30.5t16 27.5q159 -6 256 -6q111 0 188 6q12 -9 12 -29t-12 -29l-55 -12q-86 -19 -125 -63q-97 -114 -311 -414l-215 -303q-82 -116 -351 -528q-20 -13 -49 -13q-28 0 -41 13q-1 5 -20 278q-20 278 -74 823q-11 124 -27 163t-67 48l-49 8q-13 12 -9.5 31.5z" />
<glyph unicode="W" horiz-adv-x="1888" d="M268.5 1329.5q3.5 19.5 18.5 28.5q138 -6 229 -6q99 0 225 6q13 -9 12 -30t-18 -28l-39 -6l-30 -6q-26 -8 -37 -18.5t-11 -28.5q0 -29 15 -131q10 -70 42 -291.5t52 -354.5t31 -190q224 307 258 357q18 24 20.5 38.5t-4.5 53.5l-71 440q-10 65 -23.5 91t-50.5 34l-53 12 q-8 13 -3.5 32t17.5 26q132 -6 233 -6q115 0 195 6q14 -8 14 -31t-14 -27l-62 -14q-43 -10 -51.5 -28t0.5 -60q8 -56 25.5 -166t25.5 -166q133 179 254 369q11 17 6 32t-26 19l-59 14q-6 11 -3 29.5t15 28.5q120 -6 196 -6q106 0 177 6q13 -12 13 -30.5t-11 -27.5l-39 -8 q-60 -13 -104.5 -49.5t-119.5 -128.5q-35 -41 -81.5 -101.5t-101 -134.5t-64.5 -87q-29 -41 -30 -54q0 -9 5 -41q5 -39 32.5 -216.5t31.5 -205.5q146 191 534 795q115 170 115 191q0 15 -29 24l-63 16q-18 35 8 58q132 -6 205 -6q107 0 180 6q13 -7 14.5 -26.5t-8.5 -31.5 l-61 -16q-69 -19 -107 -58.5t-164 -213.5q-408 -573 -706 -1032q-13 -13 -49 -13q-24 0 -37 13q-22 209 -78 552q-61 -75 -198.5 -273t-186.5 -279q-20 -13 -49 -13q-17 0 -37 13q-4 35 -23.5 176t-27.5 202q-85 595 -115 777l-4 24q-5 32 -8 45.5t-8 32t-12 25.5t-17.5 14 t-26.5 10l-70 14q-11 10 -7.5 29.5z" />
<glyph unicode="X" horiz-adv-x="1259" d="M-101 26q0 21 15 27l51 8q58 9 117.5 43.5t93.5 65t90 86.5q138 141 367 391q14 15 15 28t-9 44q-18 49 -75 211t-83 231q-26 70 -48.5 94t-70.5 33l-51 10q-12 12 -8 33t19 27q94 -6 251 -6q177 0 250 6q15 -9 15 -30t-15 -30l-61 -12q-62 -11 -68 -22q-6 -8 -6 -23 q0 -21 12 -57q44 -145 123 -350q247 267 330 364q41 47 41 62q0 21 -53 30l-43 8q-12 12 -9.5 31.5t17.5 28.5q108 -6 229 -6q115 0 207 6q14 -6 14 -28.5t-14 -31.5l-37 -8q-60 -12 -98.5 -31t-87.5 -61q-174 -150 -434 -426q-20 -21 -22 -33.5t7 -42.5q55 -169 187 -514 q23 -62 49.5 -87t85.5 -34l55 -8q12 -9 10 -30t-14 -29q-132 6 -262 6q-154 0 -268 -6q-15 9 -16.5 30.5t12.5 28.5l55 8q61 10 70 25q5 10 5 25q0 28 -16 75q-101 299 -135 392q-189 -211 -369 -435q-26 -33 -26 -51q0 -23 43 -26l65 -13q10 -9 6 -31t-18 -28 q-126 6 -262 6q-130 0 -213 -6q-15 11 -15 32z" />
<glyph unicode="Y" horiz-adv-x="1204" d="M242.5 25q0.5 22 15.5 28l78 13q25 2 40.5 5t31 13t26 23.5t23 41t24 60.5t27.5 86l33 104q25 81 29 129v21q0 43 -11 108q-26 146 -96 486q-14 75 -35.5 105t-73.5 40l-53 10q-12 12 -9.5 32.5t19.5 27.5q102 -4 133 -4q41 -2 119 -2q143 0 250 8q15 -7 15 -30t-13 -32 l-67 -12q-56 -10 -70 -27q-9 -11 -9 -33q0 -13 3 -30q62 -330 106 -537l283 359q103 128 153 205q22 30 16.5 43t-46.5 22l-51 10q-15 9 -13 30.5t17 29.5q135 -6 227 -6q114 0 203 6q12 -7 11.5 -29t-15.5 -31l-52 -10q-64 -12 -108 -41t-115 -108q-100 -111 -368 -443 q-46 -57 -62 -80t-37 -67.5t-43 -116.5l-43 -137q-19 -61 -27.5 -94.5t-11.5 -61t7.5 -40t28 -20.5t50.5 -13l74 -13q9 -6 6.5 -29t-14.5 -30q-188 6 -303 6q-135 0 -291 -6q-12 9 -11.5 31z" />
<glyph unicode="Z" horiz-adv-x="1284" d="M-27 33q33 24 118 107.5t157 158.5l858 909q36 40 30.5 52t-53.5 12h-290q-76 0 -120.5 -6t-86.5 -27q-78 -38 -183 -186q-13 -10 -34.5 -2t-24.5 26q87 178 141 328q13 13 41 4q2 -26 14.5 -37t47 -15.5t114.5 -4.5h582q124 0 205 6q24 -6 14 -39q-37 -26 -167.5 -158 t-254.5 -266l-628 -668q-86 -89 -86 -118t131 -29h217q225 0 307 41q43 23 94.5 78t97.5 125q9 10 32 3.5t26 -20.5q-22 -74 -71.5 -174.5t-82.5 -138.5q-140 4 -209 4q-70 2 -211 2h-503q-152 0 -205 -6q-11 3 -15.5 14.5t-1.5 24.5z" />
<glyph unicode="[" horiz-adv-x="675" d="M72 -311l540 1720q74 2 166 2q155 0 213 -8q4 -9 1 -26t-11 -25l-180 -23q-51 -7 -64 -20q-37 -37 -123 -316l-278 -889q-86 -279 -76 -311q6 -17 51 -24l158 -23q5 -10 0.5 -27.5t-14.5 -23.5q-66 -8 -217 -8q-92 0 -166 2z" />
<glyph unicode="\" horiz-adv-x="696" d="M176 1384h160l391 -1417h-160z" />
<glyph unicode="]" horiz-adv-x="675" d="M-134 -279q3 17 11 25l180 23q51 7 64 20q37 37 123 315l278 889q86 279 76 312q-6 17 -51 24l-158 23q-5 10 -0.5 27.5t14.5 23.5q66 8 218 8q91 0 165 -2l-540 -1720q-74 -2 -166 -2q-155 0 -213 8q-4 9 -1 26z" />
<glyph unicode="^" d="M184 500l351 782h122l349 -782h-156l-254 592l-254 -592h-158z" />
<glyph unicode="_" horiz-adv-x="1024" d="M0 -154h1024v-102h-1024v102z" />
<glyph unicode="`" horiz-adv-x="778" d="M399 1309q0 18 11.5 31t38.5 32q52 27 75 27q38 0 64 -68l147 -379q-8 -32 -51 -26l-240 303q-17 21 -24.5 31t-14 23.5t-6.5 25.5z" />
<glyph unicode="a" horiz-adv-x="962" d="M39 94q0 69 65.5 205.5t174.5 259.5q117 129 256 203q83 45 159 45q14 0 47 -14q25 -15 43 -39l54 114q18 9 41 9q35 0 68.5 -12.5t45.5 -37.5q-119 -278 -264 -684q-14 -37 10 -37q25 0 83 36.5t122 97.5q13 0 23 -10t10 -29q-73 -93 -180.5 -161.5t-200.5 -68.5 q-33 0 -50.5 21.5t-17.5 44.5q0 30 21 84l74 194h-7q-107 -146 -241.5 -245t-224.5 -99q-48 0 -79.5 36t-31.5 87zM272 141q0 -41 25 -41q24 0 82.5 46.5t126.5 117.5q72 73 136 188.5t89 196.5q-24 72 -90 72q-34 0 -64 -18t-79 -70q-86 -94 -154.5 -242.5t-71.5 -249.5z " />
<glyph unicode="b" horiz-adv-x="997" d="M133 166q0 119 90 356l252 670q28 72 29.5 101t-23.5 44l-49 33q-9 26 8 37q43 16 144.5 35t171.5 22q14 -7 14 -20q-16 -39 -52 -129t-59 -148l-249 -649h4q222 318 407 318q53 0 92 -17.5t60 -47t31 -62.5t10 -68q0 -94 -53 -210t-160 -228q-110 -115 -232.5 -173.5 t-234.5 -58.5q-96 0 -148.5 52.5t-52.5 142.5zM322 141q0 -45 17 -70.5t40 -25.5q28 0 77.5 34.5t102.5 94.5q103 120 180.5 269t77.5 223q0 36 -17 53.5t-44 17.5q-43 0 -116.5 -57t-156.5 -164q-79 -99 -120 -201.5t-41 -173.5z" />
<glyph unicode="c" horiz-adv-x="737" d="M86 197q0 106 62.5 242t168.5 241q160 156 326 156q79 0 129 -39q48 -37 47.5 -96t-40.5 -88t-83 -29q-27 0 -43.5 15t-17.5 42q0 5 -1.5 28t-3 32.5t-6.5 24.5t-15 21.5t-25 6.5q-69 0 -152 -131q-54 -86 -91.5 -192t-37.5 -210q0 -123 84 -123q97 0 219 125 q19 0 29.5 -11.5t7.5 -29.5q-64 -84 -167.5 -147.5t-209.5 -63.5q-84 0 -132 58.5t-48 167.5z" />
<glyph unicode="d" horiz-adv-x="1021" d="M66 141q2 121 76 268t192 250q204 177 379 177q31 0 61 -16.5t45 -41.5l144 416q25 72 25.5 99.5t-23.5 43.5l-50 33q-6 9 -3 20t12 17q39 16 139 35t168 22q16 -8 16 -16q-10 -29 -45.5 -131.5t-66.5 -183.5q-54 -143 -166 -478t-133 -407q-5 -18 -12 -41.5t-11 -37 t-6 -22.5q-8 -34 16 -34q21 0 90 50t115 105q33 0 33 -37q-29 -50 -87.5 -108t-142 -105t-155.5 -47q-34 0 -54 21t-20 47q0 47 35 137l68 184h-5q-42 -62 -78 -109.5t-87.5 -103t-99.5 -91.5t-108 -60.5t-120 -24.5q-67 1 -105 47q-36 44 -36 115v8zM250 104q0 -36 29 -36 q33 0 118 59t162 143t129 175t76 171q10 37 10 67q0 20 -4 37q-12 42 -43 42q-45 0 -117 -66q-50 -45 -120.5 -131.5t-120.5 -171.5q-58 -96 -88.5 -174t-30.5 -115z" />
<glyph unicode="e" horiz-adv-x="757" d="M86 195q0 126 76.5 276t214.5 254q149 111 287 111q70 0 116.5 -44t46.5 -98q0 -44 -21 -84.5t-60 -73.5t-85.5 -61t-107.5 -51.5t-114.5 -41t-116.5 -34.5q-19 -55 -19 -133q0 -57 23.5 -87t66.5 -30q101 0 242 129q15 0 25.5 -13t7.5 -28q-79 -110 -180 -162.5 t-209 -52.5q-95 0 -144 65.5t-49 158.5zM338 418q81 29 133 59.5t100 79.5q35 35 55.5 80.5t20.5 73.5q0 22 -10 36.5t-29 14.5q-50 0 -123 -82q-97 -103 -147 -262z" />
<glyph unicode="f" horiz-adv-x="577" d="M-340 -414q0 40 33.5 73.5t68.5 33.5q41 0 62 -41q31 -54 63 -83.5t58 -29.5q25 0 48 37t52 137q32 111 123.5 461.5t146.5 542.5h-182q-15 22 -6 51.5t31 38.5h182q42 141 81 239t95 181q161 237 381 237q86 0 140.5 -46t54.5 -111q0 -47 -37 -83t-74 -36q-22 0 -32 9.5 t-13 31.5q-11 83 -42 122.5t-69 39.5q-56 0 -123 -134q-32 -63 -62.5 -146t-48 -141.5t-46.5 -162.5h243q13 -18 6.5 -48.5t-30.5 -41.5h-244q-39 -113 -118 -404t-105 -374q-42 -133 -80 -218t-82 -131q-141 -141 -287 -141q-84 0 -136 40.5t-52 96.5z" />
<glyph unicode="g" horiz-adv-x="827" d="M-104 -354q0 55 37 103t97.5 82t111 54.5t104.5 36.5q-40 26 -58 49t-18 54q0 46 113 159q-28 7 -54.5 20.5t-53 37.5t-42.5 63.5t-16 89.5q0 79 45 170.5t125 159.5q129 111 303 111q37 0 86 -19q9 -4 25 -11.5t25.5 -11t16.5 -3.5q41 0 91 12q83 20 94 20q57 0 57 -69 q0 -38 -18.5 -55t-38.5 -17q-29 0 -62 10q-43 13 -65 13q-6 0 -11.5 -5t-5.5 -10q13 -52 13 -67q0 -128 -78.5 -235.5t-204.5 -168.5q-56 -26 -149 -39q-37 -28 -37 -61q0 -18 28.5 -46t77.5 -55q150 -82 195 -110q139 -89 139 -205q0 -59 -45 -108t-118.5 -80t-164.5 -48.5 t-186 -17.5q-60 0 -119.5 10.5t-115 32.5t-89.5 62t-34 92zM96 -317q0 -69 77 -111.5t183 -42.5q56 0 109 13t91 41.5t38 66.5q0 68 -98 135q-136 90 -177 90q-19 0 -63 -18t-74 -41q-86 -67 -86 -133zM291 322q0 -30 17 -49t44 -19q57 0 142 117q55 75 96 173.5t41 145.5 q0 31 -17.5 51.5t-40.5 20.5q-53 0 -127 -88q-56 -67 -105.5 -175t-49.5 -177z" />
<glyph unicode="h" horiz-adv-x="1009" d="M63 41l394 1145q21 60 27 82.5t2.5 39.5t-23.5 29l-49 29q-9 26 8 37q39 16 143 37t168 24q2 -1 17 -16q-7 -19 -54.5 -147t-70.5 -195l-219 -619l4 -4q125 156 252 250q136 103 225 103q68 0 105.5 -44.5t37.5 -113.5q0 -109 -54.5 -249t-125.5 -247 q-52 -81 -136.5 -146t-162.5 -65q-47 0 -72.5 22t-25.5 52q0 29 21 53.5t44 24.5q16 0 37 -21q32 -32 51 -32q13 0 25 18.5t31 61.5q54 127 104.5 287t50.5 233q0 55 -37 55q-34 0 -92 -43q-90 -67 -211 -227q-46 -60 -99.5 -154t-100 -185.5t-58.5 -111.5q-18 -33 -69 -33 q-39 0 -69.5 16t-17.5 54z" />
<glyph unicode="i" horiz-adv-x="595" d="M115 35q0 35 18 80l227 538q13 33 -4 33q-19 0 -72.5 -34t-103.5 -77q-15 0 -24 14.5t-4 26.5q80 93 192 156.5t184 63.5q22 0 42.5 -18t25.5 -40q1 -3 1 -7q0 -24 -24 -81l-229 -536q-16 -39 6 -39q25 0 93 47t112 94q17 0 27.5 -13t7.5 -28q-51 -77 -177 -160.5 t-233 -83.5q-24 0 -44.5 24t-20.5 40zM442 1114q0 54 36 97.5t97 43.5q45 0 70 -24.5t25 -71.5q0 -57 -38 -99t-95 -42q-44 0 -69.5 28t-25.5 68z" />
<glyph unicode="j" horiz-adv-x="575" d="M-311 -418q0 42 27.5 68t56.5 26q34 0 47 -22q69 -117 125 -117q19 0 35 19t36 69q66 159 222 662q13 40 33 102.5t31 97t23 74.5t17.5 62.5t5.5 31.5q0 29 -18 29q-27 0 -90 -50.5t-107 -96.5q-15 3 -25 18.5t-6 30.5q22 32 63 72.5t94 81.5t116 68.5t117 27.5 q31 0 53 -26t22 -56q0 -66 -98 -369q-12 -38 -42.5 -131.5t-49 -150.5t-44.5 -132.5t-46 -126.5q-87 -230 -221 -327q-92 -68 -203 -68q-74 0 -124 39t-50 94zM416 1114q0 54 36 97.5t97 43.5q45 0 69.5 -24.5t24.5 -71.5q0 -57 -38 -99t-95 -42q-44 0 -69 28t-25 68z" />
<glyph unicode="k" horiz-adv-x="958" d="M68 41l385 1135q28 83 28 109.5t-28 39.5l-50 25q-14 22 5 41q46 20 142 41.5t173 31.5q15 -3 18 -16q-10 -29 -42 -116t-58 -165l-205 -596h4q105 108 144 142q142 123 278 123q82 0 123 -41t41 -93q0 -100 -125 -202q-48 -40 -121 -74t-147 -49q-16 -5 -8 -37 q25 -103 59 -172q14 -31 27.5 -45t31.5 -14q41 0 136 102q12 3 23.5 -5.5t12.5 -23.5q-45 -93 -122 -152t-148 -59t-119 95q-28 55 -73 213q-10 37 -41 37q-4 0 -9 -1q-31 -3 -44.5 -16.5t-32.5 -58.5l-95 -236q-13 -33 -69 -33q-23 0 -45.5 5t-39.5 22t-9 43zM391 410 q-5 -29 21 -29q39 0 107.5 26t150.5 80q63 42 101 89t38 86q0 25 -16.5 40t-44.5 15q-95 0 -250 -158q-37 -39 -69 -83t-38 -66z" />
<glyph unicode="l" horiz-adv-x="532" d="M84 45q0 47 37 152l338 989q24 73 24 101q0 29 -32 46l-48 25q-14 22 5 41q44 16 150 37.5t177 27.5q3 0 8 -6.5t5 -9.5q-91 -257 -109 -311l-332 -969q-7 -21 -10.5 -35.5t-3 -25.5t5.5 -16t16 -5q30 0 94 59.5t130 137.5q42 0 36 -37q-25 -48 -56.5 -91t-78.5 -87 t-112 -70.5t-138 -26.5q-56 0 -81 22t-25 52z" />
<glyph unicode="m" horiz-adv-x="1548" d="M111 625q47 92 138 151.5t218 59.5q35 0 54 -17.5t19 -41t-8 -48.5l-118 -303h4q52 80 106.5 149t116 130t125.5 96t121 35q44 0 70.5 -18.5t33.5 -48t6 -57t-8 -55.5q-18 -63 -92 -239h4q125 203 247 310.5t228 107.5q63 0 95 -34.5t32 -84.5q0 -56 -37 -158 q-19 -50 -170 -405q-16 -41 7 -41q27 0 85.5 44t102.5 95q18 3 27.5 -7t9.5 -30q-49 -93 -163.5 -168.5t-229.5 -75.5q-27 0 -50.5 22t-23.5 44q0 25 41 121q112 260 172 413q33 85 33 121q0 37 -31 37t-86.5 -47t-126.5 -137q-22 -28 -43.5 -59t-47 -73.5t-41 -69 t-45.5 -84t-40.5 -77.5t-46.5 -90t-43 -84q-10 -21 -24.5 -29t-39.5 -8q-51 0 -82 14.5t-20 47.5q2 7 44 116t93.5 241t71.5 181q37 89 37 117q0 41 -31 41q-36 0 -95 -47t-132 -141q-69 -88 -137 -215.5t-158 -317.5q-9 -21 -23 -29t-39 -8q-53 0 -82.5 14t-19.5 48 q2 7 103.5 287.5t111.5 312.5q13 40 10 54.5t-25 14.5q-77 0 -172 -114q-15 0 -25.5 11t-10.5 26z" />
<glyph unicode="n" horiz-adv-x="1073" d="M119 41q3 12 53 146.5t103 279t61 166.5q9 26 9 41q0 20 -17 20q-29 0 -79.5 -31.5t-96.5 -74.5q-14 0 -23.5 10t-9.5 23q54 84 153.5 149.5t198.5 65.5q35 0 53 -17.5t17 -41.5t-9 -48l-124 -317h8q46 65 84.5 115t93.5 111.5t103 101.5t104.5 68t107.5 28 q63 0 93 -33.5t30 -81.5q0 -64 -37 -162q-22 -58 -91 -221.5t-77 -183.5q-16 -41 4 -41q25 0 85.5 44.5t103.5 94.5q18 3 27.5 -7t9.5 -30q-58 -95 -169 -169.5t-224 -74.5q-27 0 -48.5 21.5t-21.5 44.5q0 34 37 121q79 183 172 413q33 85 33 123q0 35 -29 35t-90 -49 t-127 -133q-138 -177 -311 -543q-16 -33 -70 -33q-23 0 -44.5 5t-37.5 22t-8 43z" />
<glyph unicode="o" horiz-adv-x="892" d="M100 240q3 114 62.5 242.5t152.5 215.5q151 138 312 138q129 0 191 -78q61 -75 61 -193v-8q-2 -105 -53.5 -228.5t-147.5 -215.5q-144 -142 -324 -142q-124 -1 -190 75q-64 72 -64 184v10zM289 152q0 -47 19.5 -77t53.5 -30q37 0 74 28t82 93q59 85 115.5 237.5 t56.5 247.5q0 32 -4 54t-19 39.5t-42 17.5q-63 0 -133 -90q-76 -99 -139.5 -255t-63.5 -265z" />
<glyph unicode="p" horiz-adv-x="974" d="M-224.5 -519.5q-2.5 20.5 9.5 30.5l57 8q36 5 59 15t40 34.5t26 46t27 72.5l354 999q-76 -14 -205 -82q-18 3 -26 20t2 29q52 38 124.5 74.5t137.5 54.5l61 154q15 20 78 20q35 0 66 -11.5t37 -24.5l-45 -121q20 4 65 4q141 0 228 -67.5t87 -196.5q0 -108 -58 -218 t-155 -200q-80 -75 -179.5 -112.5t-180.5 -37.5q-17 0 -70 17q-23 -6 -32 -37l-88 -260q-16 -46 -22 -72t-4 -45.5t16 -28t42 -10.5l86 -8q13 -9 9.5 -29t-21.5 -26q-256 0 -508 -21q-15 9 -17.5 29.5zM356 158q-5 -17 -5 -32q0 -22 11 -40q26 -41 62 -41q32 0 85.5 32.5 t100.5 100.5q62 92 96.5 195.5t34.5 189.5q0 78 -40.5 118t-98.5 40q-21 0 -45 -4z" />
<glyph unicode="q" horiz-adv-x="987" d="M68 141q9 187 139 373q63 90 143 160t160 108q114 54 217 54q45 0 77 -32t46 -75q63 97 111 156q24 7 48.5 -0.5t32.5 -28.5q-61 -187 -127 -397l-243 -781q-17 -58 -17 -89q0 -13 3 -21q11 -27 59 -33l61 -8q9 -9 7 -27t-11 -24q-90 -3 -241.5 -21.5t-274.5 -40.5 q-14 9 -16 29t8 29l82 24q67 21 91.5 50t51.5 112l225 698h-4q-257 -385 -493 -385q-68 0 -103 54q-32 50 -32 106v10zM268 125q0 -47 37 -47q27 0 85 40t126 111q137 137 197 263q41 84 41 165q0 39 -17.5 72t-42.5 33q-76 0 -196 -156q-94 -122 -162 -264.5t-68 -216.5z " />
<glyph unicode="r" horiz-adv-x="761" d="M127 41q13 39 57 163.5t83.5 241t64.5 199.5q6 19 6 31q0 22 -19 22q-61 0 -159 -114q-16 0 -26 11.5t-7 29.5q49 84 123 147.5t160 63.5q40 0 61 -19.5t23 -52.5q0 -8 1 -16q1 -25 -5 -51q-6 -34 -21 -74l-72 -211h13q110 205 182 293q53 66 96 98.5t86 32.5 q46 0 70 -34t24 -81q0 -53 -33 -108.5t-77 -55.5q-17 0 -25.5 14t-15.5 45q-12 62 -41 62q-44 0 -139 -158q-78 -127 -246 -516q-13 -33 -70 -33q-25 0 -47.5 5t-38.5 22t-8 43z" />
<glyph unicode="s" horiz-adv-x="593" d="M12 104q0 36 23 67.5t55 31.5q20 0 45 -29q43 -46 79.5 -69t76.5 -23q33 0 57.5 21t24.5 53q0 14 -3 28.5t-11 30.5t-14 27.5t-19 29t-18 25t-20.5 26t-17.5 21.5q-86 112 -86 195q0 118 119 219q42 36 92.5 57t91.5 21q69 0 116.5 -43t47.5 -99q0 -37 -23 -61.5 t-42 -24.5q-26 0 -45 25q-43 50 -74 69t-70 19q-32 0 -50.5 -20t-18.5 -44t12 -50.5t25 -43.5t36 -44t31 -38q48 -65 68 -113q20 -45 20 -99v-5q-3 -122 -114 -211q-98 -82 -230 -82q-65 0 -114.5 39.5t-49.5 93.5z" />
<glyph unicode="t" horiz-adv-x="622" d="M117 41q0 40 24 113l189 551h-156q-9 14 -1.5 35t22.5 30l172 33l131 198q16 11 49 11q51 0 65 -27l-57 -190h205q18 -19 11 -49.5t-28 -40.5h-217l-184 -531q-18 -49 12 -49q25 0 98 55.5t128 116.5q37 -6 32 -45q-70 -105 -198.5 -193t-223.5 -88q-30 0 -51.5 22 t-21.5 48z" />
<glyph unicode="u" horiz-adv-x="1064" d="M119 592q59 85 173 164.5t216 79.5q30 0 54 -23t24 -51q0 -18 -13 -55l-211 -527q-10 -28 -5.5 -42.5t20.5 -14.5q33 0 149 110q185 178 385 594q24 9 62 9q33 0 63.5 -13t38.5 -28q-16 -42 -63 -161.5t-94.5 -242t-83.5 -221.5q-8 -22 -8 -35q0 -20 18 -20q26 0 89 49.5 t107 99.5q37 0 37 -37q-47 -83 -172 -169.5t-225 -86.5q-35 0 -55 27q-12 16 -12 36q0 13 5 27l127 330h-4q-71 -95 -157.5 -186t-184.5 -162.5t-161 -71.5q-41 0 -70 30.5t-29 68.5q0 34 25 100l182 465q19 53 -6 53q-28 0 -83 -43t-105 -94q-38 8 -33 41z" />
<glyph unicode="v" horiz-adv-x="905" d="M113 596q51 85 157 162.5t207 77.5q44 0 69 -37q19 -28 19 -61q0 -10 -2 -21q-9 -42 -37 -113l-127 -328q-29 -75 -32 -118q0 -25 14 -42.5t43 -17.5q34 0 91.5 40t113.5 110q60 75 96.5 172t38.5 155q0 92 -23 154q4 49 34.5 78t72.5 29q41 -4 65.5 -29t31.5 -53t5 -60 q-2 -116 -106 -290t-242 -285q-185 -148 -330 -148q-48 0 -79 43.5t-31 85.5q0 76 41 181l137 348q11 26 9 45.5t-17 19.5q-27 0 -82.5 -42.5t-99.5 -92.5q-14 0 -25.5 12t-11.5 25z" />
<glyph unicode="w" horiz-adv-x="1376" d="M111 596q54 87 157 163.5t207 76.5q34 0 60 -27.5t26 -54.5q0 -48 -20 -101l-135 -360q-46 -121 -46 -156q0 -15 9 -26t24 -11q69 0 213 179q133 166 193 411q34 141 135 141q40 0 65 -21t25 -52q0 -22 -9 -49t-20.5 -50t-40.5 -79q-48 -92 -79 -199.5t-31 -185.5 q0 -91 61 -91q45 0 109 49.5t114 131.5q45 74 71 161.5t26 149.5q0 74 -17 141q6 43 35.5 71t71.5 28q31 -3 53 -16.5t33 -34t16 -42t4 -45.5q-3 -102 -61.5 -227.5t-175.5 -255.5q-107 -118 -220 -181t-186 -63q-42 0 -80.5 36.5t-38.5 86.5q0 17 4 41t7.5 38.5t13.5 51 t12 43.5l-4 4q-35 -47 -123 -135q-71 -69 -153 -117.5t-150 -48.5q-50 0 -82 39t-32 76q0 56 41 166l139 369q10 27 13 42.5t-1 23t-16 7.5q-28 0 -81.5 -41t-99.5 -90q-15 0 -25.5 10.5t-10.5 22.5z" />
<glyph unicode="x" horiz-adv-x="890" d="M-18 61q0 33 21.5 77.5t51.5 68.5q26 20 41 20q19 0 33 -45q18 -49 41 -49q30 0 117 94q24 27 114 140l-75 208q-32 87 -50 87q-21 0 -43 -25.5t-55 -81.5q-19 -6 -32.5 2t-16.5 27q29 86 97.5 169t135.5 83q62 0 107 -123l70 -191q5 3 19.5 21t39.5 49.5t47 56.5 q83 99 139 143t111 44q43 0 66.5 -32t23.5 -75q0 -59 -30 -102t-60 -43q-25 0 -35 41q-18 53 -47 53q-47 0 -174 -150q-40 -48 -72 -88l74 -204q22 -62 34 -82.5t27 -20.5q28 0 103 123q9 13 28 9.5t25 -21.5q-31 -111 -92.5 -192t-136.5 -81q-51 0 -82 38.5t-58 111.5 l-61 164q-8 -9 -63.5 -75.5t-69.5 -82.5q-131 -156 -232 -156q-37 0 -59 25t-22 65z" />
<glyph unicode="y" horiz-adv-x="815" d="M-193 -439q0 49 29 79q31 32 74 32q23 0 38 -10.5t32 -32.5t25 -31t20 -16.5t26 -7.5q64 0 115 51q38 38 71.5 103t53.5 143q37 131 37 355q0 46 -2 96q-9 352 -76 352q-50 0 -125 -158q-15 -9 -32.5 -1.5t-20.5 22.5q16 52 40 100.5t57.5 95t79 75t95.5 28.5 q79 0 119 -97.5t43 -263.5v-43q0 -213 -27 -383h8q102 171 181 459q16 57 29.5 136t15.5 114q3 42 18.5 57.5t40.5 15.5q43 0 76 -20q26 -17 26 -53q0 -29 -20.5 -106.5t-79.5 -220.5t-141 -284q-91 -155 -171.5 -275t-176.5 -226q-179 -197 -344 -197q-55 0 -94.5 32 t-39.5 80z" />
<glyph unicode="z" horiz-adv-x="866" d="M0 43q0 24 25.5 55t89.5 86q72 61 234.5 197t254.5 217q20 17 19.5 24.5t-25.5 16.5q-69 25 -140 37t-114 12q-34 0 -52 -17t-18 -36q0 -20 20.5 -48t20.5 -40q0 -20 -19.5 -38.5t-53.5 -19.5h-3q-39 0 -65 24q-27 25 -27 60q0 71 103 162q54 47 115.5 66.5t111.5 19.5 q64 0 148 -30q81 -31 133 -31q39 0 63 17t51 52q29 3 50.5 -18t15.5 -51q-355 -285 -635 -547v-8h17q44 1 86 -13q50 -16 118 -53q102 -55 152 -55q32 0 57 19t25 49q0 16 -17.5 59t-17.5 59q0 30 15.5 47t35.5 17q49 0 80 -39.5t31 -81.5q0 -90 -107 -182q-86 -74 -196 -74 q-81 0 -193 57q-122 62 -172 62q-42 0 -69 -25t-46 -78q-10 -1 -19 -1q-41 0 -59 19q-24 23 -24 52z" />
<glyph unicode="{" horiz-adv-x="675" d="M194.5 -167q-8.5 48 10.5 116q20 79 79.5 224.5t65.5 160.5q12 33 17.5 55t5.5 49t-12 43.5t-40.5 30t-74.5 16.5q-7 11 -4 23t14 18q50 3 89 16t60.5 28.5t37.5 39t22 39.5t12 39q16 59 48 208.5t57 227.5q21 68 54.5 117t69.5 76t85 41.5t91 17.5t99 2q5 -7 3.5 -25 t-11.5 -26q-53 -4 -93 -17.5t-64 -30t-42.5 -42.5t-27 -46t-17.5 -50q-21 -67 -44 -213.5t-44 -206.5q-32 -94 -83.5 -147t-141.5 -72l-2 -8q173 -44 78 -261q-13 -30 -49.5 -107.5t-64 -140.5t-38.5 -98q-8 -23 -11.5 -46.5t0 -50.5t15.5 -49t39.5 -39t67.5 -24 q11 -34 -11 -45q-44 -1 -82.5 5t-76 24t-58 49t-29 79z" />
<glyph unicode="|" horiz-adv-x="647" d="M322 -512v2048h153v-2048h-153z" />
<glyph unicode="}" horiz-adv-x="675" d="M-126.5 -298.5q1.5 18.5 11.5 26.5q53 4 93 17.5t64 30t42.5 42.5t27 46t17.5 50q21 67 44 213.5t44 206.5q32 94 83.5 147t141.5 72l2 8q-171 44 -77 260q13 29 49 107.5t63.5 140.5t38.5 98q10 30 12 59.5t-5.5 62t-37 56t-79.5 31.5q-11 34 10 45q37 1 69 -3 t65.5 -15.5t56 -31t39.5 -50t17 -73t-12 -99.5q-20 -79 -79.5 -224.5t-65.5 -160.5q-12 -33 -17.5 -55t-5.5 -49t12 -44t40.5 -30.5t74.5 -16.5q7 -11 4 -23t-14 -18q-62 -4 -105.5 -20.5t-66 -43.5t-32 -47t-17.5 -50q-16 -59 -48 -209t-57 -228q-21 -68 -54.5 -117 t-69.5 -76t-85 -41.5t-91 -17.5t-99 -2q-5 7 -3.5 25.5z" />
<glyph unicode="~" d="M109 229q16 47 46.5 109.5t63.5 91.5q31 34 68 44.5t100 10.5h287q121 0 164 43q46 43 69 99q49 7 74 -27q-19 -47 -55.5 -108.5t-65.5 -88.5q-28 -28 -59 -37.5t-90 -9.5h-275q-68 0 -107 -11t-71 -40q-52 -45 -82 -104q-50 -10 -67 28z" />
<glyph unicode="&#xa1;" horiz-adv-x="512" d="M-94 -467q4 15 13.5 39t32 74.5t38.5 87.5l264 622q12 12 35 12t35 -12l-125 -618q-38 -182 -47 -209q-16 -43 -48.5 -58.5t-91.5 -15.5q-63 0 -89 21t-17 57zM252 651q0 67 42 111.5t101 44.5q53 0 84 -32t31 -87q0 -66 -42.5 -113t-105.5 -47q-52 0 -81 33.5t-29 89.5z " />
<glyph unicode="&#xa2;" d="M238 569q0 112 46.5 207t124.5 158.5t178 100.5t208 42q12 0 16 4l53 168q15 9 45 9t45 -9l-53 -172q96 -9 189 -49q21 -27 12 -74q-3 -33 -25 -67.5t-45 -34.5q-12 0 -16 8q-91 113 -144 127l-204 -655q12 -4 41 -4q64 0 133.5 27.5t115.5 70.5q15 0 25.5 -12.5 t7.5 -24.5q-48 -69 -142.5 -119t-217.5 -53l-62 -201q-16 -18 -46.5 -17t-43.5 17l66 209q-80 10 -141 43.5t-96 81.5t-52.5 103t-17.5 116zM451 606q0 -192 135 -250l200 643q-147 -9 -241 -128t-94 -265z" />
<glyph unicode="&#xa3;" d="M-57 8q10 52 125 133q182 131 233 439q1 9 1 12.5v6.5t-2.5 3.5t-5 1.5t-9.5 1.5t-13 2.5h-168q-10 9 -4.5 38t19.5 44h168q21 0 25.5 3t6.5 16q2 16 8 46t7 36q47 233 194 376.5t334 143.5q109 0 160 -51q17 -20 8 -68q-7 -35 -40.5 -65.5t-53.5 -30.5q-18 0 -41 20 q-59 50 -98.5 65t-77.5 15q-40 0 -81.5 -62.5t-64.5 -195.5q-17 -104 -30 -217q-3 -20 3 -25.5t32 -5.5h282q10 -15 4.5 -41.5t-20.5 -40.5h-281q-25 0 -33 -4.5t-12 -23.5q-47 -249 -254 -355l2 -4q80 10 146 -2q67 -9 180 -78q98 -59 184 -59q35 0 45 28t4 113 q-3 37 17 57.5t47 20.5q39 0 62 -27.5t12 -85.5q-12 -53 -61 -115.5t-121.5 -108.5t-139.5 -46q-110 0 -248 92q-53 35 -74 48t-60.5 29.5t-68.5 16.5q-32 0 -55.5 -25t-30.5 -52q-8 -19 -59 -37.5t-74 -18.5q-19 0 -25 8.5t-3 28.5z" />
<glyph unicode="&#xa4;" d="M172 643q0 155 94 270l-92 93q4 31 33.5 59t66.5 39l84 -105q114 82 256 82t256 -82l84 105q37 -11 67 -39t34 -59l-92 -93q94 -115 94 -270t-94 -270l92 -92q-4 -31 -34 -59.5t-67 -39.5l-84 105q-114 -82 -256 -82t-256 82l-84 -105q-36 11 -66 39.5t-34 59.5l92 92 q-94 115 -94 270zM317 645q0 -133 89 -226t208 -93t208 93.5t89 225.5q0 129 -89.5 222.5t-207.5 93.5q-121 0 -209 -93t-88 -223z" />
<glyph unicode="&#xa5;" d="M139 422q-5 15 2.5 39t22.5 39h291l47 153h-289q-6 15 1.5 39.5t21.5 38.5h276l-94 373q-19 73 -37 94.5t-68 30.5l-37 6q-6 9 2.5 31t20.5 26q117 -6 221 -6q134 0 223 6q10 -5 5 -25.5t-19 -31.5l-78 -18q-34 -7 -41 -27q-6 -25 4 -68l45 -174q28 -113 46 -168 q13 14 126 154l158 190q33 40 45 76q3 8 -6 13t-31 10l-55 12q-6 9 1.5 29.5t21.5 27.5q91 -6 180 -6q77 0 153 6q11 -5 5 -25.5t-19 -31.5l-51 -8q-38 -6 -70.5 -33.5t-97.5 -101.5l-311 -361h262q7 -17 -0.5 -40t-24.5 -38h-284l-50 -153h287q7 -13 -1 -38.5t-23 -39.5 h-287l-45 -148q-20 -68 -28.5 -104.5t-7.5 -61.5t12 -34t36 -11l92 -10q14 -8 8 -30.5t-20 -28.5q-237 6 -295 6q-55 0 -231 -6q-10 6 -4 28.5t18 30.5l76 10q52 7 76.5 44.5t64.5 166.5l47 148h-293z" />
<glyph unicode="&#xa6;" horiz-adv-x="647" d="M322 -358v716h153v-716h-153zM322 666v716h153v-716h-153z" />
<glyph unicode="&#xa7;" horiz-adv-x="1024" d="M63 -86q0 34 22.5 50t47.5 11q22 -5 67 -44t68 -50q58 -28 99 -28q62 0 108.5 35.5t46.5 103.5q0 70 -33.5 148t-113.5 220q-123 220 -123 377q0 149 109.5 300.5t271.5 256.5q169 111 295 111q80 0 124 -51t44 -101q0 -45 -24 -69.5t-50 -24.5q-25 0 -45 41 q-58 107 -148 107q-62 0 -103 -40.5t-44 -107.5q-6 -113 123 -328q86 -145 119.5 -242t31.5 -188q-1 -109 -66 -214.5t-183 -219.5q-241 -229 -431 -229q-98 0 -155.5 51t-57.5 125zM408 856q-3 -88 23 -167t95 -214q103 -200 115 -282q17 -98 -8 -181l4 -4q66 54 113 137 t47 183q0 140 -109 338q-125 229 -133 313q-10 114 12 164v4q-56 -36 -106 -122.5t-53 -168.5z" />
<glyph unicode="&#xa8;" horiz-adv-x="778" d="M393 1124q7 47 40.5 78t76.5 31q46 0 73 -31t21 -80q-6 -47 -39 -77.5t-82 -30.5q-46 0 -71.5 31.5t-18.5 78.5zM731 1124q7 47 40.5 78t76.5 31q47 0 73.5 -31t20.5 -80q-6 -46 -40 -77t-79 -31q-46 0 -72.5 31.5t-19.5 78.5z" />
<glyph unicode="&#xa9;" horiz-adv-x="1716" d="M272 676q0 145 54.5 275.5t149 225.5t228.5 151t285 56t285 -56t228.5 -151t149 -225.5t54.5 -275.5q0 -194 -92.5 -356t-257.5 -257.5t-367 -95.5t-367 95.5t-257.5 257.5t-92.5 356zM399 678q0 -171 78 -314.5t214 -226t298 -82.5t298 82.5t214 226t78 314.5 q0 127 -46 241.5t-125 197t-188 131t-231 48.5t-231 -48.5t-188 -131t-125 -197t-46 -241.5zM600 664q0 97 38.5 175.5t103.5 128t146.5 75.5t170.5 26q83 0 241 -33q0 -36 15 -190q-8 -8 -22 -8.5t-25 6.5q-37 166 -209 166q-117 0 -202 -86.5t-85 -241.5q0 -156 87.5 -247 t205.5 -91q49 0 87 14t65 41t42 50t33 57q10 8 25.5 6.5t21.5 -12.5q-5 -51 -22.5 -102t-30.5 -70q-17 -3 -41 -13q-94 -30 -184 -30q-187 0 -297 75q-74 51 -119 128.5t-45 175.5z" />
<glyph unicode="&#xaa;" horiz-adv-x="786" d="M160 578q0 50 49.5 147t134.5 184q102 108 193 148q69 28 131 28q44 0 73 -36l41 81q18 9 29 9q13 0 49 -9q35 -14 49 -28q-149 -341 -196 -475q-11 -33 8 -33q17 0 59 25.5t88 68.5q12 0 20.5 -10.5t8.5 -22.5q-53 -66 -136.5 -114.5t-162.5 -48.5q-27 0 -42 16.5 t-15 32.5q0 15 55 161l-2 3q-75 -85 -174.5 -149t-169.5 -64q-39 0 -64.5 25.5t-25.5 60.5zM352 618q0 -12 3 -17.5t5.5 -6t8.5 -0.5q16 0 59.5 31.5t91.5 79.5q55 55 108 135.5t68 130.5q-13 26 -27.5 37.5t-41.5 11.5q-46 0 -103 -57q-66 -66 -119 -172t-53 -173z" />
<glyph unicode="&#xab;" horiz-adv-x="903" d="M143 422.5q3 14.5 25 36.5q69 64 187.5 179t152.5 148q15 3 26.5 -5t14.5 -23l-217 -307q-16 -23 -8 -54l86 -315q-3 -12 -16.5 -20t-28.5 -5q-158 254 -213 332q-12 19 -9 33.5zM480.5 422.5q3.5 14.5 25.5 36.5q69 64 187.5 179t152.5 148q15 3 26.5 -5t14.5 -23 l-217 -307q-16 -23 -8 -54l86 -315q-3 -12 -17 -20t-29 -5q-158 254 -213 332q-12 19 -8.5 33.5z" />
<glyph unicode="&#xac;" d="M141 510v129h797v-471h-154v342h-643z" />
<glyph unicode="&#xad;" horiz-adv-x="655" d="M117 399q0 38 18 68l488 45q18 -18 18 -68q0 -41 -18 -65l-488 -45q-18 18 -18 65z" />
<glyph unicode="&#xae;" horiz-adv-x="716" d="M338 1114q0 113 81.5 192.5t196.5 79.5t197 -79.5t82 -192.5t-82 -192.5t-197 -79.5t-196.5 79.5t-81.5 192.5zM403 1114q0 -93 63 -158t150 -65q88 0 150.5 65t62.5 158q0 95 -62.5 160t-150.5 65q-87 0 -150 -65.5t-63 -159.5zM482 996.5q-1 10.5 1 11.5l11 2 q11 2 15.5 4t7.5 8.5t3 11v21.5v121q0 22 -5.5 32t-20.5 11h-11q-5 21 4 24q98 4 129 4q117 0 117 -73q0 -21 -13 -37t-30 -23q-5 -3 0 -16q42 -73 60 -84q16 -12 20 -13q3 0 3 -7.5t-3 -8.5q-12 -2 -33 -2q-53 0 -86 45q-5 8 -10.5 17t-12 20t-10.5 18q-6 13 -20 13 q-8 0 -8 -11v-30q0 -20 1 -26.5t6.5 -11.5t18.5 -7l9 -2q3 -2 3 -12t-3 -11q-12 0 -34 1t-36 1t-36.5 -1t-31.5 -1q-4 1 -5 11.5zM590 1135q0 -10 3.5 -12.5t18.5 -2.5q21 0 30 13.5t9 29.5q0 54 -37 54q-16 0 -20 -3.5t-4 -13.5v-65z" />
<glyph unicode="&#xaf;" horiz-adv-x="778" d="M395 1119.5q7 42.5 25 66.5h465q12 -25 4.5 -67t-27.5 -62h-465q-9 20 -2 62.5z" />
<glyph unicode="&#xb0;" horiz-adv-x="819" d="M352 1032q0 123 84 201t205 78t205 -78t84 -201q0 -128 -83 -202t-206 -74t-206 74t-83 202zM483 1032q0 -85 44 -138.5t114 -53.5t114 53.5t44 138.5q0 86 -44 140.5t-114 54.5t-114 -54.5t-44 -140.5z" />
<glyph unicode="&#xb1;" d="M147 0v129h791v-129h-791zM147 520v129h320v305h154v-305h317v-129h-317v-319h-154v319h-320z" />
<glyph unicode="&#xb2;" horiz-adv-x="757" d="M193 674q132 85 258 184q59 47 86 69t74.5 66.5t70 75.5t41 74t18.5 84q0 54 -35 89.5t-92 35.5q-53 0 -101.5 -36.5t-82.5 -84.5q-14 -6 -28 3.5t-17 25.5q46 86 130 138t177 52q104 0 173 -57.5t69 -153.5q0 -39 -15 -76t-34.5 -63.5t-61 -61t-69 -54t-84.5 -58.5 l-119 -80q-87 -60 -68 -74q4 -4 25 -4h147q64 0 95.5 12.5t64.5 53.5q9 7 24 4.5t21 -13.5q-48 -120 -98 -184q-122 4 -197 4h-209q-41 0 -94.5 -2t-60.5 -2q-16 10 -8 33z" />
<glyph unicode="&#xb3;" horiz-adv-x="757" d="M180 664q0 30 20.5 50.5t53.5 20.5q19 0 36.5 -12.5t26 -24.5t21.5 -32q26 -37 68 -37q109 0 187.5 85t78.5 197q0 59 -36 97.5t-93 38.5q-36 0 -75.5 -17t-66.5 -41q-22 9 -29 30.5t5 43.5q162 43 258 106q82 55 82 115q0 36 -26.5 56t-67.5 20q-43 0 -94 -30.5 t-91 -74.5q-15 -3 -26 7.5t-11 25.5q124 162 291 162q83 0 140 -42t57 -114q0 -56 -54 -96.5t-139 -64.5q-17 -9 1 -16l12 -3q65 -10 114 -59t49 -127q0 -87 -57 -160t-147 -123q-69 -38 -161 -60t-167 -22q-69 0 -114.5 25.5t-45.5 75.5z" />
<glyph unicode="&#xb4;" horiz-adv-x="778" d="M555 958l213 353q40 62 74 59q11 -1 24 -7t20.5 -11.5t31.5 -22.5q24 -24 32.5 -38.5t5.5 -33.5q-1 -6 -3.5 -12t-10 -14t-11.5 -12t-16.5 -15t-15.5 -14l-295 -266q-42 0 -49 34z" />
<glyph unicode="&#xb5;" horiz-adv-x="1064" d="M-84 -487l430 1122q19 53 -6 53q-28 0 -83 -43t-105 -94q-38 8 -33 41q59 85 173 164.5t216 79.5q30 0 54 -23t24 -51q0 -18 -13 -55l-211 -527q-10 -28 -5.5 -42.5t20.5 -14.5q33 0 149 110q185 178 385 594q24 9 62 9q33 0 63.5 -13t38.5 -28q-16 -42 -63 -161.5 t-94.5 -242t-83.5 -221.5q-20 -55 10 -55q26 0 89 49.5t107 99.5q37 0 37 -37q-47 -83 -172 -169.5t-225 -86.5q-35 0 -55 27t-7 63l115 299h-4q-66 -81 -147.5 -164.5t-176 -154t-147.5 -70.5q-30 0 -37 13q-11 4 -18 -5t-15 -28l-30 -84q-22 -61 -29.5 -139.5t-4.5 -122 t-1 -72.5q-8 -30 -59.5 -57t-114.5 -27q-56 0 -33 64z" />
<glyph unicode="&#xb6;" horiz-adv-x="1036" d="M164 -270q0 47 26.5 82t59.5 45q36 0 65 -20.5t29 -45.5q-32 -32 -35 -78q-1 -29 17 -45t47 -16q46 0 95 53.5t89 188.5l94 319q8 28 6.5 44.5t-7.5 23t-15 6.5q-45 0 -95 12.5t-101 40.5t-92 67t-67 98t-26 128q0 123 61 224.5t162 162.5q174 106 494 106q203 0 246 -12 q12 -6 7.5 -26.5t-16.5 -26.5l-82 -12q-83 -12 -102.5 -29.5t-44.5 -101.5l-272 -924q-39 -130 -84 -221.5t-113 -143.5q-68 -51 -162 -51q-74 0 -129 40t-55 112z" />
<glyph unicode="&#xb7;" horiz-adv-x="522" d="M180 399q0 66 42.5 113t105.5 47q52 0 81 -33.5t29 -89.5q0 -67 -42 -111t-101 -44q-53 0 -84 31.5t-31 86.5z" />
<glyph unicode="&#xb8;" horiz-adv-x="778" d="M88 -365q0 25 15.5 41.5t41.5 16.5q23 0 60 -32t55 -32q16 0 31.5 15.5t15.5 42.5q0 18 -10.5 36.5t-31 36t-34.5 27.5t-36 25l-5 12l134 176h82l-68 -94q-12 -14 -10 -20.5t22 -20.5q26 -21 41.5 -37t30 -45t14.5 -62q0 -70 -64 -116.5t-151 -46.5q-61 0 -97 21t-36 56z " />
<glyph unicode="&#xb9;" horiz-adv-x="757" d="M299 662q0 18 12 24l45 6q52 7 70 30.5t45 106.5l117 365q18 62 18 78q0 22 -49 31l-57 10q-9 6 -6.5 22.5t14.5 22.5q190 26 311 86q20 0 23 -12q-43 -120 -56 -164l-139 -439q-12 -37 -16.5 -54.5t-6.5 -35.5t4 -24.5t16.5 -12t31.5 -8.5l53 -8q10 -6 6 -24t-18 -21 q-140 4 -213 4q-71 0 -193 -4q-12 3 -12 21z" />
<glyph unicode="&#xba;" horiz-adv-x="729" d="M203 696q3 76 46 162.5t113 149.5q109 98 244 98q109 0 161.5 -62.5t49.5 -150.5q-3 -70 -41.5 -151.5t-109.5 -147.5q-109 -102 -254 -102q-102 0 -157 56t-52 148zM358 623q0 -29 16.5 -49.5t45.5 -20.5q54 0 115 86q46 66 83.5 164.5t43.5 167.5q3 30 -12.5 51.5 t-39.5 21.5q-49 0 -100 -61q-56 -65 -104 -174.5t-48 -185.5z" />
<glyph unicode="&#xbb;" horiz-adv-x="903" d="M139 86l219 307q18 24 11 53l-93 316q6 12 20.5 19.5t29.5 4.5q152 -245 213 -331q12 -19 8.5 -33.5t-25.5 -36.5q-68 -63 -185 -177t-155 -151q-32 -6 -43 29zM477 86l219 307q18 24 11 53l-93 316q6 12 20.5 19.5t29.5 4.5q152 -245 213 -331q12 -19 8.5 -33.5 t-25.5 -36.5q-68 -63 -185 -177t-155 -151q-32 -6 -43 29z" />
<glyph unicode="&#xbc;" horiz-adv-x="1720" d="M228 523q0 18 12 24l45 6q52 7 69.5 30.5t44.5 106.5l117 365q19 65 19 78q0 21 -50 30l-57 11q-9 6 -6.5 22.5t14.5 22.5q191 26 312 86q19 0 22 -13q-36 -101 -55 -164l-140 -438q-12 -37 -16.5 -54.5t-6.5 -35.5t4 -24.5t16.5 -12t31.5 -8.5l53 -8q10 -6 6 -24 t-18 -21q-140 4 -213 4q-70 0 -192 -4q-12 3 -12 21zM397 -8q620 766 1090 1360q65 0 74 -54q-675 -832 -1100 -1368q-30 0 -47.5 16.5t-16.5 45.5zM944 246q0 16 21 37l610 569q25 25 57 25q27 0 49 -9q4 -2 5 -7t-3.5 -13.5t-13.5 -16.5l-569 -516q-17 -17 18 -20h15h159 q25 0 33.5 5.5t15.5 27.5l62 192q8 20 37 35q24 10 67 18.5t68 8.5q27 0 16 -29l-78 -225q-8 -22 -4.5 -27.5t25.5 -5.5h82q13 -6 7 -33.5t-24 -36.5h-81q-27 0 -33 -4t-12 -24l-17 -54q-20 -55 -15 -73.5t52 -24.5l37 -4q6 -9 3.5 -25.5t-11.5 -19.5q-132 4 -209 4 q-65 0 -197 -4q-12 3 -10 19.5t14 25.5l45 4q54 5 75 21t38 67l18 57q8 25 4.5 30t-28.5 5h-311q-17 0 -17 21z" />
<glyph unicode="&#xbd;" horiz-adv-x="1720" d="M207 523q0 18 12 24l45 6q52 7 70 30.5t45 106.5l117 365q18 61 18 78q0 21 -49 30l-57 11q-9 6 -6.5 22.5t14.5 22.5q190 26 311 86q20 0 23 -13q-43 -120 -56 -164l-139 -438q-12 -37 -16.5 -54.5t-6.5 -35.5t4 -24.5t16.5 -12t31.5 -8.5l53 -8q10 -6 6 -24t-18 -21 q-140 4 -213 4q-71 0 -193 -4q-12 3 -12 21zM352 -8q620 766 1090 1360q65 0 74 -54q-675 -832 -1100 -1368q-30 0 -47.5 16.5t-16.5 45.5zM950 29q132 85 258 184q45 35 62 48.5t56.5 47t56.5 52t44.5 50t39.5 56t22 55t10 60.5q0 54 -35 89.5t-92 35.5q-53 0 -101.5 -36.5 t-82.5 -84.5q-15 -6 -28.5 3t-16.5 25q46 86 130.5 138.5t176.5 52.5q104 0 173 -57.5t69 -153.5q0 -33 -8.5 -62.5t-29.5 -58t-39 -49t-56 -49.5t-60.5 -45t-71.5 -49l-118 -80q-87 -60 -68 -74q4 -4 25 -4h147q64 0 96 12t64 53q9 7 24 5t21 -13q-48 -120 -98 -184 q-122 4 -197 4h-209q-41 0 -95 -2t-61 -2q-16 10 -8 33z" />
<glyph unicode="&#xbe;" horiz-adv-x="1720" d="M170 524q0 30 20.5 51t53.5 21q19 0 36.5 -13t26 -24.5t21.5 -32.5q26 -37 67 -37q109 0 188 85.5t79 197.5q0 59 -36.5 97t-93.5 38q-36 0 -75 -17t-66 -40q-22 9 -29 30.5t5 43.5q162 43 258 106q82 55 82 115q0 36 -27 56t-68 20q-43 0 -93.5 -30.5t-90.5 -74.5 q-15 -3 -26 7.5t-11 25.5q124 162 291 162q83 0 140 -42t57 -114q0 -56 -54 -97t-139 -65q-17 -8 0 -15l12 -3q65 -10 114.5 -59.5t49.5 -127.5q0 -87 -57 -159.5t-148 -122.5q-69 -38 -161 -60t-166 -22q-70 0 -115 25t-45 75zM453 -8q579 715 1089 1360q65 0 74 -54 q-675 -832 -1100 -1368q-30 0 -47 16.5t-16 45.5zM971 246q0 17 20 37l611 569q25 25 57 25q27 0 49 -9q4 -2 5 -7t-3.5 -13.5t-13.5 -16.5l-570 -516q-17 -17 18 -20h15h160q25 0 33.5 5.5t15.5 27.5l62 192q8 21 36 35q24 10 67 18.5t69 8.5q27 0 16 -29l-78 -225 q-8 -22 -4.5 -27.5t25.5 -5.5h81q13 -6 7.5 -33.5t-23.5 -36.5h-82q-27 0 -33 -4t-12 -24l-16 -54q-20 -55 -15 -73.5t52 -24.5l36 -4q6 -9 3.5 -25.5t-11.5 -19.5q-132 4 -209 4q-64 0 -196 -4q-12 3 -10 19.5t14 25.5l45 4q54 5 75 21t38 67l18 57q7 25 3.5 30t-28.5 5 h-311q-16 0 -16 21z" />
<glyph unicode="&#xbf;" horiz-adv-x="667" d="M-90 -225q0 91 55 162.5t158 119.5l147 70q62 29 88.5 58.5t26.5 68.5q0 42 -12 98q6 9 21 11.5t24 -3.5q32 -39 51.5 -97t13.5 -111q-9 -68 -56 -115.5t-136 -89.5l-139 -66q-76 -36 -114 -67.5t-38 -71.5q0 -48 40.5 -81.5t94.5 -33.5q45 0 98 17q58 16 62 16 q25 0 41 -19.5t16 -50.5q0 -53 -46.5 -94t-125.5 -41q-101 0 -185.5 97t-84.5 223zM315 651q0 67 42.5 111.5t101.5 44.5q53 0 83.5 -32t30.5 -87q0 -66 -42 -113t-105 -47q-52 0 -81.5 33.5t-29.5 89.5z" />
<glyph unicode="&#xc0;" horiz-adv-x="1245" d="M-128.5 23.5q-0.5 20.5 11.5 29.5l51 8q62 9 99 36.5t92 105.5q208 285 297 415l328 472q119 169 127 219q26 1 56 11.5t49.5 20.5t46 25t32.5 18q13 0 23 -6t10 -16q0 -14 -1.5 -47.5t-4.5 -104t-5 -143.5q-12 -391 -18 -788q-4 -55 -0.5 -93t6.5 -61t17.5 -37t32 -19.5 t50.5 -9.5l50 -6q9 -10 6 -31t-15 -28q-129 6 -266 6q-158 0 -252 -6q-18 7 -18.5 28.5t12.5 30.5l55 8q64 9 81 30.5t20 94.5l12 273q1 31 -9.5 39t-51.5 8h-269q-45 0 -57 -7.5t-39 -49.5l-141 -228q-66 -109 -66 -127q0 -20 51 -28l66 -13q12 -9 10 -29.5t-16 -29.5 q-129 6 -236 6q-111 0 -213 -6q-13 9 -13.5 29.5zM542.5 605q6.5 -7 45.5 -7h219q31 0 39.5 8t9.5 41l18 346q1 23 1.5 62t1.5 63h-5q-10 -18 -98 -149l-223 -334q-15 -23 -8.5 -30zM666 1628q-3 10 3.5 36t22.5 52q32 53 66 53q22 0 65 -30l324 -236q3 -14 -6 -34t-21 -23 l-387 135q-57 19 -67 47z" />
<glyph unicode="&#xc1;" horiz-adv-x="1245" d="M-128.5 23.5q-0.5 20.5 11.5 29.5l51 8q62 9 99 36.5t92 105.5q208 285 297 415l328 472q119 169 127 219q26 1 56 11.5t49.5 20.5t46 25t32.5 18q13 0 23 -6t10 -16q0 -14 -1.5 -47.5t-4.5 -104t-5 -143.5q-12 -391 -18 -788q-4 -55 -0.5 -93t6.5 -61t17.5 -37t32 -19.5 t50.5 -9.5l50 -6q9 -10 6 -31t-15 -28q-129 6 -266 6q-158 0 -252 -6q-18 7 -18.5 28.5t12.5 30.5l55 8q64 9 81 30.5t20 94.5l12 273q1 31 -9.5 39t-51.5 8h-269q-45 0 -57 -7.5t-39 -49.5l-141 -228q-66 -109 -66 -127q0 -20 51 -28l66 -13q12 -9 10 -29.5t-16 -29.5 q-129 6 -236 6q-111 0 -213 -6q-13 9 -13.5 29.5zM542.5 605q6.5 -7 45.5 -7h219q31 0 39.5 8t9.5 41l18 346q1 23 1.5 62t1.5 63h-5q-10 -18 -98 -149l-223 -334q-15 -23 -8.5 -30zM903 1503l324 236q43 30 65 30q34 0 66 -53q16 -26 22.5 -52t3.5 -36q-10 -28 -67 -47 l-387 -135q-12 3 -21 22.5t-6 34.5z" />
<glyph unicode="&#xc2;" horiz-adv-x="1245" d="M-128.5 23.5q-0.5 20.5 11.5 29.5l51 8q62 9 99 36.5t92 105.5q208 285 297 415l328 472q119 169 127 219q26 1 56 11.5t49.5 20.5t46 25t32.5 18q13 0 23 -6t10 -16q0 -14 -1.5 -47.5t-4.5 -104t-5 -143.5q-12 -391 -18 -788q-4 -55 -0.5 -93t6.5 -61t17.5 -37t32 -19.5 t50.5 -9.5l50 -6q9 -10 6 -31t-15 -28q-129 6 -266 6q-158 0 -252 -6q-18 7 -18.5 28.5t12.5 30.5l55 8q64 9 81 30.5t20 94.5l12 273q1 31 -9.5 39t-51.5 8h-269q-45 0 -57 -7.5t-39 -49.5l-141 -228q-66 -109 -66 -127q0 -20 51 -28l66 -13q12 -9 10 -29.5t-16 -29.5 q-129 6 -236 6q-111 0 -213 -6q-13 9 -13.5 29.5zM542.5 605q6.5 -7 45.5 -7h219q31 0 39.5 8t9.5 41l18 346q1 23 1.5 62t1.5 63h-5q-10 -18 -98 -149l-223 -334q-15 -23 -8.5 -30zM696 1456l332 262q59 49 102 0l236 -266q3 -17 -11 -30t-32 -15l-231 139q-16 9 -37 8.5 t-37 -8.5l-285 -139q-18 0 -29 15.5t-8 33.5z" />
<glyph unicode="&#xc3;" horiz-adv-x="1245" d="M-128.5 23.5q-0.5 20.5 11.5 29.5l51 8q62 9 99 36.5t92 105.5q208 285 297 415l328 472q119 169 127 219q26 1 56 11.5t49.5 20.5t46 25t32.5 18q13 0 23 -6t10 -16q0 -14 -1.5 -47.5t-4.5 -104t-5 -143.5q-12 -391 -18 -788q-4 -55 -0.5 -93t6.5 -61t17.5 -37t32 -19.5 t50.5 -9.5l50 -6q9 -10 6 -31t-15 -28q-129 6 -266 6q-158 0 -252 -6q-18 7 -18.5 28.5t12.5 30.5l55 8q64 9 81 30.5t20 94.5l12 273q1 31 -9.5 39t-51.5 8h-269q-45 0 -57 -7.5t-39 -49.5l-141 -228q-66 -109 -66 -127q0 -20 51 -28l66 -13q12 -9 10 -29.5t-16 -29.5 q-129 6 -236 6q-111 0 -213 -6q-13 9 -13.5 29.5zM542.5 605q6.5 -7 45.5 -7h219q31 0 39.5 8t9.5 41l18 346q1 23 1.5 62t1.5 63h-5q-10 -18 -98 -149l-223 -334q-15 -23 -8.5 -30zM754 1401q7 37 33.5 102.5t50.5 93.5q31 33 62 44.5t79 11.5h117q83 0 123 30q30 18 53 66 q5 4 23.5 1.5t25.5 -9.5q-14 -51 -41.5 -108.5t-48.5 -78.5q-27 -27 -51 -36t-64 -9h-129q-96 0 -127 -36q-29 -18 -61 -84q-37 -4 -45 12z" />
<glyph unicode="&#xc4;" horiz-adv-x="1245" d="M-128.5 23.5q-0.5 20.5 11.5 29.5l51 8q62 9 99 36.5t92 105.5q208 285 297 415l328 472q119 169 127 219q26 1 56 11.5t49.5 20.5t46 25t32.5 18q13 0 23 -6t10 -16q0 -14 -1.5 -47.5t-4.5 -104t-5 -143.5q-12 -391 -18 -788q-4 -55 -0.5 -93t6.5 -61t17.5 -37t32 -19.5 t50.5 -9.5l50 -6q9 -10 6 -31t-15 -28q-129 6 -266 6q-158 0 -252 -6q-18 7 -18.5 28.5t12.5 30.5l55 8q64 9 81 30.5t20 94.5l12 273q1 31 -9.5 39t-51.5 8h-269q-45 0 -57 -7.5t-39 -49.5l-141 -228q-66 -109 -66 -127q0 -20 51 -28l66 -13q12 -9 10 -29.5t-16 -29.5 q-129 6 -236 6q-111 0 -213 -6q-13 9 -13.5 29.5zM542.5 605q6.5 -7 45.5 -7h219q31 0 39.5 8t9.5 41l18 346q1 23 1.5 62t1.5 63h-5q-10 -18 -98 -149l-223 -334q-15 -23 -8.5 -30zM735 1561q7 49 42 80.5t81 31.5q48 0 76 -32t22 -82t-40.5 -82.5t-86.5 -32.5 q-48 0 -74.5 33t-19.5 84zM1106 1561q7 49 42.5 80.5t80.5 31.5q50 0 77.5 -31.5t20.5 -82.5q-6 -50 -41 -82.5t-84 -32.5q-50 0 -77.5 33t-18.5 84z" />
<glyph unicode="&#xc5;" horiz-adv-x="1245" d="M-128.5 23.5q-0.5 20.5 11.5 29.5l51 8q62 9 99 36.5t92 105.5q208 285 297 415l328 472q119 169 127 219q26 1 56 11.5t49.5 20.5t46 25t32.5 18q13 0 23 -6t10 -16q0 -14 -1.5 -47.5t-4.5 -104t-5 -143.5q-12 -391 -18 -788q-4 -55 -0.5 -93t6.5 -61t17.5 -37t32 -19.5 t50.5 -9.5l50 -6q9 -10 6 -31t-15 -28q-129 6 -266 6q-158 0 -252 -6q-18 7 -18.5 28.5t12.5 30.5l55 8q64 9 81 30.5t20 94.5l12 273q1 31 -9.5 39t-51.5 8h-269q-45 0 -57 -7.5t-39 -49.5l-141 -228q-66 -109 -66 -127q0 -20 51 -28l66 -13q12 -9 10 -29.5t-16 -29.5 q-129 6 -236 6q-111 0 -213 -6q-13 9 -13.5 29.5zM542.5 605q6.5 -7 45.5 -7h219q31 0 39.5 8t9.5 41l18 346q1 23 1.5 62t1.5 63h-5q-10 -18 -98 -149l-223 -334q-15 -23 -8.5 -30zM831 1620q0 76 53.5 133t137.5 57t137 -57t53 -133q0 -79 -53 -137t-137 -58 q-85 0 -138 58t-53 137zM932 1620q0 -55 24 -90t66 -35t66 35t24 90q0 53 -24 87t-66 34t-66 -34t-24 -87z" />
<glyph unicode="&#xc6;" horiz-adv-x="1744" d="M-182.5 24q1.5 20 14.5 29l49 8q52 8 98.5 43t131.5 134q516 602 763 915q59 73 63.5 97t-42.5 32l-102 16q-15 6 -12 29t18 31q94 -4 145 -4q53 -2 168 -2h535q237 0 282 6q-13 -28 -43 -123.5t-49 -173.5q-9 -13 -34 -13.5t-31 13.5q9 64 1.5 109t-40.5 65 q-61 37 -195 37h-135q-46 0 -60.5 -12t-29.5 -62l-123 -391q-13 -43 -7.5 -51t48.5 -8h110q114 0 156 19t78 89l29 55q12 12 37 10t28 -14q-14 -36 -74 -209q-24 -70 -55 -206q-12 -10 -35.5 -10t-29.5 10l4 53q6 73 -27 91.5t-139 18.5h-107q-42 0 -55 -9t-25 -48l-84 -262 q-52 -157 -28 -209q11 -25 52.5 -36t152.5 -11q70 0 109.5 3t84.5 14.5t78.5 36t72 65t83.5 104.5q12 10 34 6t29 -18q-22 -68 -68 -163t-79 -134q-132 4 -232 4q-84 2 -254 2h-248q-116 0 -254 -6q-15 8 -12.5 29t17.5 30l51 8q53 9 79 25.5t49 61.5t54 147l96 311 q11 31 4 40t-47 9h-223q-38 0 -57.5 -11t-55.5 -58q-51 -66 -125.5 -160.5t-126 -160.5t-90.5 -120q-12 -16 -17.5 -27.5t-6 -21t6.5 -15.5t22 -9l92 -19q12 -12 10 -32.5t-16 -26.5q-117 6 -248 6q-98 0 -203 -6q-12 10 -10.5 30zM680.5 755q3.5 -7 40.5 -7h153 q52 0 69.5 9.5t27.5 45.5l121 391q6 19 9.5 31.5t5 24t0 17t-6.5 5.5t-10.5 -3.5t-12.5 -11.5t-13.5 -15.5t-17 -21t-18.5 -22.5q-119 -141 -328 -407q-23 -29 -19.5 -36z" />
<glyph unicode="&#xc7;" horiz-adv-x="1343" d="M209 504q1 188 83 356t212 283q122 108 295 174.5t385 66.5q41 0 85 -4t77 -9.5t71.5 -14.5t58.5 -14.5t50 -14.5t35 -10q-52 -120 -97 -299q-9 -12 -35.5 -11.5t-29.5 15.5q19 147 -36 215t-200 68q-125 0 -249.5 -60t-233.5 -186q-88 -102 -150.5 -258t-62.5 -318 q0 -113 26.5 -198t75 -136.5t110.5 -76.5t138 -25q134 0 235 72.5t201 214.5q15 9 35.5 6t26.5 -16q-45 -139 -139 -308q-24 -2 -79.5 -13t-80.5 -15q-109 -17 -166 -19l-53 -71q-12 -18 -9 -25.5t25 -22.5q43 -33 68.5 -69.5t25.5 -87.5q0 -79 -71 -130.5t-168 -51.5 q-67 0 -106.5 23t-39.5 63q0 27 17.5 45t44.5 18t67.5 -36t59.5 -36q20 0 37.5 18t17.5 48q0 24 -21.5 51t-42 42.5t-52.5 37.5l-9 6l-6 12l125 168q-253 12 -402.5 149.5t-148.5 383.5z" />
<glyph unicode="&#xc8;" horiz-adv-x="1204" d="M-3 23q2 21 17 30l70 8q39 5 60.5 13t42.5 34t37 67.5t40 119.5l238 762q18 59 26 91t11 60t-6.5 41.5t-26 23t-47.5 17.5l-49 13q-12 9 -7.5 28t19.5 27q22 -1 67 -2t68 -2q23 0 67.5 -1t63.5 -1h418q238 0 283 6q-13 -29 -43.5 -124.5t-49.5 -172.5q-9 -13 -34 -13.5 t-31 13.5q9 64 1.5 109t-40.5 65q-61 37 -195 37h-135q-46 0 -60.5 -12t-29.5 -62l-123 -391q-13 -43 -7.5 -51t48.5 -8h111q113 0 155 19t78 89l29 55q12 12 37 10t28 -14q-6 -14 -73 -209q-27 -78 -56 -206q-12 -10 -35.5 -10t-29.5 10l4 53q6 73 -27 91.5t-139 18.5h-106 q-42 0 -55 -9t-25 -48l-84 -262q-52 -158 -29 -209q11 -25 52.5 -36t152.5 -11q70 0 109.5 3t84.5 14.5t78.5 36t72 65t83.5 104.5q12 10 34 6t29 -18q-22 -68 -68 -163t-79 -134q-132 4 -231 4q-84 2 -254 2h-248q-116 0 -279 -6q-15 8 -13 29zM625 1628q-3 10 3.5 36 t22.5 52q32 53 66 53q22 0 65 -30l324 -236q3 -14 -6 -34t-21 -23l-387 135q-57 19 -67 47z" />
<glyph unicode="&#xc9;" horiz-adv-x="1204" d="M-3 23q2 21 17 30l70 8q39 5 60.5 13t42.5 34t37 67.5t40 119.5l238 762q18 59 26 91t11 60t-6.5 41.5t-26 23t-47.5 17.5l-49 13q-12 9 -7.5 28t19.5 27q22 -1 67 -2t68 -2q23 0 67.5 -1t63.5 -1h418q238 0 283 6q-13 -29 -43.5 -124.5t-49.5 -172.5q-9 -13 -34 -13.5 t-31 13.5q9 64 1.5 109t-40.5 65q-61 37 -195 37h-135q-46 0 -60.5 -12t-29.5 -62l-123 -391q-13 -43 -7.5 -51t48.5 -8h111q113 0 155 19t78 89l29 55q12 12 37 10t28 -14q-6 -14 -73 -209q-27 -78 -56 -206q-12 -10 -35.5 -10t-29.5 10l4 53q6 73 -27 91.5t-139 18.5h-106 q-42 0 -55 -9t-25 -48l-84 -262q-52 -158 -29 -209q11 -25 52.5 -36t152.5 -11q70 0 109.5 3t84.5 14.5t78.5 36t72 65t83.5 104.5q12 10 34 6t29 -18q-22 -68 -68 -163t-79 -134q-132 4 -231 4q-84 2 -254 2h-248q-116 0 -279 -6q-15 8 -13 29zM862 1493l324 236 q43 30 65 30q34 0 66 -53q16 -26 22.5 -52t3.5 -36q-10 -28 -67 -47l-387 -135q-12 3 -21 22.5t-6 34.5z" />
<glyph unicode="&#xca;" horiz-adv-x="1204" d="M-3 23q2 21 17 30l70 8q39 5 60.5 13t42.5 34t37 67.5t40 119.5l238 762q18 59 26 91t11 60t-6.5 41.5t-26 23t-47.5 17.5l-49 13q-12 9 -7.5 28t19.5 27q22 -1 67 -2t68 -2q23 0 67.5 -1t63.5 -1h418q238 0 283 6q-13 -29 -43.5 -124.5t-49.5 -172.5q-9 -13 -34 -13.5 t-31 13.5q9 64 1.5 109t-40.5 65q-61 37 -195 37h-135q-46 0 -60.5 -12t-29.5 -62l-123 -391q-13 -43 -7.5 -51t48.5 -8h111q113 0 155 19t78 89l29 55q12 12 37 10t28 -14q-6 -14 -73 -209q-27 -78 -56 -206q-12 -10 -35.5 -10t-29.5 10l4 53q6 73 -27 91.5t-139 18.5h-106 q-42 0 -55 -9t-25 -48l-84 -262q-52 -158 -29 -209q11 -25 52.5 -36t152.5 -11q70 0 109.5 3t84.5 14.5t78.5 36t72 65t83.5 104.5q12 10 34 6t29 -18q-22 -68 -68 -163t-79 -134q-132 4 -231 4q-84 2 -254 2h-248q-116 0 -279 -6q-15 8 -13 29zM612 1497l332 262 q56 47 100 0l238 -266q3 -17 -11 -30t-32 -15l-231 139q-16 9 -38 8.5t-38 -8.5l-283 -139q-18 0 -29 15.5t-8 33.5z" />
<glyph unicode="&#xcb;" horiz-adv-x="1204" d="M-3 23q2 21 17 30l70 8q39 5 60.5 13t42.5 34t37 67.5t40 119.5l238 762q18 59 26 91t11 60t-6.5 41.5t-26 23t-47.5 17.5l-49 13q-12 9 -7.5 28t19.5 27q22 -1 67 -2t68 -2q23 0 67.5 -1t63.5 -1h418q238 0 283 6q-13 -29 -43.5 -124.5t-49.5 -172.5q-9 -13 -34 -13.5 t-31 13.5q9 64 1.5 109t-40.5 65q-61 37 -195 37h-135q-46 0 -60.5 -12t-29.5 -62l-123 -391q-13 -43 -7.5 -51t48.5 -8h111q113 0 155 19t78 89l29 55q12 12 37 10t28 -14q-6 -14 -73 -209q-27 -78 -56 -206q-12 -10 -35.5 -10t-29.5 10l4 53q6 73 -27 91.5t-139 18.5h-106 q-42 0 -55 -9t-25 -48l-84 -262q-52 -158 -29 -209q11 -25 52.5 -36t152.5 -11q70 0 109.5 3t84.5 14.5t78.5 36t72 65t83.5 104.5q12 10 34 6t29 -18q-22 -68 -68 -163t-79 -134q-132 4 -231 4q-84 2 -254 2h-248q-116 0 -279 -6q-15 8 -13 29zM694 1561q7 49 42 80.5 t81 31.5q48 0 76 -32t22 -82t-40.5 -82.5t-86.5 -32.5q-48 0 -74.5 33t-19.5 84zM1063 1561q7 49 42 80.5t81 31.5q48 0 76 -32t22 -82t-41.5 -82.5t-85.5 -32.5q-48 0 -74.5 33t-19.5 84z" />
<glyph unicode="&#xcc;" horiz-adv-x="731" d="M15.5 25q0.5 22 15.5 28l57 8q49 6 74.5 23t48 62.5t53.5 148.5l238 762q16 51 23.5 78.5t12.5 57t2 43t-12.5 26.5t-27 18.5t-45.5 9.5l-62 8q-9 12 -4 32t17 28q164 -6 292 -6q137 0 269 6q12 -9 11.5 -31.5t-15.5 -28.5l-58 -8q-50 -6 -75 -23t-47.5 -62.5 t-53.5 -147.5l-237 -762q-19 -61 -27 -92.5t-11.5 -62t6 -43.5t27.5 -22.5t52 -13.5l61 -8q9 -12 4.5 -31.5t-16.5 -27.5q-163 6 -293 6q-136 0 -268 -6q-12 9 -11.5 31zM365 1647q-3 12 4 40t24 56q35 59 72 59q29 0 74 -35l354 -258q5 -15 -5.5 -37.5t-23.5 -25.5 l-426 149q-63 22 -73 52z" />
<glyph unicode="&#xcd;" horiz-adv-x="731" d="M15.5 25q0.5 22 15.5 28l57 8q49 6 74.5 23t48 62.5t53.5 148.5l238 762q16 51 23.5 78.5t12.5 57t2 43t-12.5 26.5t-27 18.5t-45.5 9.5l-62 8q-9 12 -4 32t17 28q164 -6 292 -6q137 0 269 6q12 -9 11.5 -31.5t-15.5 -28.5l-58 -8q-50 -6 -75 -23t-47.5 -62.5 t-53.5 -147.5l-237 -762q-19 -61 -27 -92.5t-11.5 -62t6 -43.5t27.5 -22.5t52 -13.5l61 -8q9 -12 4.5 -31.5t-16.5 -27.5q-163 6 -293 6q-136 0 -268 -6q-12 9 -11.5 31zM625 1503l323 236q43 30 66 30q33 0 65 -53q16 -26 23 -52t4 -36q-10 -27 -68 -47l-387 -135 q-12 3 -20.5 22.5t-5.5 34.5z" />
<glyph unicode="&#xce;" horiz-adv-x="731" d="M15.5 25q0.5 22 15.5 28l57 8q49 6 74.5 23t48 62.5t53.5 148.5l238 762q16 51 23.5 78.5t12.5 57t2 43t-12.5 26.5t-27 18.5t-45.5 9.5l-62 8q-9 12 -4 32t17 28q164 -6 292 -6q137 0 269 6q12 -9 11.5 -31.5t-15.5 -28.5l-58 -8q-50 -6 -75 -23t-47.5 -62.5 t-53.5 -147.5l-237 -762q-19 -61 -27 -92.5t-11.5 -62t6 -43.5t27.5 -22.5t52 -13.5l61 -8q9 -12 4.5 -31.5t-16.5 -27.5q-163 6 -293 6q-136 0 -268 -6q-12 9 -11.5 31zM393 1497l332 262q59 49 102 0l236 -266q3 -17 -11 -30t-32 -15l-234 125q-35 17 -84 2l-272 -127 q-18 0 -29 15.5t-8 33.5z" />
<glyph unicode="&#xcf;" horiz-adv-x="731" d="M15.5 25q0.5 22 15.5 28l57 8q49 6 74.5 23t48 62.5t53.5 148.5l238 762q16 51 23.5 78.5t12.5 57t2 43t-12.5 26.5t-27 18.5t-45.5 9.5l-62 8q-9 12 -4 32t17 28q164 -6 292 -6q137 0 269 6q12 -9 11.5 -31.5t-15.5 -28.5l-58 -8q-50 -6 -75 -23t-47.5 -62.5 t-53.5 -147.5l-237 -762q-19 -61 -27 -92.5t-11.5 -62t6 -43.5t27.5 -22.5t52 -13.5l61 -8q9 -12 4.5 -31.5t-16.5 -27.5q-163 6 -293 6q-136 0 -268 -6q-12 9 -11.5 31zM465 1567q8 51 44 85t85 34q50 0 79 -34.5t23 -86.5q-6 -53 -42 -87t-91 -34q-51 0 -79 34.5t-19 88.5 zM834 1567q8 51 44 85t85 34q50 0 79 -34.5t23 -86.5q-6 -53 -43 -87t-90 -34q-51 0 -79 34.5t-19 88.5z" />
<glyph unicode="&#xd0;" horiz-adv-x="1562" d="M31.5 24q0.5 23 15.5 29l57 8q49 6 74 23.5t46 62.5t52 148l109 360h-213q-8 24 0.5 52.5t26.5 40.5h215l112 348q32 100 26.5 130.5t-56.5 39.5l-70 12q-12 9 -10 30t14 29q200 21 428 21q334 0 522 -121q222 -141 222 -446q0 -164 -73 -315.5t-200 -258.5 q-267 -223 -733 -223q-50 0 -146 3t-137 3q-120 0 -270 -6q-12 7 -11.5 30zM494 131q29 -57 147 -57q222 0 410 137q142 104 221.5 276t79.5 324q0 43 -3 79.5t-14 86t-30 89t-54.5 81t-83 69t-119.5 45t-161 17.5q-52 0 -69 -16t-38 -80l-139 -434h264q7 -24 0.5 -53.5 t-24.5 -39.5h-269l-114 -376q-31 -101 -4 -148z" />
<glyph unicode="&#xd1;" horiz-adv-x="1495" d="M-8 23.5q-1 19.5 12 29.5l51 10q55 10 86.5 28t55.5 63q37 73 118 342l162 532q44 145 47 175q4 32 -6 48q-11 29 -57 35l-68 17q-12 9 -7 28t20 27q86 -4 116 -4q37 -2 117 -2q129 0 154 4q1 -19 4 -40.5t9 -46t11.5 -44.5t16.5 -48.5t17 -45t19 -47t18 -42t18.5 -42 t15.5 -35.5l153 -359q93 -217 115 -260q13 24 35 98l127 412q57 183 84 326q9 54 -10 76t-85 32l-53 8q-10 12 -8 31t16 29q126 -6 246 -6q104 0 227 6q10 -10 10.5 -30t-10.5 -30l-53 -10q-37 -7 -58 -14t-43.5 -25.5t-39.5 -50.5q-33 -64 -119 -342l-151 -485 q-26 -85 -62 -206.5t-51 -166.5q-12 -9 -41.5 -14t-56.5 -2q-4 10 -22 57.5t-53 136t-77 186.5l-190 449q-19 44 -68.5 164.5t-65.5 154.5q-5 -7 -55 -169l-141 -465q-67 -224 -86 -326q-9 -54 10 -76.5t86 -32.5l51 -8q10 -12 8 -30.5t-16 -28.5q-126 6 -246 6 q-105 0 -225 -6q-11 10 -12 29.5zM850 1401q7 37 33.5 102.5t50.5 93.5q31 33 62 44.5t79 11.5h117q83 0 123 30q30 18 53 66q5 4 23.5 1.5t25.5 -9.5q-14 -51 -41.5 -108.5t-48.5 -78.5q-27 -27 -51 -36t-64 -9h-129q-96 0 -127 -36q-29 -18 -61 -84q-37 -4 -45 12z" />
<glyph unicode="&#xd2;" horiz-adv-x="1531" d="M213 508q3 195 89 377.5t241 312.5q217 186 504 186q82 0 157.5 -19t145 -62.5t120.5 -107.5t80 -161t27 -215q-3 -173 -75 -340t-199 -291q-91 -91 -232 -156t-311 -65q-119 0 -215.5 33.5t-157.5 87t-102 125.5t-57 145.5t-15 149.5zM451 412q-2 -72 14 -135.5t50 -116 t94 -83t139 -30.5q178 0 317 154q134 149 202.5 347.5t71.5 403.5q3 168 -73 260.5t-207 92.5q-127 0 -262 -105q-131 -107 -235.5 -325.5t-110.5 -462.5zM788 1628q-3 10 4 36t23 52q32 53 66 53q22 0 65 -30l324 -236q3 -14 -6 -34t-21 -23l-387 135q-58 20 -68 47z" />
<glyph unicode="&#xd3;" horiz-adv-x="1531" d="M213 508q3 195 89 377.5t241 312.5q217 186 504 186q82 0 157.5 -19t145 -62.5t120.5 -107.5t80 -161t27 -215q-3 -173 -75 -340t-199 -291q-91 -91 -232 -156t-311 -65q-119 0 -215.5 33.5t-157.5 87t-102 125.5t-57 145.5t-15 149.5zM451 412q-2 -72 14 -135.5t50 -116 t94 -83t139 -30.5q178 0 317 154q134 149 202.5 347.5t71.5 403.5q3 168 -73 260.5t-207 92.5q-127 0 -262 -105q-131 -107 -235.5 -325.5t-110.5 -462.5zM954 1503l324 236q43 30 65 30q34 0 66 -53q16 -26 23 -52t4 -36q-10 -27 -68 -47l-387 -135q-12 3 -21 22.5t-6 34.5 z" />
<glyph unicode="&#xd4;" horiz-adv-x="1531" d="M213 508q3 195 89 377.5t241 312.5q217 186 504 186q82 0 157.5 -19t145 -62.5t120.5 -107.5t80 -161t27 -215q-3 -173 -75 -340t-199 -291q-91 -91 -232 -156t-311 -65q-119 0 -215.5 33.5t-157.5 87t-102 125.5t-57 145.5t-15 149.5zM451 412q-2 -72 14 -135.5t50 -116 t94 -83t139 -30.5q178 0 317 154q134 149 202.5 347.5t71.5 403.5q3 168 -73 260.5t-207 92.5q-127 0 -262 -105q-131 -107 -235.5 -325.5t-110.5 -462.5zM737 1497l332 262q59 49 102 0l236 -266q3 -17 -11 -30t-32 -15l-231 139q-16 9 -37 8.5t-37 -8.5l-285 -139 q-18 0 -29 15.5t-8 33.5z" />
<glyph unicode="&#xd5;" horiz-adv-x="1531" d="M213 508q3 195 89 377.5t241 312.5q217 186 504 186q82 0 157.5 -19t145 -62.5t120.5 -107.5t80 -161t27 -215q-3 -173 -75 -340t-199 -291q-91 -91 -232 -156t-311 -65q-119 0 -215.5 33.5t-157.5 87t-102 125.5t-57 145.5t-15 149.5zM451 412q-2 -72 14 -135.5t50 -116 t94 -83t139 -30.5q178 0 317 154q134 149 202.5 347.5t71.5 403.5q3 168 -73 260.5t-207 92.5q-127 0 -262 -105q-131 -107 -235.5 -325.5t-110.5 -462.5zM786 1401q7 37 33.5 102.5t50.5 93.5q30 33 62 44.5t80 11.5h116q83 0 123 30q32 19 54 66q5 4 23.5 1.5t25.5 -9.5 q-14 -51 -41.5 -108.5t-48.5 -78.5q-27 -27 -51 -36t-64 -9h-129q-96 0 -127 -36q-30 -18 -62 -84q-37 -4 -45 12z" />
<glyph unicode="&#xd6;" horiz-adv-x="1531" d="M213 508q3 195 89 377.5t241 312.5q217 186 504 186q82 0 157.5 -19t145 -62.5t120.5 -107.5t80 -161t27 -215q-3 -173 -75 -340t-199 -291q-91 -91 -232 -156t-311 -65q-119 0 -215.5 33.5t-157.5 87t-102 125.5t-57 145.5t-15 149.5zM451 412q-2 -72 14 -135.5t50 -116 t94 -83t139 -30.5q178 0 317 154q134 149 202.5 347.5t71.5 403.5q3 168 -73 260.5t-207 92.5q-127 0 -262 -105q-131 -107 -235.5 -325.5t-110.5 -462.5zM799 1571q7 49 42 80.5t81 31.5q48 0 76 -32t22 -82t-40.5 -82.5t-86.5 -32.5q-48 0 -74.5 33t-19.5 84zM1167 1571 q7 49 42 80.5t81 31.5q48 0 76.5 -32t22.5 -82t-41.5 -82.5t-85.5 -32.5q-48 0 -75 33t-20 84z" />
<glyph unicode="&#xd7;" d="M172 125l279 281l-279 280l98 102l281 -280l283 285l98 -101l-281 -284l281 -283l-98 -102l-283 282l-281 -282z" />
<glyph unicode="&#xd8;" horiz-adv-x="1531" d="M205 -29l141 158q-70 78 -102.5 177.5t-30.5 201.5q3 195 89 377.5t241 312.5q217 186 504 186q190 0 327 -98l119 135q21 -2 42.5 -18.5t27.5 -38.5l-121 -137q141 -147 135 -408q-3 -173 -75 -340t-199 -291q-91 -91 -232 -156t-311 -65q-210 0 -348 103l-144 -160 q-22 0 -41.5 19.5t-21.5 41.5zM451 412q-3 -78 16 -146l817 920q-75 119 -225 119q-127 0 -262 -105q-131 -107 -235.5 -325.5t-110.5 -462.5zM506 176q78 -129 242 -129q178 0 317 154q134 149 202.5 347.5t71.5 403.5q3 77 -16 142z" />
<glyph unicode="&#xd9;" horiz-adv-x="1486" d="M276 328q3 99 41 217l160 512q18 59 26.5 92.5t11.5 63.5t-6.5 44.5t-28.5 23.5t-52 13l-51 6q-11 12 -7 31.5t19 26.5q150 -6 283 -6q135 0 270 6q11 -9 10 -30.5t-14 -27.5l-57 -8q-50 -6 -75.5 -23t-49 -63.5t-54.5 -148.5l-147 -471q-44 -138 -47 -240 q-2 -135 68 -211t221 -76q76 0 141.5 28t113 72.5t89 111t69.5 131.5t54 147l98 307q59 189 84 328q9 53 -10 75.5t-84 32.5l-54 8q-10 12 -7.5 30t16.5 28q126 -6 245 -6q105 0 228 6q11 -10 12 -29t-12 -29l-54 -10q-54 -11 -85.5 -29t-55.5 -63q-31 -57 -119 -342 l-100 -319q-45 -140 -98.5 -246.5t-137.5 -181.5q-75 -66 -183 -104t-216 -38q-218 0 -339.5 89t-115.5 272zM766 1628q-3 10 4 36t23 52q32 53 65 53q23 0 66 -30l323 -236q3 -14 -5.5 -34t-20.5 -23l-387 135q-58 20 -68 47z" />
<glyph unicode="&#xda;" horiz-adv-x="1486" d="M276 328q3 99 41 217l160 512q18 59 26.5 92.5t11.5 63.5t-6.5 44.5t-28.5 23.5t-52 13l-51 6q-11 12 -7 31.5t19 26.5q150 -6 283 -6q135 0 270 6q11 -9 10 -30.5t-14 -27.5l-57 -8q-50 -6 -75.5 -23t-49 -63.5t-54.5 -148.5l-147 -471q-44 -138 -47 -240 q-2 -135 68 -211t221 -76q76 0 141.5 28t113 72.5t89 111t69.5 131.5t54 147l98 307q59 189 84 328q9 53 -10 75.5t-84 32.5l-54 8q-10 12 -7.5 30t16.5 28q126 -6 245 -6q105 0 228 6q11 -10 12 -29t-12 -29l-54 -10q-54 -11 -85.5 -29t-55.5 -63q-31 -57 -119 -342 l-100 -319q-45 -140 -98.5 -246.5t-137.5 -181.5q-75 -66 -183 -104t-216 -38q-218 0 -339.5 89t-115.5 272zM973 1503l323 236q43 30 66 30q33 0 65 -53q16 -26 23 -52t4 -36q-10 -27 -68 -47l-387 -135q-12 3 -20.5 22.5t-5.5 34.5z" />
<glyph unicode="&#xdb;" horiz-adv-x="1486" d="M276 328q3 99 41 217l160 512q18 59 26.5 92.5t11.5 63.5t-6.5 44.5t-28.5 23.5t-52 13l-51 6q-11 12 -7 31.5t19 26.5q150 -6 283 -6q135 0 270 6q11 -9 10 -30.5t-14 -27.5l-57 -8q-50 -6 -75.5 -23t-49 -63.5t-54.5 -148.5l-147 -471q-44 -138 -47 -240 q-2 -135 68 -211t221 -76q76 0 141.5 28t113 72.5t89 111t69.5 131.5t54 147l98 307q59 189 84 328q9 53 -10 75.5t-84 32.5l-54 8q-10 12 -7.5 30t16.5 28q126 -6 245 -6q105 0 228 6q11 -10 12 -29t-12 -29l-54 -10q-54 -11 -85.5 -29t-55.5 -63q-31 -57 -119 -342 l-100 -319q-45 -140 -98.5 -246.5t-137.5 -181.5q-75 -66 -183 -104t-216 -38q-218 0 -339.5 89t-115.5 272zM807 1497l332 262q59 49 102 0l236 -266q3 -17 -11 -30t-32 -15l-232 139q-16 9 -37 8.5t-37 -8.5l-284 -139q-18 0 -29 15.5t-8 33.5z" />
<glyph unicode="&#xdc;" horiz-adv-x="1486" d="M276 328q3 99 41 217l160 512q18 59 26.5 92.5t11.5 63.5t-6.5 44.5t-28.5 23.5t-52 13l-51 6q-11 12 -7 31.5t19 26.5q150 -6 283 -6q135 0 270 6q11 -9 10 -30.5t-14 -27.5l-57 -8q-50 -6 -75.5 -23t-49 -63.5t-54.5 -148.5l-147 -471q-44 -138 -47 -240 q-2 -135 68 -211t221 -76q76 0 141.5 28t113 72.5t89 111t69.5 131.5t54 147l98 307q59 189 84 328q9 53 -10 75.5t-84 32.5l-54 8q-10 12 -7.5 30t16.5 28q126 -6 245 -6q105 0 228 6q11 -10 12 -29t-12 -29l-54 -10q-54 -11 -85.5 -29t-55.5 -63q-31 -57 -119 -342 l-100 -319q-45 -140 -98.5 -246.5t-137.5 -181.5q-75 -66 -183 -104t-216 -38q-218 0 -339.5 89t-115.5 272zM836 1561q7 49 41.5 80.5t80.5 31.5q48 0 76.5 -32t22.5 -82t-40.5 -82.5t-86.5 -32.5q-48 0 -74.5 33t-19.5 84zM1225 1561q7 49 42 80.5t81 31.5q48 0 76 -32 t22 -82t-41.5 -82.5t-85.5 -32.5q-48 0 -74.5 33t-19.5 84z" />
<glyph unicode="&#xdd;" horiz-adv-x="1204" d="M242.5 25q0.5 22 15.5 28l78 13q25 2 40.5 5t31 13t26 23.5t23 41t24 60.5t27.5 86l33 104q25 81 28.5 129t-10.5 129q-26 146 -96 486q-14 75 -35.5 105t-73.5 40l-53 10q-12 12 -9.5 32.5t19.5 27.5q102 -4 133 -4q41 -2 119 -2q143 0 250 8q15 -7 15 -30t-13 -32 l-67 -12q-56 -10 -70 -27t-6 -63q62 -330 106 -537l283 359q103 128 153 205q22 30 16.5 43t-46.5 22l-51 10q-15 9 -13 30.5t17 29.5q135 -6 227 -6q114 0 203 6q12 -7 11.5 -29t-15.5 -31l-52 -10q-64 -12 -108 -41t-115 -108q-100 -111 -368 -443q-46 -57 -62 -80 t-37 -67.5t-43 -116.5l-43 -137q-19 -61 -27.5 -94.5t-11.5 -61t7.5 -40t28 -20.5t50.5 -13l74 -13q9 -6 6.5 -29t-14.5 -30q-188 6 -303 6q-135 0 -291 -6q-12 9 -11.5 31zM852 1503l324 236q43 30 65 30q34 0 66 -53q16 -26 22.5 -52t3.5 -36q-10 -28 -67 -47l-387 -135 q-12 3 -21 22.5t-6 34.5z" />
<glyph unicode="&#xde;" horiz-adv-x="1191" d="M15.5 25q0.5 22 15.5 28l57 8q49 6 74.5 23t48 62.5t53.5 148.5l238 762q16 51 23.5 78.5t12.5 57t2 43t-12.5 26.5t-27 18.5t-45.5 9.5l-62 8q-9 12 -4 32t17 28q164 -6 292 -6q137 0 269 6q12 -9 11.5 -31.5t-15.5 -28.5l-54 -8q-55 -8 -81.5 -26t-46 -59t-48.5 -140 h76q217 0 330.5 -86t113.5 -240q0 -97 -46.5 -174t-124 -123t-171 -70t-196.5 -26q-46 0 -58 4q-12 6 -12.5 21.5t8.5 27.5q96 21 135 39q96 43 159 134.5t63 191.5q0 111 -64 166t-166 55q-50 0 -65 -11t-29 -54l-194 -625q-19 -61 -27 -92.5t-11.5 -62t6 -43.5t27.5 -22.5 t52 -13.5l61 -8q9 -12 4.5 -31.5t-16.5 -27.5q-163 6 -293 6q-136 0 -268 -6q-12 9 -11.5 31z" />
<glyph unicode="&#xdf;" horiz-adv-x="1021" d="M-299 -418q0 40 26.5 67t63.5 34q17 5 26 -3t23 -34q28 -47 61.5 -76t61.5 -29q40 0 68 74q32 87 96 430q94 503 192 782q122 355 394 533q161 104 356 104q125 0 199.5 -59t74.5 -152q0 -38 -20.5 -75.5t-48 -64.5t-73.5 -57.5t-79 -47.5t-83 -42.5t-68 -35.5 q-131 -69 -131 -185q0 -67 65 -217q58 -137 58 -221q0 -143 -121 -248q-42 -36 -98 -62t-97 -26q-65 0 -104 40t-39 85q0 42 28 74q12 10 27 10t27 -10q24 -25 39 -39t41 -28.5t51 -14.5q32 0 61 21t29 67q0 44 -78 219q-25 55 -38 87.5t-26.5 81t-13.5 85.5q0 109 67.5 184 t233.5 177q95 58 139 125t44 116q0 62 -44.5 97.5t-99.5 35.5q-94 0 -183.5 -75.5t-161.5 -200.5t-130 -293q-58 -167 -112 -409t-97 -433t-82 -274q-51 -110 -144 -180t-200 -70q-78 0 -129 39.5t-51 93.5z" />
<glyph unicode="&#xe0;" horiz-adv-x="962" d="M39 94q0 69 65.5 205.5t174.5 259.5q117 129 256 203q83 45 159 45q14 0 47 -14q25 -15 43 -39l54 114q18 9 41 9q35 0 68.5 -12.5t45.5 -37.5q-119 -278 -264 -684q-14 -37 10 -37q25 0 83 36.5t122 97.5q13 0 23 -10t10 -29q-73 -93 -180.5 -161.5t-200.5 -68.5 q-33 0 -50.5 21.5t-17.5 44.5q0 30 21 84l74 194h-7q-107 -146 -241.5 -245t-224.5 -99q-48 0 -79.5 36t-31.5 87zM272 141q0 -41 25 -41q24 0 82.5 46.5t126.5 117.5q72 73 136 188.5t89 196.5q-24 72 -90 72q-34 0 -64 -18t-79 -70q-86 -94 -154.5 -242.5t-71.5 -249.5z M473 1309q0 18 11.5 31.5t39.5 31.5q49 27 74 27q38 0 64 -68l147 -379q-8 -32 -51 -26l-240 301q-18 24 -24.5 33t-13.5 23t-7 26z" />
<glyph unicode="&#xe1;" horiz-adv-x="962" d="M39 94q0 69 65.5 205.5t174.5 259.5q117 129 256 203q83 45 159 45q14 0 47 -14q25 -15 43 -39l54 114q18 9 41 9q35 0 68.5 -12.5t45.5 -37.5q-119 -278 -264 -684q-14 -37 10 -37q25 0 83 36.5t122 97.5q13 0 23 -10t10 -29q-73 -93 -180.5 -161.5t-200.5 -68.5 q-33 0 -50.5 21.5t-17.5 44.5q0 30 21 84l74 194h-7q-107 -146 -241.5 -245t-224.5 -99q-48 0 -79.5 36t-31.5 87zM272 141q0 -41 25 -41q24 0 82.5 46.5t126.5 117.5q72 73 136 188.5t89 196.5q-24 72 -90 72q-34 0 -64 -18t-79 -70q-86 -94 -154.5 -242.5t-71.5 -249.5z M639 938l213 352q40 63 74 60q4 0 8.5 -1.5t8 -2.5t8.5 -3.5l8 -4t9.5 -6t9 -6.5t11 -8t12.5 -9q24 -24 33 -38.5t6 -33.5q0 -4 -2 -8.5t-5.5 -9.5t-7 -9t-10 -10.5l-9.5 -9.5t-11.5 -10.5t-11.5 -10.5l-295 -266q-42 0 -49 35z" />
<glyph unicode="&#xe2;" horiz-adv-x="962" d="M39 94q0 69 65.5 205.5t174.5 259.5q117 129 256 203q83 45 159 45q14 0 47 -14q25 -15 43 -39l54 114q18 9 41 9q35 0 68.5 -12.5t45.5 -37.5q-119 -278 -264 -684q-14 -37 10 -37q25 0 83 36.5t122 97.5q13 0 23 -10t10 -29q-73 -93 -180.5 -161.5t-200.5 -68.5 q-33 0 -50.5 21.5t-17.5 44.5q0 30 21 84l74 194h-7q-107 -146 -241.5 -245t-224.5 -99q-48 0 -79.5 36t-31.5 87zM272 141q0 -41 25 -41q24 0 82.5 46.5t126.5 117.5q72 73 136 188.5t89 196.5q-24 72 -90 72q-34 0 -64 -18t-79 -70q-86 -94 -154.5 -242.5t-71.5 -249.5z M438 954l293 394q36 47 64 47q31 0 41 -45l92 -404q-13 -27 -49 -24l-113 208q-10 20 -19 25.5t-19 0.5t-26 -21l-223 -217q-41 -3 -41 36z" />
<glyph unicode="&#xe3;" horiz-adv-x="962" d="M39 94q0 69 65.5 205.5t174.5 259.5q117 129 256 203q83 45 159 45q14 0 47 -14q25 -15 43 -39l54 114q18 9 41 9q35 0 68.5 -12.5t45.5 -37.5q-119 -278 -264 -684q-14 -37 10 -37q25 0 83 36.5t122 97.5q13 0 23 -10t10 -29q-73 -93 -180.5 -161.5t-200.5 -68.5 q-33 0 -50.5 21.5t-17.5 44.5q0 30 21 84l74 194h-7q-107 -146 -241.5 -245t-224.5 -99q-48 0 -79.5 36t-31.5 87zM272 141q0 -41 25 -41q24 0 82.5 46.5t126.5 117.5q72 73 136 188.5t89 196.5q-24 72 -90 72q-34 0 -64 -18t-79 -70q-86 -94 -154.5 -242.5t-71.5 -249.5z M489 932q7 37 33 99.5t51 90.5q29 32 58.5 43t75.5 11h112q86 0 119 26q32 23 49 64q7 3 24 1.5t23 -7.5q-10 -47 -37 -103t-49 -78q-25 -25 -47 -33t-61 -8h-125q-84 0 -121 -37q-29 -20 -62 -81q-35 -4 -43 12z" />
<glyph unicode="&#xe4;" horiz-adv-x="962" d="M39 94q0 69 65.5 205.5t174.5 259.5q117 129 256 203q83 45 159 45q14 0 47 -14q25 -15 43 -39l54 114q18 9 41 9q35 0 68.5 -12.5t45.5 -37.5q-119 -278 -264 -684q-14 -37 10 -37q25 0 83 36.5t122 97.5q13 0 23 -10t10 -29q-73 -93 -180.5 -161.5t-200.5 -68.5 q-33 0 -50.5 21.5t-17.5 44.5q0 30 21 84l74 194h-7q-107 -146 -241.5 -245t-224.5 -99q-48 0 -79.5 36t-31.5 87zM272 141q0 -41 25 -41q24 0 82.5 46.5t126.5 117.5q72 73 136 188.5t89 196.5q-24 72 -90 72q-34 0 -64 -18t-79 -70q-86 -94 -154.5 -242.5t-71.5 -249.5z M483 1114q7 47 40.5 78t76.5 31q46 0 73 -31t21 -80q-6 -47 -39 -77.5t-82 -30.5q-46 0 -71.5 31.5t-18.5 78.5zM821 1114q7 47 40.5 78t76.5 31q47 0 73.5 -31t20.5 -80q-6 -46 -40 -77t-79 -31q-46 0 -72.5 31.5t-19.5 78.5z" />
<glyph unicode="&#xe5;" horiz-adv-x="962" d="M39 94q0 69 65.5 205.5t174.5 259.5q117 129 256 203q83 45 159 45q14 0 47 -14q25 -15 43 -39l54 114q18 9 41 9q35 0 68.5 -12.5t45.5 -37.5q-119 -278 -264 -684q-14 -37 10 -37q25 0 83 36.5t122 97.5q13 0 23 -10t10 -29q-73 -93 -180.5 -161.5t-200.5 -68.5 q-33 0 -50.5 21.5t-17.5 44.5q0 30 21 84l74 194h-7q-107 -146 -241.5 -245t-224.5 -99q-48 0 -79.5 36t-31.5 87zM272 141q0 -41 25 -41q24 0 82.5 46.5t126.5 117.5q72 73 136 188.5t89 196.5q-24 72 -90 72q-34 0 -64 -18t-79 -70q-86 -94 -154.5 -242.5t-71.5 -249.5z M537 1133q0 76 53 133t137 57t137.5 -57t53.5 -133q0 -79 -53 -137t-138 -58q-84 0 -137 58t-53 137zM637 1133q0 -55 24 -90t66 -35t66 35t24 90q0 52 -24 86t-66 34t-66 -34t-24 -86z" />
<glyph unicode="&#xe6;" horiz-adv-x="1075" d="M41 100q0 75 52 173.5t126 172.5q43 43 70.5 67.5t82.5 67t126 79t159 69.5q164 107 287 107q93 0 141 -47t48 -115q0 -96 -100 -186t-333 -224q4 -87 42.5 -128.5t86.5 -41.5q26 0 49 9t47.5 30t38 34.5t40.5 43.5q43 7 49 -29q-57 -101 -149 -156t-179 -55 q-155 0 -199 162q-85 -68 -185.5 -115t-164.5 -47q-56 0 -95.5 33.5t-39.5 95.5zM264 154q0 -27 13 -41.5t34 -14.5q31 0 83 27t114 82q2 115 28 213.5t95 212.5h-8q-99 -50 -185 -146.5t-130 -186.5t-44 -146zM696 340q123 93 194 190t71 164q0 30 -16 49t-44 19 q-53 0 -101 -69t-75 -165.5t-29 -187.5z" />
<glyph unicode="&#xe7;" horiz-adv-x="737" d="M43 -403q0 27 17 45t44 18t67.5 -36t59.5 -36q20 0 38 18t18 48q0 24 -21.5 51t-42 42.5t-52.5 37.5l-9 6l-6 12l127 166l-4 4q-2 -2 -17 -2q-84 0 -132 58.5t-48 167.5q0 106 62.5 242t168.5 241q160 156 326 156q79 0 128.5 -39t47.5 -101q0 -54 -40 -83t-83 -29 q-27 0 -43.5 15t-17.5 42q0 5 -1.5 28t-3 32.5t-6.5 24.5t-15 21.5t-25 6.5q-32 0 -72 -33t-80 -98q-54 -86 -91.5 -192t-37.5 -210q0 -123 84 -123q97 0 219 125q19 0 29.5 -11.5t7.5 -29.5q-42 -57 -109 -108t-141 -78l-72 -98q-11 -18 -8 -25.5t25 -22.5 q43 -33 68.5 -69.5t25.5 -87.5q0 -79 -71.5 -130.5t-168.5 -51.5q-67 0 -106 23t-39 63z" />
<glyph unicode="&#xe8;" horiz-adv-x="757" d="M86 195q0 126 76.5 276t214.5 254q149 111 287 111q70 0 116.5 -44t46.5 -98q0 -44 -21 -84.5t-60 -73.5t-85.5 -61t-107.5 -51.5t-114.5 -41t-116.5 -34.5q-19 -55 -19 -133q0 -57 23.5 -87t66.5 -30q101 0 242 129q15 0 25.5 -13t7.5 -28q-79 -110 -180 -162.5 t-209 -52.5q-95 0 -144 65.5t-49 158.5zM338 418q81 29 133 59.5t100 79.5q35 35 55.5 80.5t20.5 73.5q0 22 -10 36.5t-29 14.5q-50 0 -123 -82q-97 -103 -147 -262zM391 1286q0 18 11.5 32t39.5 32q47 26 74 26q38 0 64 -67l147 -379q-9 -33 -51 -27l-240 301 q-18 24 -24.5 33t-13.5 23t-7 26z" />
<glyph unicode="&#xe9;" horiz-adv-x="757" d="M86 195q0 126 76.5 276t214.5 254q149 111 287 111q70 0 116.5 -44t46.5 -98q0 -44 -21 -84.5t-60 -73.5t-85.5 -61t-107.5 -51.5t-114.5 -41t-116.5 -34.5q-19 -55 -19 -133q0 -57 23.5 -87t66.5 -30q101 0 242 129q15 0 25.5 -13t7.5 -28q-79 -110 -180 -162.5 t-209 -52.5q-95 0 -144 65.5t-49 158.5zM338 418q81 29 133 59.5t100 79.5q35 35 55.5 80.5t20.5 73.5q0 22 -10 36.5t-29 14.5q-50 0 -123 -82q-97 -103 -147 -262zM545 952l213 353q39 62 73 59q11 -1 24 -7t20.5 -11.5t31.5 -22.5q24 -24 33 -38.5t6 -33.5 q-1 -6 -3.5 -12t-10 -14t-11.5 -12t-16.5 -15t-15.5 -14l-295 -266q-42 0 -49 34z" />
<glyph unicode="&#xea;" horiz-adv-x="757" d="M86 195q0 126 76.5 276t214.5 254q149 111 287 111q70 0 116.5 -44t46.5 -98q0 -44 -21 -84.5t-60 -73.5t-85.5 -61t-107.5 -51.5t-114.5 -41t-116.5 -34.5q-19 -55 -19 -133q0 -57 23.5 -87t66.5 -30q101 0 242 129q15 0 25.5 -13t7.5 -28q-79 -110 -180 -162.5 t-209 -52.5q-95 0 -144 65.5t-49 158.5zM338 418q81 29 133 59.5t100 79.5q35 35 55.5 80.5t20.5 73.5q0 22 -10 36.5t-29 14.5q-50 0 -123 -82q-97 -103 -147 -262zM354 934l293 393q36 47 64 47q31 0 41 -45l92 -403q-14 -28 -49 -25l-115 219q-10 20 -19 25.5t-18.5 0.5 t-26.5 -22l-221 -227q-19 -2 -30 8t-11 29z" />
<glyph unicode="&#xeb;" horiz-adv-x="757" d="M86 195q0 126 76.5 276t214.5 254q149 111 287 111q70 0 116.5 -44t46.5 -98q0 -44 -21 -84.5t-60 -73.5t-85.5 -61t-107.5 -51.5t-114.5 -41t-116.5 -34.5q-19 -55 -19 -133q0 -57 23.5 -87t66.5 -30q101 0 242 129q15 0 25.5 -13t7.5 -28q-79 -110 -180 -162.5 t-209 -52.5q-95 0 -144 65.5t-49 158.5zM338 418q81 29 133 59.5t100 79.5q35 35 55.5 80.5t20.5 73.5q0 22 -10 36.5t-29 14.5q-50 0 -123 -82q-97 -103 -147 -262zM379 1114q7 47 40.5 78t76.5 31q46 0 73 -31t21 -80q-6 -47 -39 -77.5t-82 -30.5q-46 0 -71.5 31.5 t-18.5 78.5zM717 1114q7 47 40.5 78t76.5 31q47 0 73.5 -31t20.5 -80q-6 -46 -40 -77t-79 -31q-46 0 -72.5 31.5t-19.5 78.5z" />
<glyph unicode="&#xec;" horiz-adv-x="595" d="M115 35q0 35 18 80l227 538q13 33 -4 33q-19 0 -72.5 -34t-103.5 -77q-15 0 -24 14.5t-4 26.5q80 93 192 156.5t184 63.5q22 0 42.5 -18t25.5 -40q5 -21 -23 -88l-229 -536q-16 -39 6 -39q25 0 93 47t112 94q17 0 27.5 -13t7.5 -28q-51 -77 -177 -160.5t-233 -83.5 q-24 0 -44.5 24t-20.5 40zM258 1303q0 18 11.5 31.5t39.5 31.5q49 27 74 27q37 0 63 -68l148 -379q-8 -32 -51 -26l-240 301q-18 24 -24.5 33t-13.5 23t-7 26z" />
<glyph unicode="&#xed;" horiz-adv-x="595" d="M115 35q0 35 18 80l227 538q13 33 -4 33q-19 0 -72.5 -34t-103.5 -77q-15 0 -24 14.5t-4 26.5q80 93 192 156.5t184 63.5q22 0 42.5 -18t25.5 -40q5 -21 -23 -88l-229 -536q-16 -39 6 -39q25 0 93 47t112 94q17 0 27.5 -13t7.5 -28q-51 -77 -177 -160.5t-233 -83.5 q-24 0 -44.5 24t-20.5 40zM446 946l213 352q40 63 74 60q11 -1 24 -7t20.5 -11.5t31.5 -22.5q24 -24 33 -38.5t6 -33.5q-1 -6 -3.5 -12t-10 -14t-11.5 -12t-16.5 -15t-15.5 -14l-295 -267q-20 0 -33.5 10t-16.5 25z" />
<glyph unicode="&#xee;" horiz-adv-x="595" d="M115 35q0 35 18 80l227 538q13 33 -4 33q-19 0 -72.5 -34t-103.5 -77q-15 0 -24 14.5t-4 26.5q80 93 192 156.5t184 63.5q22 0 42.5 -18t25.5 -40q5 -21 -23 -88l-229 -536q-16 -39 6 -39q25 0 93 47t112 94q17 0 27.5 -13t7.5 -28q-51 -77 -177 -160.5t-233 -83.5 q-24 0 -44.5 24t-20.5 40zM233 934l293 393q36 47 64 47q31 0 41 -45l92 -403q-14 -28 -49 -25l-111 217q-9 16 -16 22t-17.5 2.5t-25.5 -18.5l-230 -227q-19 -2 -30 8t-11 29z" />
<glyph unicode="&#xef;" horiz-adv-x="595" d="M115 35q0 35 18 80l227 538q13 33 -4 33q-19 0 -72.5 -34t-103.5 -77q-15 0 -24 14.5t-4 26.5q80 93 192 156.5t184 63.5q22 0 42.5 -18t25.5 -40q5 -21 -23 -88l-229 -536q-16 -39 6 -39q25 0 93 47t112 94q17 0 27.5 -13t7.5 -28q-51 -77 -177 -160.5t-233 -83.5 q-24 0 -44.5 24t-20.5 40zM279 1114q7 47 40 78t76 31q46 0 73 -31t21 -80q-6 -47 -39 -77.5t-81 -30.5q-46 0 -71.5 31.5t-18.5 78.5zM616 1114q7 47 40.5 78t76.5 31q47 0 73.5 -31t20.5 -80q-6 -46 -39.5 -77t-78.5 -31q-46 0 -73 31.5t-20 78.5z" />
<glyph unicode="&#xf0;" horiz-adv-x="888" d="M94 260q5 103 64 229.5t155 217.5q72 68 147 98.5t130 30.5q45 0 102 -21q3 54 -11 132t-38 132l-270 -123q-18 6 -26.5 34.5t1.5 43.5l268 125q-29 85 -98 160q-66 66 -153 96q-11 34 20 49q108 -18 188 -69q120 -79 177 -178l266 120q21 -6 27.5 -34t-3.5 -46 l-245 -110q98 -178 94 -436q-3 -162 -61 -321.5t-160 -264.5q-147 -154 -320 -154q-128 0 -193.5 78.5t-60.5 210.5zM283 158q-1 -53 20.5 -83t56.5 -30q36 0 73 28.5t83 92.5q58 78 112.5 231t55.5 252q2 47 -17.5 80t-56.5 33q-67 0 -131 -88q-72 -98 -133.5 -253.5 t-62.5 -262.5z" />
<glyph unicode="&#xf1;" horiz-adv-x="1073" d="M119 41q3 12 53 146.5t103 279t61 166.5q22 61 -8 61q-29 0 -79.5 -31.5t-96.5 -74.5q-14 0 -23.5 10t-9.5 23q54 84 153.5 149.5t198.5 65.5q35 0 53 -17.5t17 -41.5t-9 -48l-124 -317h8q46 65 84.5 115t93.5 111.5t103 101.5t104.5 68t107.5 28q63 0 93 -33.5t30 -81.5 q0 -64 -37 -162q-22 -58 -91 -221.5t-77 -183.5q-16 -41 4 -41q25 0 85.5 44.5t103.5 94.5q18 3 27.5 -7t9.5 -30q-58 -95 -169 -169.5t-224 -74.5q-27 0 -48.5 21.5t-21.5 44.5q0 34 37 121q79 183 172 413q33 85 33 123q0 35 -29 35t-90 -49t-127 -133 q-138 -177 -311 -543q-16 -33 -70 -33q-23 0 -44.5 5t-37.5 22t-8 43zM504 932q7 37 33 99.5t51 90.5q29 32 58.5 43t74.5 11h113q85 0 118 26q32 23 49 64q7 3 24.5 1.5t23.5 -7.5q-10 -47 -37 -103t-49 -78q-25 -25 -47.5 -33t-61.5 -8h-125q-84 0 -121 -37 q-27 -19 -61 -81q-35 -4 -43 12z" />
<glyph unicode="&#xf2;" horiz-adv-x="892" d="M100 240q3 114 62.5 242.5t152.5 215.5q151 138 312 138q129 0 191.5 -77.5t60.5 -201.5q-2 -105 -53.5 -228.5t-147.5 -215.5q-144 -142 -324 -142q-124 0 -190.5 75.5t-63.5 193.5zM289 152q0 -47 19.5 -77t53.5 -30q37 0 74 28t82 93q59 85 115.5 237.5t56.5 247.5 q0 32 -4 54t-19 39.5t-42 17.5q-63 0 -133 -90q-76 -99 -139.5 -255t-63.5 -265zM434 1294q0 18 11.5 32t39.5 32q47 26 74 26q38 0 64 -67l147 -379q-9 -33 -51 -27l-240 301q-18 24 -24.5 33t-13.5 23t-7 26z" />
<glyph unicode="&#xf3;" horiz-adv-x="892" d="M100 240q3 114 62.5 242.5t152.5 215.5q151 138 312 138q129 0 191.5 -77.5t60.5 -201.5q-2 -105 -53.5 -228.5t-147.5 -215.5q-144 -142 -324 -142q-124 0 -190.5 75.5t-63.5 193.5zM289 152q0 -47 19.5 -77t53.5 -30q37 0 74 28t82 93q59 85 115.5 237.5t56.5 247.5 q0 32 -4 54t-19 39.5t-42 17.5q-63 0 -133 -90q-76 -99 -139.5 -255t-63.5 -265zM588 952l213 353q39 62 73 59q11 -1 24 -7t20.5 -11.5t31.5 -22.5q24 -24 33 -38.5t6 -33.5q-1 -6 -3.5 -12t-10 -14t-11.5 -12t-16.5 -15t-15.5 -14l-295 -266q-42 0 -49 34z" />
<glyph unicode="&#xf4;" horiz-adv-x="892" d="M100 240q3 114 62.5 242.5t152.5 215.5q151 138 312 138q129 0 191.5 -77.5t60.5 -201.5q-2 -105 -53.5 -228.5t-147.5 -215.5q-144 -142 -324 -142q-124 0 -190.5 75.5t-63.5 193.5zM289 152q0 -47 19.5 -77t53.5 -30q37 0 74 28t82 93q59 85 115.5 237.5t56.5 247.5 q0 32 -4 54t-19 39.5t-42 17.5q-63 0 -133 -90q-76 -99 -139.5 -255t-63.5 -265zM385 940l293 395q36 47 61 47q31 0 41 -45l92 -403q-12 -28 -49 -25l-110 217q-8 16 -15.5 21.5t-17 2t-25.5 -19.5l-231 -225q-39 -3 -39 35z" />
<glyph unicode="&#xf5;" horiz-adv-x="892" d="M100 240q3 114 62.5 242.5t152.5 215.5q151 138 312 138q129 0 191.5 -77.5t60.5 -201.5q-2 -105 -53.5 -228.5t-147.5 -215.5q-144 -142 -324 -142q-124 0 -190.5 75.5t-63.5 193.5zM289 152q0 -47 19.5 -77t53.5 -30q37 0 74 28t82 93q59 85 115.5 237.5t56.5 247.5 q0 32 -4 54t-19 39.5t-42 17.5q-63 0 -133 -90q-76 -99 -139.5 -255t-63.5 -265zM414 932q7 37 33 99.5t51 90.5q29 32 58.5 43t74.5 11h112q86 0 119 26q32 23 49 64q7 3 24 1.5t23 -7.5q-10 -47 -37 -103t-49 -78q-25 -25 -47 -33t-61 -8h-125q-84 0 -121 -37 q-27 -19 -61 -81q-35 -4 -43 12z" />
<glyph unicode="&#xf6;" horiz-adv-x="892" d="M100 240q3 114 62.5 242.5t152.5 215.5q151 138 312 138q129 0 191.5 -77.5t60.5 -201.5q-2 -105 -53.5 -228.5t-147.5 -215.5q-144 -142 -324 -142q-124 0 -190.5 75.5t-63.5 193.5zM289 152q0 -47 19.5 -77t53.5 -30q37 0 74 28t82 93q59 85 115.5 237.5t56.5 247.5 q0 32 -4 54t-19 39.5t-42 17.5q-63 0 -133 -90q-76 -99 -139.5 -255t-63.5 -265zM442 1114q7 47 40.5 78t76.5 31q46 0 73 -31t21 -80q-6 -47 -39 -77.5t-82 -30.5q-46 0 -71.5 31.5t-18.5 78.5zM780 1114q7 47 40.5 78t76.5 31q47 0 73.5 -31t20.5 -80q-6 -46 -40 -77 t-79 -31q-46 0 -72.5 31.5t-19.5 78.5z" />
<glyph unicode="&#xf7;" d="M152 356v129h788v-129h-788zM434 152q0 40 31.5 71t75.5 31q41 0 71.5 -31t30.5 -71q0 -44 -30.5 -75.5t-71.5 -31.5q-44 0 -75.5 31.5t-31.5 75.5zM434 694q0 40 31.5 71.5t75.5 31.5q41 0 71.5 -31.5t30.5 -71.5q0 -44 -30 -75t-72 -31q-44 0 -75.5 31t-31.5 75z" />
<glyph unicode="&#xf8;" horiz-adv-x="892" d="M100 240q3 116 62.5 244.5t156.5 220.5q142 131 310 131q49 0 102 -17l57 82q15 3 32.5 -6t23.5 -29l-53 -82q88 -68 88 -229q-2 -103 -53.5 -226t-147.5 -216q-144 -142 -324 -142q-66 0 -114 25l-70 -98q-17 -4 -33 9t-18 32l63 90q-85 76 -82 211zM274 166l5 -4 l397 575q-22 25 -60 25q-35 0 -73.5 -27.5t-96.5 -101.5q-59 -75 -113.5 -215t-58.5 -252zM297 78q23 -33 65 -33q88 0 175 121q67 94 118.5 234t51.5 237q0 17 -2 27z" />
<glyph unicode="&#xf9;" horiz-adv-x="1064" d="M119 592q59 85 173 164.5t216 79.5q30 0 54 -23t24 -51q0 -18 -13 -55l-211 -527q-10 -28 -5.5 -42.5t20.5 -14.5q33 0 149 110q185 178 385 594q24 9 62 9q33 0 63.5 -13t38.5 -28q-16 -42 -63 -161.5t-94.5 -242t-83.5 -221.5q-20 -55 10 -55q26 0 89 49.5t107 99.5 q37 0 37 -37q-47 -83 -172 -169.5t-225 -86.5q-35 0 -55 27t-7 63l127 330h-4q-71 -95 -157.5 -186t-184.5 -162.5t-161 -71.5q-41 0 -70 30.5t-29 68.5q0 34 25 100l182 465q19 53 -6 53q-28 0 -83 -43t-105 -94q-38 8 -33 41zM463 1294q0 18 11.5 32t39.5 32q47 26 74 26 q37 0 63 -67l148 -379q-9 -33 -51 -27l-240 301q-18 24 -24.5 33t-13.5 23t-7 26z" />
<glyph unicode="&#xfa;" horiz-adv-x="1064" d="M119 592q59 85 173 164.5t216 79.5q30 0 54 -23t24 -51q0 -18 -13 -55l-211 -527q-10 -28 -5.5 -42.5t20.5 -14.5q33 0 149 110q185 178 385 594q24 9 62 9q33 0 63.5 -13t38.5 -28q-16 -42 -63 -161.5t-94.5 -242t-83.5 -221.5q-20 -55 10 -55q26 0 89 49.5t107 99.5 q37 0 37 -37q-47 -83 -172 -169.5t-225 -86.5q-35 0 -55 27t-7 63l127 330h-4q-71 -95 -157.5 -186t-184.5 -162.5t-161 -71.5q-41 0 -70 30.5t-29 68.5q0 34 25 100l182 465q19 53 -6 53q-28 0 -83 -43t-105 -94q-38 8 -33 41zM662 946l212 352q40 63 74 60q11 -1 24 -7 t20.5 -11.5t31.5 -22.5q24 -24 33 -38.5t6 -33.5q-1 -6 -3.5 -12t-10 -14t-11.5 -12t-16.5 -15t-15.5 -14l-295 -267q-42 0 -49 35z" />
<glyph unicode="&#xfb;" horiz-adv-x="1064" d="M119 592q59 85 173 164.5t216 79.5q30 0 54 -23t24 -51q0 -18 -13 -55l-211 -527q-10 -28 -5.5 -42.5t20.5 -14.5q33 0 149 110q185 178 385 594q24 9 62 9q33 0 63.5 -13t38.5 -28q-16 -42 -63 -161.5t-94.5 -242t-83.5 -221.5q-20 -55 10 -55q26 0 89 49.5t107 99.5 q37 0 37 -37q-47 -83 -172 -169.5t-225 -86.5q-35 0 -55 27t-7 63l127 330h-4q-71 -95 -157.5 -186t-184.5 -162.5t-161 -71.5q-41 0 -70 30.5t-29 68.5q0 34 25 100l182 465q19 53 -6 53q-28 0 -83 -43t-105 -94q-38 8 -33 41zM481 952l293 396q36 47 62 47q31 0 41 -45 l92 -404q-12 -27 -49 -24l-111 217q-12 23 -25.5 24t-33.5 -18l-230 -227q-39 -3 -39 34z" />
<glyph unicode="&#xfc;" horiz-adv-x="1064" d="M119 592q59 85 173 164.5t216 79.5q30 0 54 -23t24 -51q0 -18 -13 -55l-211 -527q-10 -28 -5.5 -42.5t20.5 -14.5q33 0 149 110q185 178 385 594q24 9 62 9q33 0 63.5 -13t38.5 -28q-16 -42 -63 -161.5t-94.5 -242t-83.5 -221.5q-20 -55 10 -55q26 0 89 49.5t107 99.5 q37 0 37 -37q-47 -83 -172 -169.5t-225 -86.5q-35 0 -55 27t-7 63l127 330h-4q-71 -95 -157.5 -186t-184.5 -162.5t-161 -71.5q-41 0 -70 30.5t-29 68.5q0 34 25 100l182 465q19 53 -6 53q-28 0 -83 -43t-105 -94q-38 8 -33 41zM492 1114q7 47 40 78t76 31q46 0 73 -31 t21 -80q-6 -47 -39 -77.5t-81 -30.5q-46 0 -71.5 31.5t-18.5 78.5zM864 1114q7 47 40.5 78t76.5 31q47 0 73.5 -31t20.5 -80q-6 -46 -40 -77t-79 -31q-46 0 -72.5 31.5t-19.5 78.5z" />
<glyph unicode="&#xfd;" horiz-adv-x="815" d="M-193 -442q-1 51 29.5 82.5t73.5 31.5q23 0 38 -10.5t32 -32.5t25 -31t20 -16.5t26 -7.5q64 0 115 51q38 38 71.5 103t53.5 143q44 158 35 451q-9 352 -76 352q-50 0 -125 -158q-15 -9 -32.5 -1.5t-20.5 22.5q16 52 40 100.5t57.5 95t79 75t95.5 28.5q79 0 119 -97.5 t43 -263.5q3 -239 -27 -426h8q102 171 181 459q16 57 29.5 136t15.5 114q3 42 18.5 57.5t40.5 15.5q43 0 76 -20q26 -17 26 -53q0 -29 -20.5 -106.5t-79.5 -220.5t-141 -284q-91 -155 -171.5 -275t-176.5 -226q-179 -197 -344 -197q-55 0 -94.5 32t-39.5 77zM528 950 l213 353q40 62 74 59q11 -1 24 -7t20.5 -11.5t31.5 -22.5q24 -24 33 -38.5t6 -33.5q-1 -6 -4 -12t-10 -13.5t-12 -12.5t-16 -15t-16 -14l-294 -267q-20 0 -33.5 10t-16.5 25z" />
<glyph unicode="&#xfe;" horiz-adv-x="974" d="M-224.5 -519.5q-2.5 20.5 9.5 30.5l57 8q36 5 59 15t40 34.5t26 46t27 72.5l354 999q-76 -14 -205 -82q-18 3 -26 20t2 29q52 38 124.5 74.5t137.5 54.5l108 299q28 83 25.5 108.5t-31.5 41.5l-47 24q-15 22 4 41q45 16 151 38t177 28q12 -12 12 -16q-7 -20 -44 -118.5 t-70 -195.5l-82 -233q14 4 59 4q141 0 228 -67.5t87 -196.5q0 -108 -58 -218t-155 -200q-80 -75 -179.5 -112.5t-180.5 -37.5q-17 0 -70 17q-23 -6 -32 -37l-88 -260q-16 -46 -22 -72t-4 -45.5t16 -28t42 -10.5l86 -8q13 -9 9.5 -29t-21.5 -26q-256 0 -508 -21 q-15 9 -17.5 29.5zM356 158q-13 -41 6 -72q26 -41 62 -41q32 0 85.5 32.5t100.5 100.5q63 89 97 193t34 192q0 78 -40.5 118t-98.5 40q-21 0 -45 -4z" />
<glyph unicode="&#xff;" horiz-adv-x="815" d="M-193 -442q-1 51 29.5 82.5t73.5 31.5q23 0 38 -10.5t32 -32.5t25 -31t20 -16.5t26 -7.5q64 0 115 51q38 38 71.5 103t53.5 143q44 158 35 451q-9 352 -76 352q-50 0 -125 -158q-15 -9 -32.5 -1.5t-20.5 22.5q16 52 40 100.5t57.5 95t79 75t95.5 28.5q79 0 119 -97.5 t43 -263.5q3 -239 -27 -426h8q102 171 181 459q16 57 29.5 136t15.5 114q3 42 18.5 57.5t40.5 15.5q43 0 76 -20q26 -17 26 -53q0 -29 -20.5 -106.5t-79.5 -220.5t-141 -284q-91 -155 -171.5 -275t-176.5 -226q-179 -197 -344 -197q-55 0 -94.5 32t-39.5 77zM313 1108 q7 47 40.5 78t76.5 31q46 0 73 -31t21 -80q-6 -47 -39.5 -78t-81.5 -31q-46 0 -71.5 32t-18.5 79zM662 1108q7 47 40 78t76 31q47 0 73.5 -31t20.5 -80q-6 -46 -39.5 -77.5t-78.5 -31.5q-46 0 -72.5 32t-19.5 79z" />
<glyph unicode="&#x152;" horiz-adv-x="2072" d="M219 543q0 181 92 348.5t242 277.5q264 195 655 195q132 0 234 -6q12 0 83.5 -3t108.5 -3h330q187 0 293 8q-12 -27 -42.5 -122t-51.5 -175q-9 -13 -34 -13.5t-30 13.5q5 77 -1.5 114.5t-37.5 57.5q-65 37 -196 37h-135q-45 0 -60.5 -12t-30.5 -60l-122 -393 q-14 -43 -8.5 -51t48.5 -8h111q114 0 156 19t78 89l28 55q12 12 37.5 10t28.5 -14q-14 -36 -74 -209q-24 -70 -55 -206q-12 -10 -36 -10t-30 10l4 53q6 73 -27 91.5t-139 18.5h-106q-42 0 -55 -9t-25 -48l-84 -262q-51 -160 -31 -209q11 -25 53.5 -36t153.5 -11 q70 0 109.5 3t84.5 14.5t78.5 36t72 65t83.5 104.5q12 10 34.5 6t31.5 -18q-27 -73 -72 -166.5t-78 -130.5q-328 10 -485 6l-92 -2q-54 -1 -191.5 -8.5t-220.5 -7.5q-147 0 -264 30.5t-193.5 82.5t-127.5 125t-73 153t-22 170zM465 520q0 -219 109.5 -339t314.5 -120 q41 0 69 5.5t58.5 22t54 52.5t41.5 92l287 918q17 54 11 75.5t-40 33.5q-68 24 -162 24q-140 0 -263 -47.5t-209 -126t-148.5 -178.5t-92.5 -205.5t-30 -206.5z" />
<glyph unicode="&#x153;" horiz-adv-x="1255" d="M100 248q2 112 59.5 240t157.5 219q143 129 304 129q80 0 131.5 -47t58.5 -130q23 23 47 43q164 134 303 134q70 0 117 -44t47 -98q0 -53 -32 -101t-80.5 -83t-119.5 -67t-136 -53t-144 -42q-20 -48 -20 -133q0 -52 25 -84.5t73 -32.5q101 0 242 129q15 0 25 -13t7 -28 q-79 -110 -176 -162.5t-196 -52.5q-129 0 -177 135q-126 -135 -270 -135q-118 0 -183 76.5t-63 200.5zM293 154q0 -52 19 -80.5t55 -28.5q69 0 151 121q58 83 112.5 235.5t55.5 247.5q2 46 -13 77.5t-52 31.5q-62 0 -127 -84q-78 -99 -139.5 -254t-61.5 -266zM834 426 q73 18 125 48.5t102 82.5q35 35 55.5 80.5t20.5 73.5q0 22 -10 36.5t-29 14.5q-50 0 -123 -82q-53 -55 -90 -126.5t-51 -127.5z" />
<glyph unicode="&#x178;" horiz-adv-x="1204" d="M242.5 25q0.5 22 15.5 28l78 13q25 2 40.5 5t31 13t26 23.5t23 41t24 60.5t27.5 86l33 104q25 81 28.5 129t-10.5 129q-26 146 -96 486q-14 75 -35.5 105t-73.5 40l-53 10q-12 12 -9.5 32.5t19.5 27.5q102 -4 133 -4q41 -2 119 -2q143 0 250 8q15 -7 15 -30t-13 -32 l-67 -12q-56 -10 -70 -27t-6 -63q62 -330 106 -537l283 359q103 128 153 205q22 30 16.5 43t-46.5 22l-51 10q-15 9 -13 30.5t17 29.5q135 -6 227 -6q114 0 203 6q12 -7 11.5 -29t-15.5 -31l-52 -10q-64 -12 -108 -41t-115 -108q-100 -111 -368 -443q-46 -57 -62 -80 t-37 -67.5t-43 -116.5l-43 -137q-19 -61 -27.5 -94.5t-11.5 -61t7.5 -40t28 -20.5t50.5 -13l74 -13q9 -6 6.5 -29t-14.5 -30q-188 6 -303 6q-135 0 -291 -6q-12 9 -11.5 31zM674 1561q7 49 42 80.5t81 31.5q48 0 76 -32t22 -82t-40.5 -82.5t-86.5 -32.5q-48 0 -74.5 33 t-19.5 84zM1083 1561q7 49 42 80.5t81 31.5q48 0 76.5 -32t22.5 -82t-41.5 -82.5t-85.5 -32.5q-48 0 -75 33t-20 84z" />
<glyph unicode="&#x2c6;" horiz-adv-x="778" d="M362 954l293 394q36 47 64 47q31 0 41 -45l92 -404q-13 -27 -49 -24l-109 221q-9 20 -17.5 25.5t-17.5 0.5t-26 -22l-230 -229q-41 -3 -41 36z" />
<glyph unicode="&#x2dc;" horiz-adv-x="778" d="M406 952q7 38 32.5 100.5t50.5 90.5q29 32 58.5 42.5t75.5 10.5h112q85 0 119 27q33 23 49 63q7 3 24 1.5t23 -7.5q-10 -47 -37 -102.5t-49 -77.5q-25 -25 -47 -33t-61 -8h-125q-84 0 -121 -37q-26 -18 -61 -82q-35 -4 -43 12z" />
<glyph unicode="&#x2000;" horiz-adv-x="905" />
<glyph unicode="&#x2001;" horiz-adv-x="1810" />
<glyph unicode="&#x2002;" horiz-adv-x="905" />
<glyph unicode="&#x2003;" horiz-adv-x="1810" />
<glyph unicode="&#x2004;" horiz-adv-x="603" />
<glyph unicode="&#x2005;" horiz-adv-x="452" />
<glyph unicode="&#x2006;" horiz-adv-x="301" />
<glyph unicode="&#x2007;" horiz-adv-x="301" />
<glyph unicode="&#x2008;" horiz-adv-x="226" />
<glyph unicode="&#x2009;" horiz-adv-x="362" />
<glyph unicode="&#x200a;" horiz-adv-x="100" />
<glyph unicode="&#x2010;" horiz-adv-x="655" d="M117 399q0 38 18 68l488 45q18 -18 18 -68q0 -41 -18 -65l-488 -45q-18 18 -18 65z" />
<glyph unicode="&#x2011;" horiz-adv-x="655" d="M117 399q0 38 18 68l488 45q18 -18 18 -68q0 -41 -18 -65l-488 -45q-18 18 -18 65z" />
<glyph unicode="&#x2012;" horiz-adv-x="655" d="M117 399q0 38 18 68l488 45q18 -18 18 -68q0 -41 -18 -65l-488 -45q-18 18 -18 65z" />
<glyph unicode="&#x2013;" horiz-adv-x="1024" d="M29 358l41 125h1024l-41 -125h-1024z" />
<glyph unicode="&#x2014;" horiz-adv-x="2048" d="M29 358l41 125h2048l-39 -125h-2050z" />
<glyph unicode="&#x2018;" horiz-adv-x="495" d="M375 1124q0 109 100.5 196.5t243.5 123.5q14 -6 18.5 -23.5t-2.5 -29.5q-78 -29 -137 -83t-59 -122q0 -57 65 -86q37 -18 37 -58q0 -43 -32.5 -74.5t-78.5 -31.5q-65 0 -110 53t-45 135z" />
<glyph unicode="&#x2019;" horiz-adv-x="495" d="M333.5 949.5q-4.5 17.5 2.5 29.5q78 29 137 83t59 122q0 57 -65 86q-37 18 -37 57q0 43 33 75t78 32q65 0 110 -53.5t45 -135.5q0 -109 -100.5 -196t-243.5 -123q-14 6 -18.5 23.5z" />
<glyph unicode="&#x201a;" horiz-adv-x="495" d="M-39 -250.5q-5 17.5 2 29.5q78 29 137.5 83.5t59.5 121.5q0 57 -66 86q-37 18 -37 57q0 43 32.5 74.5t78.5 31.5q66 0 111 -53t45 -135q0 -109 -100.5 -196t-243.5 -123q-14 6 -19 23.5z" />
<glyph unicode="&#x201c;" horiz-adv-x="880" d="M375 1124q0 109 100.5 196.5t243.5 123.5q14 -6 18.5 -23.5t-2.5 -29.5q-78 -29 -137 -83t-59 -122q0 -57 65 -86q37 -18 37 -58q0 -43 -32.5 -74.5t-78.5 -31.5q-65 0 -110 53t-45 135zM760 1124q0 109 100.5 196.5t243.5 123.5q14 -6 18.5 -23.5t-2.5 -29.5 q-78 -29 -137 -83t-59 -122q0 -57 65 -86q37 -18 37 -58q0 -43 -32.5 -74.5t-78.5 -31.5q-65 0 -110 53t-45 135z" />
<glyph unicode="&#x201d;" horiz-adv-x="880" d="M333.5 949.5q-4.5 17.5 2.5 29.5q78 29 137 83t59 122q0 57 -65 86q-37 18 -37 57q0 43 33 75t78 32q65 0 110 -53.5t45 -135.5q0 -109 -100.5 -196t-243.5 -123q-14 6 -18.5 23.5zM718.5 949.5q-4.5 17.5 2.5 29.5q78 29 137.5 83.5t59.5 121.5q0 57 -66 86 q-37 18 -37 57q0 43 33 75t78 32q65 0 110 -53.5t45 -135.5q0 -109 -100.5 -196t-243.5 -123q-14 6 -18.5 23.5z" />
<glyph unicode="&#x201e;" horiz-adv-x="880" d="M-39 -250.5q-5 17.5 2 29.5q78 29 137.5 83.5t59.5 121.5q0 57 -66 86q-37 18 -37 57q0 43 32.5 74.5t78.5 31.5q66 0 111 -53t45 -135q0 -109 -100.5 -196t-243.5 -123q-14 6 -19 23.5zM346 -250.5q-5 17.5 2 29.5q78 29 137.5 83.5t59.5 121.5q0 57 -66 86 q-37 18 -37 57q0 43 32.5 74.5t78.5 31.5q66 0 111 -53t45 -135q0 -109 -100.5 -196t-243.5 -123q-14 6 -19 23.5z" />
<glyph unicode="&#x2022;" horiz-adv-x="819" d="M238 688q0 129 88.5 217t216.5 88t216.5 -88t88.5 -217q0 -128 -88.5 -215.5t-216.5 -87.5t-216.5 87.5t-88.5 215.5z" />
<glyph unicode="&#x2026;" horiz-adv-x="2048" d="M131 90q0 66 42.5 113t105.5 47q52 0 81 -33.5t29 -89.5q0 -67 -42 -111.5t-101 -44.5q-53 0 -84 32t-31 87zM813 90q0 66 42.5 113t105.5 47q52 0 81 -33.5t29 -89.5q0 -67 -42 -111.5t-101 -44.5q-53 0 -84 32t-31 87zM1495 90q0 66 42 113t105 47q52 0 81.5 -33.5 t29.5 -89.5q0 -67 -42 -111.5t-101 -44.5q-53 0 -84 32t-31 87z" />
<glyph unicode="&#x202f;" horiz-adv-x="362" />
<glyph unicode="&#x2039;" horiz-adv-x="565" d="M143 422.5q3 14.5 25 36.5q69 64 187.5 179t152.5 148q15 3 26.5 -5t14.5 -23l-217 -307q-16 -23 -8 -54l86 -315q-3 -12 -16.5 -20t-28.5 -5q-158 254 -213 332q-12 19 -9 33.5z" />
<glyph unicode="&#x203a;" horiz-adv-x="565" d="M139 86l219 307q18 24 11 53l-93 316q6 12 20.5 19.5t29.5 4.5q152 -245 213 -331q12 -19 8.5 -33.5t-25.5 -36.5q-68 -63 -185 -177t-155 -151q-32 -6 -43 29z" />
<glyph unicode="&#x205f;" horiz-adv-x="452" />
<glyph unicode="&#x20ac;" d="M195 512q-7 14 3 42.5t33 39.5h95q6 39 26 108h-92q-7 14 3 42.5t34 39.5h88q103 251 312 388t489 137q55 0 111.5 -9t85.5 -17t75 -24t47 -16q-34 -82 -92 -280q-7 -11 -31.5 -10t-27.5 14q40 266 -189 266q-175 0 -322 -127t-222 -322h612q5 -22 -4.5 -46.5 t-32.5 -35.5h-606q-22 -64 -29 -108h580q4 -20 -7 -45t-30 -37h-555q-4 -36 -4 -57q-4 -204 77 -308t199 -104t210.5 68t187.5 202q14 9 30.5 6.5t24.5 -14.5q-41 -130 -133 -291q-22 -2 -71.5 -13t-72.5 -15q-131 -19 -186 -19q-107 0 -198 32.5t-159.5 95t-106 160 t-34.5 220.5q0 25 2 37h-120z" />
<glyph unicode="&#x2122;" horiz-adv-x="1310" d="M379 1237q10 62 27 137q3 8 15 8t15 -8q12 -15 21.5 -18.5t38.5 -3.5h247q17 0 23 0.5t15 5.5t20 16q5 8 16 8t12 -8q-11 -66 -8 -143q-3 -12 -18.5 -12.5t-18.5 8.5q-8 38 -24 54.5t-51 16.5h-27q-10 0 -12 -3t-2 -19v-195q0 -49 5.5 -65.5t28.5 -20.5l31 -6q6 -5 5 -21 t-7 -18q-43 2 -139 2q-78 0 -115 -2q-5 3 -5 18t5 21l31 6q22 4 28.5 24t6.5 68v189q0 16 -3 19t-20 3h-14q-33 0 -54 -15.5t-34 -51.5q-4 -11 -21 -8.5t-18 14.5zM872 968q-1 15 2 21l13 2q27 4 37 15t12 32q16 144 16 217q0 29 -11 41t-36 15l-14 4q-12 3 -11 20t13 19 q17 0 42 -1t36 -1q57 0 129 2q0 -21 43 -109l37 -71q16 -31 24 -31q11 0 23 24l33 72q38 88 45 115q61 -2 94 -2q73 0 96 2q9 -1 9.5 -18.5t-7.5 -20.5l-18 -4q-24 -3 -30.5 -12.5t-6.5 -34.5q0 -130 6 -209q1 -33 6.5 -43t20.5 -15l28 -8q9 -3 9 -19.5t-9 -19.5 q-27 2 -119 2q-77 0 -106 -2q-5 3 -5.5 19.5t5.5 19.5l29 8q12 3 17.5 9t6 12.5t0.5 25.5l-4 191q0 20 -4 20q-5 0 -37 -81l-37 -87q-40 -91 -55 -137q-28 -9 -49 2q-3 14 -11 35t-19 47t-15 35l-43 109q-34 84 -45 90q-3 -5 -8 -101q-1 -16 -1 -37.5t0.5 -46.5t0.5 -34 q2 -33 8.5 -44t29.5 -14l19 -2q1 -5 1 -18t-1 -21q-20 2 -92 2q-69 0 -92 -2q-4 3 -5 18z" />
<glyph unicode="&#x25fc;" horiz-adv-x="839" d="M0 0v840h840v-840h-840z" />
</font>
</defs>
</svg>
