<?xml version="1.0" standalone="no"?>
<!DOCTYPE svg PUBLIC "-//W3C//DTD SVG 1.1//EN" "http://www.w3.org/Graphics/SVG/1.1/DTD/svg11.dtd" >
<svg xmlns="http://www.w3.org/2000/svg" xmlns:xlink="http://www.w3.org/1999/xlink" version="1.1">
<metadata></metadata>
<defs>
<font id="adobe_garamond_proitalic" horiz-adv-x="500" >
<font-face units-per-em="1000" ascent="725" descent="-275" />
<missing-glyph horiz-adv-x="250" />
<glyph unicode="&#xfb01;" horiz-adv-x="503" d="M-145 -218q0 22 19 36q15 13 29 -9q23 -37 60 -37t63 83q27 88 68 257t64 245h-83q-7 8 -5 19.5t12 17.5h86q51 170 117 240q77 81 166 81q48 0 78.5 -22t30.5 -57q0 -21 -15 -32t-32 -11q-29 0 -29 25q0 67 -51 67t-94 -57q-21 -29 -41 -73.5t-30 -73.5t-28 -87h95 q30 0 84 7q40 7 49 7q29 0 8 -53l-114 -285q-9 -22 3 -22q13 0 46 23t58 51q15 -2 15 -17q-15 -28 -78 -73.5t-109 -45.5q-9 0 -16 9q-9 11 -3 27l118 304q8 18 2.5 24.5t-31.5 6.5h-137q-3 -10 -11.5 -39t-11.5 -40q-10 -33 -42 -151t-52 -181q-38 -127 -79 -164 q-51 -51 -114 -51q-31 0 -48 17.5t-17 33.5z" />
<glyph unicode="&#xfb02;" horiz-adv-x="489" d="M-145 -218q0 22 19 36q15 13 29 -9q23 -37 60 -37t63 83q27 88 68 257t64 245h-82q-7 7 -5 18.5t12 18.5h85q48 165 115 242q71 79 157 79q47 0 81 -32q38 25 59 32l7 -6q-17 -45 -61 -172l-160 -472q-11 -33 5 -33q26 0 115 101q16 2 16 -14q-26 -50 -71.5 -91.5 t-101.5 -41.5q-38 0 -38 30q0 19 22 85l87 256h-170q-3 -10 -11.5 -39t-11.5 -40q-10 -33 -42 -151t-52 -181q-38 -127 -79 -164q-51 -51 -114 -51q-31 0 -48 17.5t-17 33.5zM240 394h172l71 207q12 35 -5 59.5t-50 24.5q-49 0 -88 -52q-50 -68 -100 -239z" />
<glyph unicode="&#xfb03;" horiz-adv-x="746" d="M-145 -218q0 20 19 36q15 13 29 -9q23 -37 60 -37t63 83q27 88 68 257t64 245h-82q-8 7 -6.5 18.5t11.5 18.5h88q43 148 100 215q68 82 159 82q40 0 65.5 -17t22.5 -48l2 -2q80 91 179 91q48 0 78.5 -22t30.5 -57q0 -21 -15 -32t-32 -11q-29 0 -29 25q0 67 -51 67 q-50 0 -96 -57q-45 -57 -100 -234h95q38 0 84 7t49 7q29 0 8 -53l-114 -285q-9 -22 3 -22q13 0 46 23t58 51q15 -2 15 -17q-15 -28 -78 -73.5t-109 -45.5q-8 0 -16 9q-9 11 -3 27l118 304q8 18 2.5 24.5t-31.5 6.5h-137q-9 -33 -47.5 -169t-61.5 -210q-41 -133 -80 -172 q-51 -51 -114 -51q-31 0 -48 17.5t-17 33.5q0 20 19 36q15 13 29 -9q23 -37 60 -37q39 0 64 91q23 81 63.5 242.5t60.5 227.5h-171q-3 -10 -11.5 -39t-11.5 -40q-10 -33 -42 -151t-52 -181q-38 -127 -79 -164q-51 -51 -114 -51q-31 0 -48 17.5t-17 33.5zM239 394h172 q34 113 77 190q-3 34 -24.5 55.5t-48.5 21.5q-58 0 -100 -72q-39 -67 -76 -195z" />
<glyph unicode="&#xfb04;" horiz-adv-x="732" d="M-145 -218q0 20 19 36q15 13 29 -9q23 -37 60 -37t63 83q27 88 68 257t64 245h-82q-8 7 -6.5 18.5t11.5 18.5h88q43 148 100 215q68 82 159 82q40 0 65.5 -17t22.5 -48l2 -2q76 91 165 91q47 0 81 -32q38 25 59 32l7 -6q-17 -45 -61 -172l-160 -472q-11 -33 5 -33 q26 0 115 101q16 2 16 -14q-26 -50 -71.5 -91.5t-101.5 -41.5q-38 0 -38 30q0 19 22 85l87 256h-170q-9 -33 -47.5 -169t-61.5 -210q-41 -133 -80 -172q-51 -51 -114 -51q-31 0 -48 17.5t-17 33.5q0 20 19 36q15 13 29 -9q23 -37 60 -37q39 0 64 91q23 81 63.5 242.5 t60.5 227.5h-171q-3 -10 -11.5 -39t-11.5 -40q-10 -33 -42 -151t-52 -181q-38 -127 -79 -164q-51 -51 -114 -51q-31 0 -48 17.5t-17 33.5zM239 394h172q34 113 77 190q-3 34 -24.5 55.5t-48.5 21.5q-58 0 -100 -72q-39 -67 -76 -195zM483 394h172l71 207q12 35 -5 59.5 t-50 24.5q-48 0 -89 -51q-48 -60 -99 -240z" />
<glyph horiz-adv-x="0" />
<glyph horiz-adv-x="333" />
<glyph unicode=" "  horiz-adv-x="250" />
<glyph unicode="&#x09;" horiz-adv-x="250" />
<glyph unicode="&#xa0;" horiz-adv-x="250" />
<glyph unicode="!" horiz-adv-x="206" d="M28 33q0 26 17.5 44t39.5 18q21 0 32.5 -13.5t11.5 -31.5q0 -29 -17 -46.5t-40 -17.5q-21 0 -32.5 12.5t-11.5 34.5zM109 205l69 323q14 68 20 87q6 20 16.5 25.5t36.5 5.5q28 0 37 -8.5t4 -23.5q-2 -5 -5.5 -14t-11.5 -29.5t-16 -40.5l-124 -325q-3 -6 -12.5 -6t-13.5 6 z" />
<glyph unicode="&#x22;" horiz-adv-x="380" d="M206 462l18 161q5 43 12.5 53t39.5 10q21 0 27.5 -6t4.5 -18t-13 -39l-66 -161q-2 -6 -11 -6t-12 6zM364 462l18 161q5 43 12.5 53t39.5 10q21 0 27.5 -6t4.5 -18t-13 -39l-66 -161q-2 -6 -11 -6t-12 6z" />
<glyph unicode="#" d="M51 194l21 48h106l66 162h-109l23 48h106l70 172h47l-71 -172h113l69 172h48l-71 -172h100l-20 -48h-100l-68 -162h98l-21 -48h-95l-79 -191h-43l77 191h-114l-79 -191h-42l77 191h-109zM222 242h114l67 162h-113z" />
<glyph unicode="$" d="M44 58q-15 38 5 128q3 4 10.5 4t12.5 -3q0 -28 11 -58t41 -58.5t74 -36.5l81 276q-108 61 -108 149q0 80 58.5 128.5t145.5 51.5l23 78q7 5 19 5t19 -5l-23 -79q66 -6 121 -34q3 -40 -16 -108q-2 -4 -11 -5t-12 2q3 36 -18 71.5t-74 43.5l-70 -242q39 -24 62.5 -44 t42.5 -53t19 -74q0 -92 -67 -143.5t-164 -51.5l-28 -94q-6 -6 -20 -6t-18 6l28 96q-95 10 -144 56zM236 30q67 1 107.5 37t40.5 93q0 83 -73 129zM238 489q0 -62 63 -103l65 223q-52 -2 -90 -35t-38 -85z" />
<glyph unicode="%" horiz-adv-x="863" d="M134 385q0 96 60 175.5t145 79.5q54 0 83.5 -36.5t29.5 -98.5q0 -92 -60.5 -172.5t-137.5 -80.5q-59 0 -89.5 36t-30.5 97zM186 -14q274 325 557 668q10 0 19.5 -7t9.5 -18q-251 -297 -559 -669q-27 0 -27 26zM200 357q0 -75 51 -75q31 0 58 30.5t43 73.5t25 84.5t9 68.5 q0 33 -13 52t-36 19q-40 0 -73.5 -50.5t-48.5 -107.5t-15 -95zM519 121q0 96 60 175.5t145 79.5q54 0 83.5 -36.5t29.5 -98.5q0 -92 -60.5 -172.5t-137.5 -80.5q-59 0 -89.5 36t-30.5 97zM585 93q0 -75 51 -75q31 0 58 30.5t43 73.5t25 84.5t9 68.5q0 33 -13 52t-36 19 q-40 0 -73.5 -50.5t-48.5 -107.5t-15 -95z" />
<glyph unicode="&#x26;" horiz-adv-x="770" d="M79 186q0 117 96 215q75 78 149 78q11 0 19.5 -2t14 -5t11 -8t7.5 -8l6 -9t5 -7q33 27 76.5 71t64.5 72q36 46 36 84q0 18 -12 30q-11 11 -11 22q0 19 12 30t28 11q19 0 32.5 -13t13.5 -40q0 -82 -126 -205q-58 -57 -162.5 -138.5t-192.5 -141.5v-8q0 -87 54 -129 t123 -42q66 0 133.5 43t109.5 120q28 52 40 96t14 106q-19 17 -52 17q-25 0 -49 -20t-24 -44q0 -4 8 -33q7 -26 7 -28q0 -5 -2 -10.5t-10 -11.5t-21 -6q-17 0 -30 10.5t-13 29.5q0 56 68 112q50 41 99 41q13 0 26 -3.5t21 -6.5t22.5 -13.5t19 -14t22.5 -20t22 -20.5 q3 -2 7 -6t6 -5.5t5 -4.5t4 -3.5t3.5 -2.5t4 -2t4 -1t5 -1h5.5q8 0 14 9.5t6 21.5q0 13 -4 25q-4 14 -4 15q0 9 9.5 17t22.5 8q19 0 28 -17t9 -39q0 -28 -19 -47q-5 -6 -26 -10q-42 -5 -75 -25q-14 -9 -24 6q-5 8 -26.5 31t-42.5 40q0 -47 -4 -85q-4 -37 -28 -98t-74 -118 q-49 -55 -115 -82t-125 -27q-111 0 -166 57.5t-55 142.5zM148 260q113 78 163 122q1 9 1 24q0 14 -9.5 22.5t-23.5 8.5q-13 0 -35 -14t-42 -40q-43 -57 -54 -123z" />
<glyph unicode="'" horiz-adv-x="208" d="M201 462l18 161q5 43 12.5 53t39.5 10q21 0 27.5 -6t4.5 -18t-13 -39l-66 -161q-2 -6 -11 -6t-12 6z" />
<glyph unicode="(" horiz-adv-x="320" d="M90 149q0 240 196 436q68 69 162 118q13 0 13 -14q-107 -74 -171 -163q-146 -204 -146 -386q0 -186 64 -292q0 -13 -16 -11q-102 106 -102 312z" />
<glyph unicode=")" horiz-adv-x="320" d="M-67 -149q107 74 171 163q146 204 146 386q0 186 -64 292q0 13 16 11q102 -106 102 -312q0 -240 -196 -436q-68 -68 -162 -118q-13 0 -13 14z" />
<glyph unicode="*" horiz-adv-x="400" d="M138 453q-2 8 2 14l128 52l-94 104q-1 7 4.5 12.5t12.5 4.5l107 -89l40 124q13 6 24 -5l-20 -129l136 33q7 -2 9 -9.5t-2 -13.5l-130 -52l93 -103q1 -7 -4 -13.5t-12 -5.5l-106 92l-39 -125q-16 -7 -24 6l19 129l-136 -36q-6 2 -8 10z" />
<glyph unicode="+" horiz-adv-x="560" d="M118 181v49h163v164h59v-164h163v-49h-163v-181h-59v181h-163z" />
<glyph unicode="," horiz-adv-x="250" d="M2 -86q92 42 92 104q0 31 -33 39q-15 4 -15 22q0 16 12.5 27t30.5 11q33 0 52 -24t19 -55q0 -50 -46.5 -88.5t-104.5 -55.5q-13 6 -7 20z" />
<glyph unicode="-" horiz-adv-x="320" d="M54.5 202q2.5 19 12.5 28l243 22q8 -10 5 -29t-13 -28l-243 -22q-7 10 -4.5 29z" />
<glyph unicode="&#xad;" horiz-adv-x="320" d="M54.5 202q2.5 19 12.5 28l243 22q8 -10 5 -29t-13 -28l-243 -22q-7 10 -4.5 29z" />
<glyph unicode="." horiz-adv-x="250" d="M46 33q0 26 17.5 44t39.5 18q21 0 32.5 -13.5t11.5 -31.5q0 -29 -17 -46.5t-40 -17.5q-21 0 -32.5 12.5t-11.5 34.5z" />
<glyph unicode="/" horiz-adv-x="250" d="M-7 -16l306 692h58l-306 -692h-58z" />
<glyph unicode="0" d="M74 179q0 92 36.5 190t95.5 168q87 103 185 103q143 0 143 -192q0 -87 -37.5 -189t-96.5 -173q-82 -100 -177 -100q-44 0 -75.5 18t-46.5 48.5t-21 61t-6 65.5zM151 122q0 -106 76 -106q88 0 167 210q63 170 63 272q0 112 -69 112q-32 0 -65.5 -29t-62.5 -79 q-45 -79 -77 -188.5t-32 -191.5z" />
<glyph unicode="1" d="M91 10.5q0 9.5 6 11.5l25 3q46 6 62 24t34 79l100 337q17 59 14 76t-32 20l-46 5q-4 4 -3.5 11t5.5 9q111 19 178 54q10 1 13 -5q-26 -69 -42 -121l-118 -393q-17 -60 -10.5 -75.5t46.5 -20.5l26 -3q5 -4 4.5 -13t-5.5 -12q-76 3 -129 3q-55 0 -122 -3q-6 4 -6 13.5z" />
<glyph unicode="2" d="M-9 8q0 3 1 5q100 67 205 155q2 2 31 25.5t36.5 30t34 30t36.5 35t31 34t30 38.5t21 36.5t16.5 40.5t4.5 39q0 55 -29.5 85.5t-76.5 30.5q-82 0 -150 -92q-8 -4 -15 0.5t-6 14.5q33 57 88.5 90.5t113.5 33.5q77 0 119.5 -40t42.5 -109q0 -65 -45.5 -122t-121.5 -116 l-85 -66q-134 -104 -134 -118q0 -9 34 -9h117q66 0 86.5 8.5t52.5 51.5q14 5 21 -6q-10 -31 -27.5 -67t-29.5 -50q-50 2 -74 2q-24 1 -73 1h-144q-78 0 -105 -3q-6 3 -6 11z" />
<glyph unicode="3" d="M-5 3q0 17 11.5 29t30.5 12q11 0 21.5 -7.5t12.5 -10.5t13 -19q18 -27 57 -27q64 0 130 43q54 35 83 88.5t29 116.5q0 50 -29 80.5t-82 30.5q-59 0 -118 -51q-12 2 -16.5 15t3.5 24q123 49 179 82q92 55 92 116q0 38 -22 56.5t-54 18.5q-73 0 -149 -88q-9 -1 -14 3.5 t-4 13.5q31 48 82 79.5t115 31.5q62 0 95 -29t33 -77q0 -76 -144 -138q-11 -5 -8 -11.5t16 -8.5q47 -9 80 -45t33 -92q0 -66 -44 -128t-103 -99q-110 -68 -229 -68q-45 0 -72.5 16t-27.5 43z" />
<glyph unicode="4" d="M36 206q0 9 29 38l454 449q13 13 25 13h19q13 0 13 -8q0 -3 -8 -11l-450 -439q-16 -16 6 -18q6 -1 18 -1h157q18 0 24.5 4.5t11.5 21.5l55 186q4 15 14 20q32 17 55 17q5 0 7 -2t2 -6.5t-1 -9t-4 -13.5l-57 -192q-5 -14 -2 -20t15 -6h63q4 -9 0 -21t-12 -17h-53 q-19 0 -25.5 -4t-11.5 -20l-19 -61q-10 -33 -12 -47.5t4.5 -22.5t26.5 -11l25 -3q5 -4 3.5 -13.5t-6.5 -11.5q-60 3 -108 3q-56 0 -118 -3q-6 2 -5.5 12t6.5 13l40 3q35 3 47.5 18t26.5 63l17 58q5 20 2 23.5t-23 3.5h-241q-10 0 -10 15z" />
<glyph unicode="5" d="M10.5 -53q-1.5 12 6.5 19q164 1 264.5 76t100.5 179q0 49 -18.5 83.5t-53 51.5t-72 24.5t-85.5 7.5q-18 0 -4 31l82 174q10 22 44 27l251 34q7 -1 11 -9q-16 -39 -43 -59l-206 -28q-24 -3 -33 -7.5t-15 -18.5l-28 -63q-4 -9 -4 -13.5t2.5 -6t9.5 -2.5l27 -4 q42 -6 74.5 -16.5t66.5 -31.5t52.5 -59t18.5 -90q0 -85 -59.5 -156t-143.5 -107q-104 -45 -234 -51q-10 3 -11.5 15z" />
<glyph unicode="6" d="M68 181q0 103 60.5 208t147.5 169q155 115 352 135q6 -1 6.5 -10t-4.5 -12q-55 -14 -82 -22t-81.5 -32t-99.5 -57q-99 -73 -157 -184.5t-58 -214.5q0 -145 109 -145q65 0 105 66t40 141q0 52 -24.5 82.5t-66.5 30.5q-29 0 -52 -9q-9 12 -3 18q16 13 42.5 22t44.5 9 q66 0 105.5 -41.5t39.5 -124.5q0 -85 -70 -154.5t-169 -69.5q-90 0 -137.5 52t-47.5 143z" />
<glyph unicode="7" d="M60 -43l424 570q16 24 12 31.5t-27 7.5h-191q-54 0 -70.5 -7.5t-42.5 -38.5q-4 -4 -12 -1t-10 8q32 48 52 102q30 -2 43 -2q16 -1 62 -1h169q122 0 135 3q9 -3 7 -12q-54 -50 -139 -166l-381 -515q-12 -2 -22 5t-9 16z" />
<glyph unicode="8" d="M55 137q0 27 9 51t21 40.5t34.5 34t38.5 27t44.5 25t41.5 23.5q-35 23 -56 56t-21 67q0 74 56.5 126.5t134.5 52.5q73 0 116.5 -42t43.5 -105q0 -28 -12 -50.5t-38 -42.5t-47 -32t-58 -30q99 -70 99 -159q0 -87 -65.5 -140t-154.5 -53q-81 0 -134 40.5t-53 110.5z M131 140q0 -61 33.5 -92.5t81.5 -31.5q56 0 96.5 37.5t40.5 106.5q0 90 -112 156q-68 -40 -104 -80.5t-36 -95.5zM237 487q0 -40 24.5 -68.5t74.5 -60.5q51 31 81 65t30 81t-25 76.5t-69 29.5q-47 0 -81.5 -34t-34.5 -89z" />
<glyph unicode="9" d="M4.5 -49.5q-1.5 8.5 2.5 12.5q215 55 330 201q55 70 88.5 160t33.5 161q0 54 -23 89.5t-72 35.5q-63 0 -107 -58.5t-44 -132.5q0 -49 20.5 -82t66.5 -33q20 0 38 4q12 -6 4 -19q-34 -24 -80 -24q-59 0 -96.5 40t-37.5 104q0 84 70 157.5t168 73.5q89 0 131.5 -52 t42.5 -137q0 -113 -86 -243q-76 -112 -190 -179.5t-252 -88.5q-6 2 -7.5 10.5z" />
<glyph unicode=":" horiz-adv-x="250" d="M46 33q0 26 17.5 44t39.5 18q21 0 32.5 -13.5t11.5 -31.5q0 -29 -17 -46.5t-40 -17.5q-21 0 -32.5 12.5t-11.5 34.5zM134 332q0 26 17.5 44t39.5 18q21 0 32.5 -13.5t11.5 -31.5q0 -29 -17 -46.5t-40 -17.5q-21 0 -32.5 12.5t-11.5 34.5z" />
<glyph unicode=";" horiz-adv-x="250" d="M2 -86q92 42 92 104q0 31 -33 39q-15 4 -15 22q0 16 12.5 27t30.5 11q33 0 52 -24t19 -55q0 -50 -46.5 -88.5t-104.5 -55.5q-13 6 -7 20zM134 332q0 26 17.5 44t39.5 18q21 0 32.5 -13.5t11.5 -31.5q0 -29 -17 -46.5t-40 -17.5q-21 0 -32.5 12.5t-11.5 34.5z" />
<glyph unicode="&#x3c;" horiz-adv-x="560" d="M118 182v45l389 185v-58l-317 -148v-2l317 -149v-57z" />
<glyph unicode="=" horiz-adv-x="560" d="M118 106v49h385v-49h-385zM118 256v49h385v-49h-385z" />
<glyph unicode="&#x3e;" horiz-adv-x="560" d="M118 -2v57l317 149v2l-317 148v58l389 -185v-45z" />
<glyph unicode="?" horiz-adv-x="300" d="M66 33q0 26 17.5 44t39.5 18q21 0 32.5 -13.5t11.5 -31.5q0 -29 -17 -46.5t-40 -17.5q-21 0 -32.5 12.5t-11.5 34.5zM109 309q12 45 78 81l62 35q41 23 61 43.5t20 47.5q0 32 -21 51.5t-49 19.5q-23 0 -45 -11l-22 -11q-7 0 -13 7.5t-6 20.5q0 21 20.5 37t51.5 16 q44 0 80.5 -44t36.5 -98q0 -89 -103 -146l-67 -37q-46 -26 -46 -65q0 -23 9 -48q-6 -11 -16 -5q-44 57 -31 106z" />
<glyph unicode="@" horiz-adv-x="770" d="M110 153q0 170 117 276.5t278 106.5q137 0 216 -76.5t79 -183.5q0 -100 -71 -170.5t-188 -70.5q-72 0 -72 22q0 10 8 31l25 63l-2 1q-45 -47 -101.5 -82t-87.5 -35q-20 0 -30.5 13t-10.5 32q0 20 18.5 63.5t57.5 90.5q103 126 200 126q11 0 22 -6t15 -16l25 51q11 4 26 0 t22 -12q-99 -227 -117 -277q-7 -17 -1.5 -25t24.5 -7q83 3 139 58t56 146q0 104 -74 167t-187 63q-143 0 -230 -102t-87 -246q0 -48 15 -93.5t47.5 -87.5t93 -68t142.5 -26q73 0 155 35q13 -6 8 -19q-81 -51 -193 -51q-64 0 -122.5 19t-107.5 56t-78 97.5t-29 136.5zM349 94 q0 -13 12 -13q22 0 80 52q34 30 71.5 83t47.5 80q-10 29 -43 29q-26 0 -63 -30q-41 -33 -73 -96t-32 -105z" />
<glyph unicode="A" horiz-adv-x="596" d="M-54 -3q-10 13 2 25l27 3q40 4 72 42q36 44 165 225l176 248q53 74 60 103q15 2 32.5 10.5t29.5 15.5l11 7q12 0 12 -8q0 -7 -1.5 -24.5t-4 -51.5t-4.5 -71l-20 -378q-2 -33 -2.5 -47.5t1 -30.5t3 -20.5t9.5 -10t15 -6.5t23 -3l26 -3q4 -5 2.5 -13.5t-6.5 -11.5 q-46 3 -113 3q-70 0 -115 -3q-7 3 -7.5 12.5t6.5 12.5l31 3q30 3 39 16q8 13 11 62l9 134q2 17 -1.5 21.5t-19.5 4.5h-144q-23 0 -30 -4.5t-21 -26.5l-73 -114q-45 -71 -45 -75q0 -11 23 -15l37 -6q6 -5 5 -13.5t-7 -11.5q-47 3 -102 3q-57 0 -111 -3zM273.5 306 q3.5 -3 19.5 -3h126q13 0 16 3.5t4 16.5l16 219q2 26 -2 26q-5 0 -38 -49l-139 -201q-6 -9 -2.5 -12z" />
<glyph unicode="B" horiz-adv-x="581" d="M19 9.5q0 8.5 5 12.5l20 3q37 5 52 24.5t38 94.5l121 393q13 43 13 62q0 7 -2 11q-6 15 -41 16l-33 1q-5 4 -4.5 12t4.5 12q86 12 168 12q104 0 162 -24q85 -36 85 -126q0 -68 -52 -108t-104 -44q-7 0 -9 -2.5t1 -4.5t8 -4q45 -15 74.5 -55t29.5 -92q0 -77 -54 -130 q-76 -76 -240 -76q-28 0 -70.5 1.5t-62.5 1.5q-60 0 -103 -3q-6 4 -6 12.5zM200 115q-7 -21 -7 -36q-1 -19 11 -31q20 -20 76 -20q73 0 131 47t58 140q0 60 -43.5 93t-104.5 33q-37 0 -46 -5t-16 -29zM288 376.5q6 -5.5 37 -5.5q30 0 62 8t64.5 25t53 50t20.5 78t-33 72.5 t-93 27.5q-29 0 -35.5 -4t-13.5 -28l-62 -200q-6 -18 0 -23.5z" />
<glyph unicode="C" horiz-adv-x="646" d="M102 253q0 84 39.5 163.5t103.5 137.5t151.5 90t184.5 32q84 0 164 -32q-30 -74 -45 -134q-3 -6 -14 -5.5t-13 6.5q6 26 6 47q1 34 -15 54q-24 33 -100 33q-142 0 -256 -112q-45 -45 -81.5 -127t-36.5 -172q0 -107 49.5 -163t144.5 -56q130 0 215 140q19 8 24 -7 q-20 -61 -65 -141q-13 0 -79 -11q-70 -12 -97 -12q-53 0 -99.5 13t-88.5 42t-67 84t-25 130z" />
<glyph unicode="D" horiz-adv-x="739" d="M14 9.5q0 8.5 5 12.5l26 3q35 4 50 24t38 95l125 405q10 37 10 53v6q-4 12 -27 16l-40 5q-5 3 -5 11.5t5 12.5q75 10 186 10q83 0 147.5 -16.5t104 -43t64.5 -63t34.5 -73t9.5 -77.5q0 -95 -42.5 -174t-115.5 -129q-132 -90 -334 -90q-11 0 -51.5 1.5t-73.5 1.5 q-58 0 -110 -3q-6 4 -6 12.5zM198 114q-6 -19 -6 -33q0 -21 12 -31q20 -18 85 -18q82 0 148.5 26.5t106.5 66t67 88.5t37 91.5t10 78.5t-3 63.5t-18.5 64.5t-42 61.5t-78 42t-122.5 17.5q-23 0 -31 -7t-16 -32z" />
<glyph unicode="E" horiz-adv-x="566" d="M2 9.5q0 8.5 5 12.5l35 3q36 3 51 23t39 96l116 372q20 62 20 85v5q-3 20 -42 28l-20 4q-5 6 -3.5 14t9.5 11q36 -2 53 -2q18 -1 58 -1h189q111 0 141 3q-12 -30 -41 -133q-3 -6 -13 -5.5t-12 6.5q4 20 4 36q0 13 -3 23q-6 22 -36 30q-34 9 -106 9h-59q-19 0 -25.5 -5.5 t-13.5 -28.5l-64 -205q-7 -21 -5 -25t23 -4h50q72 0 96.5 8.5t41.5 40.5l16 30q3 5 13.5 4.5t11.5 -6.5q-19 -45 -34 -97q-14 -45 -26 -97q-5 -6 -13.5 -5.5t-11.5 6.5v28q0 37 -19.5 45t-83.5 8h-50q-21 0 -26.5 -4t-12.5 -25l-41 -135q-15 -50 -19 -68q-1 -8 -1 -16 q0 -12 3 -26q10 -21 111 -21q89 0 128.5 17t84.5 87q16 10 23 -6q-8 -27 -29.5 -70.5t-39.5 -61.5q-17 1 -54.5 1.5t-56.5 0.5q-20 0 -59.5 0.5t-58.5 0.5h-118q-53 0 -119 -3q-6 4 -6 12.5z" />
<glyph unicode="F" horiz-adv-x="533" d="M7 9.5q0 8.5 5 12.5l31 3q36 4 51 23.5t39 95.5l117 372q20 62 20 84v6q-3 20 -43 28l-18 4q-5 6 -3.5 14t9.5 11q9 -1 25.5 -1.5t25.5 -0.5q8 0 27 -0.5t30 -0.5h186q112 0 141 3q-12 -30 -41 -133q-3 -6 -13 -5.5t-12 6.5q4 20 4 36q0 13 -3 23q-6 22 -36 30 q-35 9 -106 9h-55q-20 0 -25 -5t-13 -29l-69 -219q-5 -16 -2.5 -20.5t18.5 -4.5h69q71 0 95.5 8.5t41.5 40.5l17 31q4 5 14.5 4t11.5 -6q-19 -49 -34 -95q-20 -61 -26 -100q-5 -5 -13 -5t-13 5l1 38q1 25 -20.5 34.5t-82.5 9.5h-74q-16 0 -21 -4.5t-11 -23.5l-44 -144 q-8 -27 -12 -41.5t-6.5 -29.5t-1.5 -22t5.5 -13.5t12.5 -9t21 -3.5l39 -3q4 -5 2.5 -13.5t-6.5 -11.5q-87 3 -136 3q-54 0 -113 -3q-6 4 -6 12.5z" />
<glyph unicode="G" horiz-adv-x="703" d="M101 244q0 79 35.5 161t108.5 146q143 125 348 125q97 0 171 -32q-28 -60 -47 -133q-3 -6 -13 -5.5t-12 6.5q5 24 5 43q0 37 -17 58q-27 32 -99 32q-148 0 -262 -107q-55 -51 -92.5 -141t-37.5 -174q0 -110 56.5 -159t141.5 -49q57 0 86.5 14.5t44.5 60.5l26 82 q15 43 15 62q0 6 -1 10q-6 17 -50 23l-39 5q-5 4 -4.5 13t6.5 12q66 -3 120 -3q78 0 114 3q5 -3 5 -12t-6 -13l-17 -5q-29 -8 -38.5 -22t-28.5 -73l-31 -99q-2 -7 -2 -12q0 -12 10 -18q2 -8 -4 -14q-129 -45 -210 -45q-133 0 -207.5 69t-74.5 191z" />
<glyph unicode="H" horiz-adv-x="761" d="M15 9q0 8 5 13l23 3q36 5 51 24t39 95l117 372q14 40 18 58q3 12 3 23q0 5 -1 9q-2 15 -11.5 19.5t-31.5 8.5l-24 4q-5 7 -5 13q0 8 11 12q60 -3 116 -3q53 0 116 3q6 -3 6 -11t-6 -14l-23 -4q-42 -7 -55 -24.5t-38 -93.5l-41 -129q-6 -17 -2 -20.5t31 -3.5h264 q34 0 41 3t12 19l41 131q13 41 17 58q3 12 3 24q-1 4 -1 8q-2 15 -11 19.5t-30 8.5l-25 4q-4 5 -2.5 13.5t8.5 11.5q62 -3 117 -3q50 0 116 3q6 -3 6 -11.5t-6 -13.5l-24 -4q-42 -7 -55.5 -25t-37.5 -93l-116 -372q-21 -63 -21 -88q0 -27 40 -31l27 -3q10 -17 -4 -25 q-70 3 -122 3q-54 0 -116 -3q-6 4 -6 12t5 13l32 3q36 3 51 23t39 96l48 152q6 20 1 23.5t-37 3.5h-272q-23 0 -27.5 -3.5t-10.5 -20.5l-49 -155q-21 -63 -21 -88q0 -27 40 -31l31 -3q4 -6 2.5 -14t-6.5 -11q-74 3 -126 3q-59 0 -107 -3q-6 4 -6 12z" />
<glyph unicode="I" horiz-adv-x="341" d="M7 9.5q0 8.5 5 12.5l31 3q36 4 51 23.5t39 95.5l117 372q14 40 18 58q3 12 3 23q0 5 -1 9q-2 15 -11.5 19.5t-31.5 8.5l-24 4q-5 6 -3.5 14t9.5 11q60 -3 116 -3q48 0 120 3q6 -3 6 -12t-6 -13l-27 -4q-42 -7 -55.5 -24.5t-37.5 -93.5l-117 -372q-21 -63 -21 -88 q0 -27 40 -31l31 -3q4 -5 2.5 -13.5t-6.5 -11.5q-74 3 -126 3q-55 0 -115 -3q-6 4 -6 12.5z" />
<glyph unicode="J" horiz-adv-x="340" d="M-116 -172q0 13 12 28t27 15q13 0 37 -14q26 -15 48 -15q32 0 65 87q23 57 66 196l121 391q16 52 19 72q1 6 1 11q0 13 -6 21q-9 10 -37 15l-25 4q-5 6 -3.5 13.5t9.5 10.5q61 -3 117 -3q52 0 112 3q6 -3 6 -11.5t-6 -12.5l-27 -4q-36 -5 -48.5 -23.5t-36.5 -95.5 l-142 -457q-28 -89 -63 -149q-66 -111 -183 -111q-63 0 -63 29z" />
<glyph unicode="K" horiz-adv-x="623" d="M7 9.5q0 8.5 5 12.5l31 3q36 4 51 23.5t39 95.5l117 372q14 40 18 58q4 14 3 26v6q-1 15 -10 19.5t-28 8.5l-23 4q-5 6 -3.5 14t9.5 11q48 -3 108 -3q52 0 119 3q6 -3 5.5 -12t-8.5 -13l-20 -4q-44 -9 -57.5 -26t-37.5 -92l-42 -132q-6 -16 -2.5 -22t20.5 -6q23 0 43 10 q34 20 105 87l100 95q65 63 65 74q0 6 -24 12l-19 4q-5 4 -4 13.5t8 11.5q50 -3 110 -3q21 0 108 3q7 -4 6.5 -13t-7.5 -12l-21 -4q-40 -7 -67 -18q-58 -24 -177 -134l-128 -117q-13 -12 -14.5 -16.5t6.5 -21.5l110 -220q22 -44 39.5 -61t51.5 -21l26 -3q5 -5 4 -14t-7 -11 q-48 3 -106 3q-56 0 -113 -3q-9 19 3 25l26 3q17 2 22 7.5t2 14.5t-14 32l-105 206q-23 45 -40 45q-24 0 -33 -28l-49 -158q-21 -63 -21 -88q0 -27 40 -31l28 -3q4 -5 2.5 -13.5t-6.5 -11.5q-69 3 -124 3q-54 0 -114 -3q-6 4 -6 12.5z" />
<glyph unicode="L" horiz-adv-x="546" d="M13 9.5q0 8.5 5 12.5l24 3q36 5 51 24t39 95l117 372q13 40 17 58q3 12 4 23q0 5 -1 9q-2 15 -11.5 19.5t-31.5 8.5l-24 4q-5 6 -3.5 14t9.5 11q13 0 35.5 -1t41.5 -1.5t37 -0.5q24 0 65.5 1.5t60.5 1.5q6 -3 6 -12t-6 -13l-31 -4q-42 -5 -55.5 -23t-37.5 -95l-110 -354 q-21 -59 -21 -88q0 -12 3 -18q12 -24 99 -25q94 0 135 17t84 87q19 6 22 -6q-8 -25 -29 -68t-35 -64q-74 2 -117 2q-40 1 -114 1h-116q-58 0 -106 -3q-6 4 -6 12.5z" />
<glyph unicode="M" horiz-adv-x="874" d="M-18.5 10.5q0.5 9.5 5.5 11.5l27 3q40 4 57 27q20 25 121 287l52 135q42 108 42 134q0 19 -28 23l-47 7q-5 4 -3.5 13t8.5 12q70 -3 110 -3q35 0 67 3q-7 -23 -7 -55.5t2.5 -58.5t9.5 -81l16 -129q11 -84 22 -183h2q15 18 115 147l159 205q84 108 97 155q25 -3 62 -3 q55 0 101 3q5 -4 4.5 -12t-4.5 -13l-23 -4q-46 -8 -60 -23q-16 -18 -46 -124l-87 -310q-29 -103 -29 -127q0 -22 40 -25l34 -3q5 -5 3.5 -13.5t-7.5 -11.5q-55 3 -128 3q-65 0 -121 -3q-5 5 -5 13.5t5 11.5l26 3q40 5 55 19q18 18 51 127l80 262q29 94 38 126l-3 1 q-4 -5 -33 -43t-60 -79l-152 -197q-117 -153 -160 -225q-10 -7 -19 4q1 40 -16 204l-34 336h-2q-14 -31 -46 -119l-75 -202q-60 -161 -60 -187q0 -18 30 -23l43 -7q3 -5 2 -13t-5 -12q-42 3 -115 3q-59 0 -107 -3q-5 4 -4.5 13.5z" />
<glyph unicode="N" horiz-adv-x="739" d="M1 8q-1 8 4 14l25 3q31 3 49 17q23 17 76 191l79 256q33 106 33 119q0 17 -26 22l-40 8q-6 5 -4.5 14t9.5 11q8 -1 23.5 -1.5t23.5 -0.5q7 0 25.5 -0.5t29.5 -0.5h62v-14q0 -23 49 -145l101 -249q41 -98 49 -113q8 0 17 28l79 251q48 152 48 185q0 15 -4.5 20.5 t-20.5 8.5l-39 6q-4 7 -2 14.5t8 10.5q53 -3 113 -3q52 0 95 3q4 -3 4.5 -11.5t-3.5 -13.5l-23 -4q-41 -7 -52 -18q-26 -26 -82 -201l-72 -224q-34 -105 -63 -206q-8 -8 -24 -6q-28 87 -93 244l-79 192q-10 24 -24.5 62t-25 63t-17.5 40q-5 0 -32 -88l-78 -260 q-13 -43 -42 -166q-4 -16 2.5 -24.5t16 -11.5t30.5 -5l23 -3q4 -5 3 -13t-6 -12q-45 3 -114 3q-58 0 -105 -3q-5 3 -6 11z" />
<glyph unicode="O" horiz-adv-x="730" d="M102 245q2 96 42.5 185.5t117.5 154.5q107 91 244 91q105 0 174 -71q63 -65 63 -182v-21q-4 -85 -40.5 -169.5t-94.5 -139.5q-115 -109 -262 -109q-120 0 -184 78q-61 74 -60 174v9zM186 207v-11q0 -74 36 -126q40 -56 131 -55q92 0 167 80q64 69 100 166t39 185v16 q-1 82 -39 130q-42 52 -118 53q-80 0 -150 -60q-62 -52 -112 -155t-54 -223z" />
<glyph unicode="P" horiz-adv-x="552" d="M8 9.5q0 8.5 5 12.5l31 3q36 4 51 23.5t39 95.5l129 414q8 25 8 39q1 7 -1 11q-6 14 -33 15l-48 4q-5 5 -4 12t7 12q74 12 168 12q139 0 198 -49q55 -47 55 -124q0 -93 -85 -153q-74 -51 -185 -51q-6 2 -7 9t4 12q31 4 61.5 16.5t60.5 35t48.5 61t18.5 86.5 q0 63 -36.5 94.5t-98.5 31.5q-23 0 -29.5 -5.5t-14.5 -29.5l-141 -453q-21 -63 -21 -88q0 -28 40 -31l36 -3q4 -5 2.5 -13.5t-6.5 -11.5q-72 3 -131 3q-55 0 -115 -3q-6 4 -6 12.5z" />
<glyph unicode="Q" horiz-adv-x="730" d="M102 245q2 96 42.5 185.5t117.5 154.5q107 91 244 91q105 0 174 -71q63 -65 63 -182v-21q-4 -85 -40.5 -169.5t-94.5 -139.5q-79 -75 -164 -95q-10 -6 -1 -15q124 -124 214 -156q36 -13 86 -13q35 0 57 10q9 -5 5 -15q-39 -28 -112 -28q-93 0 -182.5 52.5t-150.5 129.5 q-17 22 -46 23q-24 1 -50 9.5t-56 28t-53.5 47.5t-38.5 73q-14 43 -14 94v7zM186 207v-11q0 -74 36 -126q40 -55 131 -55q92 0 167 80q64 69 100 166t39 185v16q0 83 -39 130q-42 53 -118 53q-80 0 -150 -60q-62 -52 -112 -155t-54 -223z" />
<glyph unicode="R" horiz-adv-x="574" d="M15 9.5q0 8.5 5 12.5l22 3q37 5 51.5 24.5t38.5 94.5l117 374q20 64 20 84q0 21 -29 24l-38 4q-4 6 -2.5 14t7.5 11q65 8 170 8q132 0 189 -52q46 -41 46 -114q0 -70 -53.5 -118t-118.5 -59q-10 -1 -12.5 -6t0.5 -18q21 -89 50 -173q14 -40 22 -57t26.5 -30.5t50.5 -16.5 q9 -5 0 -19q-24 -3 -63 -3t-60 12t-33 47q-38 112 -59 194q-9 34 -17.5 42t-32.5 8q-39 0 -49 -5t-17 -27l-39 -124q-21 -63 -21 -87q0 -26 41 -32l24 -3q4 -5 2.5 -13.5t-6.5 -11.5q-63 3 -120 3q-59 0 -106 -3q-6 4 -6 12.5zM276 334q6 -6 43 -5q82 0 145.5 51t65.5 130v6 q0 54 -32 84q-34 32 -99 32q-28 0 -36 -5.5t-14 -26.5l-70 -229q-6 -19 -6 -29q1 -6 3 -8z" />
<glyph unicode="S" horiz-adv-x="471" d="M36 54q-1 11 -1 22q0 50 19 94q12 10 21 -2q12 -153 148 -153q56 0 101 36t45 105q0 50 -25 84t-75 73q-104 84 -104 174q0 83 60 136t159 53q44 0 84 -13t61 -27q-8 -14 -37 -116q-5 -4 -13.5 -4t-13.5 5q4 19 4 36q0 32 -14 54q-21 34 -84 34q-65 0 -100 -36.5 t-35 -91.5q0 -69 97 -144q52 -40 80 -82.5t28 -99.5q0 -90 -63.5 -148.5t-166.5 -58.5q-125 0 -175 70z" />
<glyph unicode="T" horiz-adv-x="634" d="M143 549q45 71 72 134q3 4 9.5 4t9.5 -4q-2 -14 12.5 -18.5t59.5 -4.5h370q39 0 54.5 4t30.5 19q13 5 17 -5q-14 -24 -33 -72t-24 -70q-3 -5 -11 -5t-12 5q1 13 1 25q1 41 -11 53q-14 16 -85 15h-61q-24 0 -30 -6t-16 -38l-138 -441q-21 -63 -21 -88q0 -28 39 -31l37 -3 q6 -5 5 -13.5t-9 -11.5q-81 3 -132 3q-52 0 -122 -3q-6 4 -6 12.5t5 12.5l39 3q34 2 50.5 23t39.5 96l138 441q8 25 8 34q0 3 -1 5q-3 6 -28 5h-66q-70 0 -99 -17.5t-69 -72.5q-7 -3 -14 0t-9 10z" />
<glyph unicode="U" horiz-adv-x="734" d="M159 266l78 250q16 52 19 72q1 5 1 11q-1 13 -7 21q-8 10 -36 15l-25 4q-5 4 -4 12.5t8 11.5q63 -3 117 -3q50 0 123 3q5 -3 5 -11.5t-6 -12.5l-28 -4q-41 -6 -54.5 -24t-37.5 -95l-72 -231q-23 -74 -23 -127q0 -138 153 -138q167 0 247 248l46 141q30 93 40 155 q5 19 5 32q0 10 -3 18q-6 16 -40 21l-28 4q-5 5 -3.5 13t7.5 11q73 -3 107 -3q50 0 108 3q6 -4 6 -12t-6 -12l-23 -4q-36 -6 -49.5 -19.5t-29.5 -54.5q-10 -27 -49 -152l-46 -147q-47 -148 -117 -209q-78 -69 -189 -69q-137 0 -187 72q-27 39 -27 96q0 50 20 114z" />
<glyph unicode="V" horiz-adv-x="622" d="M131.5 652.5q1.5 7.5 8.5 10.5q46 -3 97 -3q61 0 109 3q7 -3 7 -11.5t-6 -12.5l-28 -4q-32 -5 -39 -17q-4 -7 -4 -28q0 -12 1 -28l35 -376q5 -56 10 -60q8 3 45 59l114 170q123 182 148 224q12 19 15 30t-1.5 16.5t-16.5 7.5l-37 6q-5 4 -4 13t7 11q59 -3 112 -3 q50 0 89 3q5 -3 5 -11t-3 -13l-29 -4q-33 -4 -59 -34q-52 -56 -170 -229l-85 -124q-30 -44 -96 -145t-75 -116q-5 -3 -12 -3t-13 3q-1 38 -7 108l-41 429q-6 65 -14.5 86t-33.5 25l-25 4q-5 6 -3.5 13.5z" />
<glyph unicode="W" horiz-adv-x="878" d="M124.5 651.5q0.5 8.5 7.5 11.5q48 -3 97 -3q52 0 103 3q5 -2 5.5 -11.5t-4.5 -12.5l-37 -4q-20 -3 -26 -15q-4 -8 -4 -21q0 -9 2 -21l54 -378q12 -81 16 -84q6 4 64 83l67 92q12 17 15.5 27t0.5 29l-34 228q-5 32 -13.5 44t-32.5 16l-23 4q-5 4 -4 13t8 11q41 -3 98 -3 q64 0 98 3q5 -2 5 -11t-5 -13l-33 -4q-20 -3 -26 -13q-4 -6 -4 -19q0 -9 2 -21l25 -189l18 27l34 50q72 105 92 142q5 8 -2 14.5t-19 8.5l-25 4q-5 4 -4 13t8 11q45 -3 89 -3q53 0 84 3q5 -3 5 -11.5t-5 -12.5l-19 -4q-31 -7 -45 -18t-48 -53q-65 -82 -136 -189 q-2 -2 -6 -7.5t-5 -7t-3 -5.5t-2 -7v-8t1 -11l19 -129q12 -79 17 -84q7 3 50 69q197 299 237 369q34 57 35 66q1 6 -4.5 9t-21.5 6l-20 4q-5 4 -4 12.5t7 11.5q49 -3 91 -3q52 0 84 3q5 -2 5 -11.5t-5 -12.5l-23 -4q-14 -3 -27.5 -10.5t-27 -23.5t-20.5 -24.5t-21.5 -30.5 t-15.5 -24l-155 -228q-62 -92 -200 -307q-4 -3 -12 -3t-12 3q-7 87 -33 247l-6 37l-134 -191q-40 -58 -60 -93q-5 -3 -12 -3t-13 3q-5 71 -22 184l-57 394q-7 46 -14 55q-9 10 -33 15l-21 4q-5 4 -4.5 12.5z" />
<glyph unicode="X" horiz-adv-x="576" d="M-46 9q-1 9 4 13l23 3q40 5 69.5 26t84.5 81q8 9 63.5 67.5t100.5 108.5q10 12 10 23q0 5 -2 11q-12 31 -42.5 114.5t-44.5 119.5q-12 31 -22.5 42.5t-35.5 15.5l-22 4q-5 5 -3 14t8 11q68 -3 107 -3q63 0 102 3q5 -4 5 -12.5t-5 -12.5l-27 -4q-31 -4 -37 -14 q-2 -4 -2 -10q0 -9 5 -24q63 -176 73 -203q71 72 185 207q20 22 20 31.5t-23 12.5l-29 4q-5 5 -4 13t8 12q45 -3 100 -3q45 0 91 3q6 -3 5.5 -12t-6.5 -13l-24 -4q-28 -5 -58 -31q-22 -19 -44 -39.5t-48 -47t-42 -43.5t-50 -53t-49 -52q-13 -13 -15 -19t4 -22 q19 -51 54.5 -139t45.5 -113q19 -47 50 -50l37 -3q5 -3 4.5 -12.5t-6.5 -12.5q-58 3 -108 3q-61 0 -112 -3q-6 3 -6.5 12.5t4.5 12.5l22 3q29 3 36 11q3 4 3 12q0 9 -4 25q-56 154 -80 215q-97 -106 -203 -235q-7 -8 -7 -14q0 -8 14 -10l40 -7q5 -4 4 -14t-7 -11 q-52 3 -111 3t-96 -3q-6 3 -7 12z" />
<glyph unicode="Y" horiz-adv-x="564" d="M123 9.5q0 8.5 5 12.5l36 3q35 3 49.5 22.5t40.5 96.5l20 59q14 40 16 61v5q0 21 -9 62l-50 217q-11 49 -21 65.5t-36 20.5l-25 4q-4 5 -3 13.5t6 11.5q56 -3 106 -3q59 0 107 3q5 -4 5 -12t-5 -13l-29 -4q-28 -4 -36 -15q-4 -6 -4 -17q0 -9 3 -23l51 -235q4 -19 9.5 -19 t20.5 18l123 148q96 118 96 126q0 12 -29 17l-25 4q-5 4 -4.5 12.5t6.5 12.5q59 -3 104 -3q41 0 90 3q5 -3 5 -12t-5 -13l-21 -4q-40 -8 -56 -23q-41 -37 -98 -103l-114 -134q-53 -62 -69 -87.5t-34 -82.5l-19 -60q-17 -54 -20 -76q-2 -7 -2 -12q0 -13 6 -20q8 -9 35 -11 l36 -3q5 -4 3.5 -13.5t-6.5 -11.5q-84 3 -134 3q-52 0 -119 -3q-6 4 -6 12.5z" />
<glyph unicode="Z" horiz-adv-x="601" d="M-19 3.5q-1 5.5 1 9.5q34 25 138 132l439 457q5 7 5 12q0 14 -33 15h-153q-83 0 -117.5 -17.5t-79.5 -82.5q-7 -4 -14.5 -0.5t-8.5 12.5q35 59 60 144q6 6 12 0q4 -17 19.5 -21t76.5 -4h267q80 0 107 3q10 -1 8 -12q-9 -6 -26.5 -21.5t-43 -41.5t-46 -47.5t-53 -54.5 t-45.5 -47l-229 -238q-135 -145 -135 -153q0 -17 90 -17h88q144 0 186 22q43 23 82 89q5 3 11.5 0t8.5 -8q-8 -31 -30 -74.5t-39 -62.5q-52 2 -93 2q-34 1 -104 1h-234q-71 0 -110 -3q-4 1 -5 6.5z" />
<glyph unicode="[" horiz-adv-x="320" d="M40 -150l249 836h65q98 0 109 -3q3 -4 2 -10.5t-5 -9.5l-93 -11q-22 -3 -28 -10q-21 -24 -60 -156l-130 -436q-41 -139 -35 -156q2 -7 23 -10l86 -11q4 -11 -5 -20q-13 -3 -113 -3h-65z" />
<glyph unicode="\" horiz-adv-x="340" d="M60 676h57l191 -692h-57z" />
<glyph unicode="]" horiz-adv-x="320" d="M-60 -136.5q1 6.5 5 9.5l93 11q22 3 28 10q21 24 60 156l130 436q41 139 35 156q-2 7 -23 10l-86 11q-4 11 5 20q13 3 113 3h65l-249 -836h-65q-98 0 -109 3q-3 4 -2 10.5z" />
<glyph unicode="^" horiz-adv-x="560" d="M117 244l177 382h48l176 -382h-62l-138 311l-138 -311h-63z" />
<glyph unicode="_" d="M0 -75h500v-50h-500v50z" />
<glyph unicode="`" horiz-adv-x="360" d="M167 604q0 12 17 23q18 13 31 13q12 0 19 -22l46 -142q0 -6 -6.5 -9t-11.5 -2l-81 111q-14 20 -14 28z" />
<glyph unicode="a" horiz-adv-x="444" d="M20 42q0 24 22 79t66 115q68 93 132 129q51 29 90 29q12 0 24 -6q13 -6 20 -21l28 64q13 6 28.5 0.5t20.5 -15.5q-85 -210 -134 -349q-8 -23 7 -23q27 0 103 67q14 0 14 -13q-34 -45 -81.5 -78.5t-86.5 -33.5q-15 0 -22 9t-7 18q0 10 10 39l33 90l-3 1q-52 -65 -118 -111 t-102 -46q-20 0 -32 17t-12 39zM103 58q0 -19 15 -19q26 0 97 65q101 94 134 216q-13 36 -50 36q-28 0 -71 -39q-47 -42 -86 -123.5t-39 -135.5z" />
<glyph unicode="b" horiz-adv-x="466" d="M69 78q0 60 51 197l116 308q16 43 18 59t-8 24l-23 16q-4 7 3 14q52 19 114 19h6l4 -6q-6 -16 -51 -133l-130 -342h2q56 85 107.5 129.5t104.5 44.5q42 0 64 -25t22 -65q0 -52 -34 -114t-95 -121q-55 -53 -106 -75t-85 -22q-80 0 -80 92zM136 69q0 -52 35 -52q13 0 40 17 t56 50q49 55 92.5 134t43.5 120q0 36 -35 36q-46 0 -138 -105q-45 -51 -69.5 -106.5t-24.5 -93.5z" />
<glyph unicode="c" horiz-adv-x="338" d="M45 92q0 55 33 129t94 129q64 58 130 58q36 0 55 -17t19 -42q0 -26 -17.5 -36.5t-31.5 -10.5q-17 0 -20 18q0 2 -1 10.5t-1.5 11.5t-2 10t-4 9.5t-6 6.5t-8.5 5.5t-12 1.5q-39 0 -84 -67q-26 -39 -45.5 -95.5t-21.5 -111.5v-8q0 -57 43 -57q42 0 108 61q7 1 11 -4t2 -13 q-31 -41 -75.5 -67.5t-89.5 -26.5q-32 0 -53.5 26t-21.5 80z" />
<glyph unicode="d" horiz-adv-x="474" d="M28 58q0 56 38 133t95 128q99 89 179 89q13 0 28 -8t23 -23l72 206q15 43 17 58.5t-8 24.5l-23 16q-4 7 3 14q53 19 112 19h6l4 -6q-8 -24 -63 -177q-93 -257 -155 -463q-7 -23 6 -23q12 0 49.5 30.5t60.5 59.5q14 0 15 -13q-21 -44 -77 -90.5t-93 -46.5q-15 0 -23.5 9.5 t-8.5 22.5q0 19 13 57l35 99l-4 1q-33 -45 -54.5 -70.5t-54 -57t-65 -46.5t-67.5 -15q-28 0 -44 20.5t-16 51.5zM88 45q0 -9 6 -15t13 -6q16 0 52.5 21t82.5 68q95 97 122 193q5 17 5 31q0 12 -4 21q-8 20 -27 20q-29 0 -76 -43q-31 -29 -76 -89t-67 -106q-31 -64 -31 -95z " />
<glyph unicode="e" horiz-adv-x="346" d="M44 91q0 57 37.5 134.5t111.5 134.5q62 48 120 48q28 0 45.5 -19t17.5 -41q0 -54 -63 -94t-180 -72q-14 -34 -14 -89q0 -25 13.5 -41t34.5 -16q25 0 46 12.5t59 45.5q7 0 11 -5t2 -12q-74 -91 -160 -91q-41 0 -61 31.5t-20 73.5zM143 212q48 15 76.5 31t57.5 43 q20 19 29.5 38.5t9.5 29.5q0 23 -23 23q-32 0 -76 -48q-46 -50 -74 -117z" />
<glyph unicode="f" horiz-adv-x="261" d="M-157 -220q0 28 23 45q12 9 23 -4q39 -41 76 -41q12 0 20.5 4.5t20.5 24t23 55.5q22 77 63 243t66 250h-83q-7 7 -5 18.5t12 18.5h86q46 160 112 238q70 83 160 83q29 0 53 -18.5t24 -47.5q0 -19 -15 -38t-28 -19q-12 0 -14 16q-2 38 -18 55.5t-38 17.5q-35 0 -72 -54 q-22 -32 -39.5 -72.5t-27 -70t-26.5 -90.5h125q5 -7 5 -14q0 -12 -15 -23h-124q-3 -8 -26 -93q-41 -152 -89 -318q-33 -115 -79 -161q-58 -54 -120 -54q-36 0 -54.5 17t-18.5 32z" />
<glyph unicode="g" horiz-adv-x="382" d="M-53 -174q0 35 33.5 66.5t67.5 47.5t70 27q-32 21 -32 46q0 19 45 77q-73 19 -73 90q0 43 22 89t59 79q70 60 148 60q7 0 32 -9q4 -2 9.5 -4t9 -3.5t5.5 -1.5q25 0 48 6q30 8 45 8q21 0 21 -25q0 -31 -22 -31q-11 0 -33 5q-18 6 -37 6q-4 0 -7 -2t-2 -4q7 -28 7 -38 q0 -58 -36 -112t-91 -88q-18 -12 -71 -26q-22 -12 -22 -35q0 -25 33 -47q1 -1 98 -60q75 -44 75 -97q0 -46 -65 -82.5t-179 -36.5q-62 0 -110 24.5t-48 70.5zM16 -159q0 -34 40.5 -55.5t94.5 -21.5q44 0 88 18t44 50q0 31 -43 61q-71 47 -93 50h-7q-34 0 -86 -37 q-38 -28 -38 -65zM118 154q0 -15 9 -25t21 -10q33 0 66 39q39 46 65 103t26 84q0 15 -9 24.5t-21 9.5q-30 0 -67 -41q-33 -38 -61.5 -93t-28.5 -91z" />
<glyph unicode="h" horiz-adv-x="475" d="M33 12l190 562q0 1 1 3q10 29 13 40t5.5 23t0 16.5t-8.5 8.5l-21 14q-3 8 3 13q13 6 52.5 14t64.5 9l4 -6q-24 -67 -72 -204l-103 -299l2 -2q74 104 158 165q54 39 95 39q31 0 45.5 -19t14.5 -48q0 -48 -23.5 -113.5t-54.5 -120.5q-22 -39 -65 -82q-39 -39 -73 -39 q-37 0 -37 29q0 12 8.5 22t18.5 10q7 0 14 -6q17 -13 26 -13q19 0 40 50q24 58 48 139t24 119q0 30 -21 30q-20 0 -54 -27q-61 -46 -127 -133q-47 -62 -121 -208q-6 -12 -18 -12q-8 0 -15 1.5t-12.5 8t-1.5 16.5z" />
<glyph unicode="i" horiz-adv-x="278" d="M52 22l127 303q9 19 -2 19q-18 0 -83 -53q-7 1 -11 6t-2 11q38 44 87.5 72t77.5 28q6 0 16 -10q3 -3 3 -10q0 -12 -9 -34l-119 -284q-9 -22 3 -22q13 0 46 23t58 51q15 -2 15 -17q-15 -28 -78 -73.5t-109 -45.5q-8 0 -16 9q-11 12 -4 27zM211 551q0 21 13.5 42t39.5 21 q34 0 34 -38q0 -24 -15 -43t-37 -19q-18 0 -26.5 11t-8.5 26z" />
<glyph unicode="j" horiz-adv-x="259" d="M-140 -215q0 14 9.5 26.5t22.5 12.5q7 0 12 -10q25 -43 57 -43q28 0 50 50q29 70 108 323q56 185 56 189q1 13 -8 13q-27 0 -99 -77q-14 2 -16 17q20 34 75.5 78t98.5 44q10 0 17.5 -9t7.5 -20q0 -21 -53 -193q-76 -243 -91 -280q-72 -175 -180 -175q-33 0 -50 17t-17 37 zM202 551q0 21 13.5 42t39.5 21q34 0 34 -38q0 -24 -15 -43t-37 -19q-18 0 -26.5 11t-8.5 26z" />
<glyph unicode="k" horiz-adv-x="448" d="M40 12l183 552q17 52 18.5 68.5t-11.5 22.5l-18 9q-10 7 -2 15q47 22 122 36l6 -5q-12 -43 -49 -147l-103 -296h2q45 60 102 103q53 38 108 38q39 0 55.5 -17t16.5 -38q0 -35 -41 -73q-81 -74 -160 -88q-8 -4 -3 -19q14 -49 37 -94q18 -33 32 -33q21 0 60 47q13 0 13 -12 q-23 -49 -53 -72t-48 -23q-23 0 -46 40q-27 49 -46 107q-10 34 -31 34q-3 0 -6 -1q-15 -4 -21.5 -11t-15.5 -29l-52 -127q-6 -13 -17 -13q-8 0 -15.5 1.5t-14 8t-2.5 16.5zM170.5 193q2.5 -4 11.5 -3q56 5 147 65q30 20 47 43.5t17 40.5q0 10 -8 18t-24 8q-37 0 -97 -51 q-28 -24 -55 -56t-37 -53q-4 -8 -1.5 -12z" />
<glyph unicode="l" horiz-adv-x="246" d="M47 16q0 19 22 85l159 473q15 49 15 64.5t-16 22.5l-18 8q-4 3 -4 8.5t4 7.5q63 25 126 30l5 -6q-22 -60 -59 -172l-158 -472q-5 -14 -5 -22q0 -11 9 -11q26 0 115 101q16 2 16 -14q-26 -50 -71.5 -91.5t-100.5 -41.5q-39 0 -39 30z" />
<glyph unicode="m" horiz-adv-x="729" d="M62 12q104 277 114 315q3 10 3 16q0 12 -10 12q-44 0 -88 -55q-16 0 -14 15q21 40 61 66.5t93 26.5q17 0 24 -12t0 -29l-69 -181l3 -2q59 97 123.5 160.5t118.5 63.5q50 0 50 -48q0 -31 -21 -82l-38 -92l3 -2q141 224 238 224q56 0 56 -54q0 -29 -16 -70 q-8 -22 -30.5 -75t-42 -98.5t-20.5 -47.5q-8 -19 2 -19q13 0 43 21t51 47q16 2 16 -14q-28 -47 -79 -79.5t-93 -32.5q-7 0 -15.5 8t-8.5 17t24 66q44 103 81 197q21 54 21 73q0 24 -16 24q-37 0 -131 -120q-55 -69 -157 -253q-8 -12 -18 -12q-8 0 -15 1.5t-12.5 8t-1.5 16.5 l99 262q0 1 3.5 8.5t6.5 15.5t6.5 18.5t5 19.5t1.5 17.5t-4 13t-11 4.5q-42 0 -139 -120q-24 -31 -51.5 -75.5t-42.5 -72t-56 -105.5q-7 -12 -18 -12q-8 0 -15 1.5t-12.5 8t-1.5 16.5z" />
<glyph unicode="n" horiz-adv-x="501" d="M60 12q49 127 116 315q9 23 -3 23q-34 0 -91 -50q-14 0 -12 15q29 40 70.5 66.5t78.5 26.5q18 0 25.5 -12t0.5 -29l-68 -175l3 -2q60 91 126.5 154.5t118.5 63.5q56 0 56 -54q0 -24 -16 -70q-8 -22 -30.5 -75t-42 -98.5t-20.5 -47.5q-8 -19 2 -19q13 0 43 21t51 47 q16 2 16 -14q-28 -47 -79 -79.5t-93 -32.5q-7 0 -15.5 8t-8.5 17t24 66q8 18 38 93.5t43 103.5q21 47 21 73q0 24 -16 24q-18 0 -57.5 -34t-80.5 -85q-25 -31 -52.5 -75.5t-44 -74t-56.5 -104.5q-7 -12 -18 -12q-8 0 -15 1.5t-12.5 8t-1.5 16.5z" />
<glyph unicode="o" horiz-adv-x="406" d="M47 119q3 51 32 114.5t77 109.5q68 65 138 65q52 0 78 -35q24 -31 24 -80v-11q-3 -49 -29 -112t-77 -115q-67 -69 -143 -69q-49 0 -77 35q-24 31 -24 82q0 8 1 16zM114 80q0 -4 -1 -8q0 -22 10 -38q11 -18 32 -18q40 0 79 52q32 43 61.5 123t31.5 121v6q0 60 -40 60 q-37 0 -73 -48q-41 -55 -69 -130.5t-31 -119.5z" />
<glyph unicode="p" horiz-adv-x="448" d="M-101 -247l22 4q8 1 15 3.5t12.5 4t10.5 5.5t8 5.5t7 7t5.5 7t4.5 9.5t3.5 9.5t4 11t4.5 11.5l186 522q-43 -12 -101 -41q-6 1 -9 6.5t-1 12.5q49 35 124 55l30 81q6 5 16 5q7 0 16 -2q22 -6 25 -17l-21 -61q3 0 15 1t23 1q29 0 56.5 -7.5t53.5 -35t26 -71.5 q0 -126 -132 -237q-28 -24 -64.5 -38t-53.5 -16.5t-25 -2.5q-10 0 -31 6q-11 -3 -16 -18l-41 -118q-19 -54 -19 -70.5t27 -20.5l41 -6q11 -15 -4 -22q-17 0 -218 -6q-13 11 0 22zM149 70q-6 -16 1 -27q14 -23 37 -23q18 0 51 19t61 62q59 91 59 188q0 36 -22.5 55.5 t-56.5 19.5q-12 0 -26 -2z" />
<glyph unicode="q" horiz-adv-x="465" d="M36 61q0 76 50 159q63 107 153 156q60 32 114 32q20 0 34.5 -16t19.5 -39q32 52 54 81q7 2 14.5 -1.5t8.5 -10.5q-4 -13 -11 -35t-21.5 -69t-28.5 -93l-120 -384q-11 -34 -11 -50v-5q3 -16 22 -17l33 -3q4 -4 3 -11.5t-7 -10.5q-72 -4 -216 -29q-6 3 -7.5 11t3.5 12 l46 14q30 9 40.5 23.5t23.5 54.5l115 357h-2q-22 -31 -45.5 -60t-58 -64t-73 -56t-72.5 -21q-30 0 -45.5 22t-15.5 53zM108 59q0 -28 22 -28q27 0 84 48q83 71 126 144q28 50 28 98q0 18 -10 37.5t-26 19.5q-34 0 -78 -40q-50 -46 -98 -136t-48 -143z" />
<glyph unicode="r" horiz-adv-x="341" d="M63 12q2 7 24.5 72t44.5 132t34 111q6 21 -8 21q-32 0 -71 -52q-8 -2 -12.5 2.5t-3.5 13.5q57 96 118 96q35 0 35 -38q0 -22 -12 -57l-43 -126h5q60 112 105 169q40 52 73 52q40 0 40 -49q0 -32 -21 -60q-9 -12 -19 -11t-13 16q-7 39 -21 39q-12 0 -35 -30 q-28 -36 -61 -95t-53 -100t-56 -120q-6 -12 -17 -12q-8 0 -15.5 1.5t-14 8t-3.5 16.5z" />
<glyph unicode="s" horiz-adv-x="262" d="M4 39q0 17 15 33q13 12 27 0q35 -40 69 -40q19 0 33.5 17t14.5 40q0 29 -37 88q-35 57 -35 93q0 53 60 105q38 33 74 33q26 0 43 -18t17 -39q0 -22 -18 -31q-11 -3 -19 8q-12 12 -17 16.5t-17.5 10t-26.5 5.5q-20 0 -30.5 -13t-10.5 -27q0 -34 34 -91q16 -26 22.5 -39 t11.5 -32q4 -16 4 -33v-7q-2 -53 -52 -96q-41 -36 -101 -36q-27 0 -44 17t-17 36z" />
<glyph unicode="t" horiz-adv-x="284" d="M54 13q0 15 14 57l94 276h-78q-1 5 -1 9q0 15 12 19l80 14l56 99q7 5 19.5 3t18.5 -9l-29 -98h109q5 -7 1.5 -19.5t-13.5 -17.5h-109l-90 -263q-3 -9 -3 -14q0 -11 10 -11q11 0 50 31t64 59q17 0 14 -18q-40 -59 -99 -101.5t-93 -42.5q-10 0 -18.5 9t-8.5 18z" />
<glyph unicode="u" horiz-adv-x="496" d="M58 289q21 33 80.5 76t92.5 43q11 0 22.5 -9t7.5 -21l-112 -292q-5 -13 -5 -22q0 -12 12 -12q22 0 107 83q26 26 49 55t43.5 62t32.5 54t29.5 55t21.5 41q15 3 30.5 -3t18.5 -15q-2 -5 -23.5 -61t-48 -126t-45.5 -123q-10 -25 4 -25q13 0 44.5 26t53.5 52q17 4 18 -14 q-21 -39 -79 -83t-96 -44q-12 0 -20.5 11.5t-4.5 23.5l68 183l-2 1q-64 -80 -138.5 -149.5t-111.5 -69.5q-29 0 -36 26q-2 9 -2 18q0 19 9 41l92 243q6 14 6 21.5t-6 7.5q-13 0 -43 -23t-52 -46q-7 -1 -12.5 3.5t-4.5 11.5z" />
<glyph unicode="v" horiz-adv-x="426" d="M61 297q29 41 73.5 76t84.5 35q19 0 30 -20q6 -10 6 -23q0 -11 -5 -23l-86 -223q-10 -28 -10 -47q0 -36 29 -36q44 0 109 74q41 47 63.5 100t22.5 91q0 41 -9 71q1 16 12 26t25 10q39 0 39 -62q0 -56 -49 -145t-112 -142q-88 -73 -156 -73q-19 0 -32.5 18.5t-13.5 41.5 q0 31 25 96l69 179q4 11 4 18q0 11 -11 11q-13 0 -40.5 -21t-52.5 -49q-7 0 -11.5 5.5t-3.5 11.5z" />
<glyph unicode="w" horiz-adv-x="657" d="M62 297q29 42 72.5 76.5t85.5 34.5q20 0 30 -20q5 -10 5 -22q0 -11 -5 -24l-79 -209q-19 -49 -19 -71q0 -24 22 -24q30 0 75.5 49t81.5 103q46 70 65 160q5 24 19 39t28 15q16 0 23 -9t7 -19q0 -4 -0.5 -8.5t-2.5 -10t-3.5 -9.5t-5 -12.5t-6 -13.5t-8 -17t-9.5 -19 q-54 -111 -54 -204q0 -44 37 -44q23 0 58.5 26.5t65.5 69.5q62 89 62 167q0 41 -9 71q1 16 12 26t25 10q39 0 39 -62q0 -46 -27.5 -109t-81.5 -129q-50 -60 -103 -91t-88 -31q-17 0 -36.5 17.5t-19.5 39.5q0 30 17 85q4 12 -0.5 11.5t-13.5 -12.5q-40 -54 -94 -97.5 t-96 -43.5q-20 0 -35.5 17.5t-15.5 36.5q0 25 17 73l75 200q6 17 6 26q0 11 -9 11q-15 0 -42 -21t-50 -49q-7 0 -11.5 5.5t-3.5 11.5z" />
<glyph unicode="x" horiz-adv-x="420" d="M-9 22q0 36 29 60q12 11 22 11q8 0 10 -13q6 -28 18 -28q11 0 40 31q18 19 86 100l-42 108q-17 44 -25 46q-1 1 -3 1q-5 0 -10 -3t-10 -9.5t-8.5 -11.5t-9 -14t-7.5 -13q-8 -4 -13.5 0t-4.5 14q13 40 42 73.5t48 33.5q25 0 44 -52l43 -117q3 4 9.5 11.5t22 26.5t36.5 44 q39 46 64.5 66.5t48.5 20.5q19 0 29.5 -14t10.5 -33q0 -24 -13.5 -41t-26.5 -17q-9 0 -14 17q-7 25 -21 25q-13 0 -40 -27t-95 -110l37 -95q23 -57 36 -57q14 0 47 59q5 6 13.5 3.5t7.5 -9.5q-11 -51 -35.5 -87t-51.5 -36q-19 0 -31.5 17t-27.5 53l-38 95q-9 -9 -36 -41.5 t-37 -44.5q-66 -79 -108 -79q-17 0 -26.5 10.5t-9.5 25.5z" />
<glyph unicode="y" horiz-adv-x="366" d="M-100 -223q0 19 11.5 31t28.5 12q16 0 27 -16q11 -18 28 -18q21 0 55 28q21 18 48 61t40 89q20 72 20 204v24q-3 150 -38 150q-7 0 -14 -5t-15 -18t-13.5 -22.5t-15.5 -30.5q-15 -4 -19 13q17 54 48 91.5t66 37.5q56 0 61 -170v-25q0 -106 -15 -195h4q47 70 84 172 q14 39 25 99.5t12 85.5q2 31 24 31q14 0 28 -9q9 -6 9 -22q0 -30 -28 -115q-29 -89 -88 -188q-3 -5 -17.5 -29.5t-18 -31t-16.5 -27.5t-19 -30t-19 -27.5t-23 -31t-23.5 -29.5t-28.5 -34q-88 -101 -156 -101q-23 0 -37.5 13.5t-14.5 32.5z" />
<glyph unicode="z" horiz-adv-x="406" d="M2 14q0 18 58 71q83 75 243 226q5 5 5 9q0 8 -17 13q-61 20 -114 20q-24 0 -33.5 -12t-9.5 -24q0 -22 16 -38q0 -10 -9.5 -19t-25.5 -9q-18 0 -27.5 11t-9.5 26q0 30 45 72q45 40 104 40q28 0 64 -10q56 -17 73 -17q7 0 13.5 1t12 4t9.5 5t8 6.5t6 6.5t5.5 6.5t4.5 5.5 q11 1 19 -5t6 -15q-12 -11 -75 -67t-129 -117.5t-122 -118.5l1 -3q9 0 17.5 -0.5t16 -1.5t17 -4t15 -5t15.5 -6t14.5 -6t15.5 -7t14 -7q42 -19 63 -19q17 0 31.5 13t14.5 33q0 15 -10 48q-5 17 2.5 23.5t17.5 6.5q19 0 31 -16t12 -35q0 -45 -52 -87q-44 -35 -80 -35 q-24 0 -82 25q-9 4 -33.5 15.5t-38.5 16t-25 4.5q-24 0 -37 -12.5t-21 -39.5h-7q-32 0 -32 28z" />
<glyph unicode="{" horiz-adv-x="320" d="M86 -79q0 10 2 22t4.5 21t8.5 26.5t8.5 24.5t11.5 28.5t11 27.5q3 7 9.5 23.5t9.5 23.5t8 20.5t7.5 21.5t5.5 19t4 19.5t1 16.5q0 37 -68 42q-5 15 5 22q32 2 54 9.5t33.5 21.5t15.5 22.5t9 24.5q10 31 24 103q15 77 24 110q36 124 176 124q2 -12 -6 -18 q-94 -16 -113 -98q-11 -45 -21 -102q-13 -76 -21 -103q-24 -84 -105 -103l-1 -4q51 -13 51 -69q0 -11 -6 -31.5t-13 -37t-17 -39.5t-12 -29q0 -1 -11.5 -27.5t-16.5 -39t-11 -33t-6 -32.5q0 -56 61 -69q2 -13 -5 -17q-111 0 -111 79z" />
<glyph unicode="|" horiz-adv-x="260" d="M140 -250v1000h59v-1000h-59z" />
<glyph unicode="}" horiz-adv-x="320" d="M-39 -158q-2 12 6 18q94 16 113 98q11 45 21 102q13 76 21 103q24 84 105 103l1 4q-51 13 -51 69q0 11 6 31.5t13 37t17 39.5t12 29q0 1 11.5 27.5t16.5 39t11 33t6 32.5q0 56 -61 69q-2 13 5 17q111 0 111 -79q0 -10 -2 -22t-4.5 -21t-8.5 -26.5t-8.5 -24.5t-11.5 -28.5 t-11 -27.5q-3 -7 -9.5 -23.5t-9.5 -23.5t-8 -20.5t-7.5 -21.5t-5.5 -19t-4 -19.5t-1 -16.5q0 -37 68 -42q5 -15 -5 -22q-32 -2 -54 -9.5t-33.5 -21.5t-15.5 -22.5t-9 -24.5q-10 -31 -24 -103q-15 -77 -24 -110q-12 -41 -33.5 -68t-48.5 -38.5t-49 -15t-45 -2.5z" />
<glyph unicode="~" horiz-adv-x="560" d="M116 129q23 56 45 80q21 21 57 21h124q37 0 53 12.5t36 52.5q10 4 20 0.5t13 -14.5q-25 -63 -46 -82q-20 -18 -56 -18h-124q-37 0 -53 -13t-36 -53q-10 -4 -20 -0.5t-13 14.5z" />
<glyph unicode="&#xa1;" horiz-adv-x="206" d="M-56 -234q2 5 5.5 14t11.5 29.5t16 40.5l124 325q3 6 12 6t14 -6l-69 -323q-14 -68 -20 -87q-6 -20 -16.5 -25.5t-36.5 -5.5q-28 0 -37 8.5t-4 23.5zM107 332q0 26 17.5 44t39.5 18q21 0 32.5 -13.5t11.5 -31.5q0 -29 -17 -46.5t-40 -17.5q-21 0 -32.5 12.5t-11.5 34.5z " />
<glyph unicode="&#xa2;" d="M120 275q0 104 78.5 174.5t185.5 76.5l25 86q21 10 39 0l-25 -85q63 -4 99 -26q11 -13 5 -38q-3 -11 -11.5 -22.5t-15.5 -11.5q-5 0 -7 3q-32 48 -80 60l-102 -347q29 -10 75.5 8t70.5 43q5 0 9 -5t3 -11q-23 -31 -69 -52.5t-101 -21.5l-30 -102q-7 -8 -20 -7.5t-19 7.5 l31 105q-70 11 -105.5 57t-35.5 109zM197 293q0 -113 78 -139l100 341q-75 -4 -126.5 -65t-51.5 -137z" />
<glyph unicode="&#xa3;" d="M1 4q5 24 63 65q82 58 118 218q3 8 0.5 11t-13.5 3h-82q-5 5 -2 16t10 16h81q10 0 12.5 1.5t2.5 7.5q5 30 12 59q23 108 87.5 173.5t148.5 65.5q48 0 73 -25q8 -9 8 -18q1 -16 -12.5 -31.5t-22.5 -15.5q-5 0 -13 7q-43 41 -82 41q-68 0 -99 -140q-5 -20 -10 -56.5 t-8 -53.5q-1 -9 2 -12t15 -3h147q5 -4 2 -16t-10 -16h-146q-13 0 -17.5 -2.5t-6.5 -11.5q-26 -124 -142 -207v-2q38 5 80 -1q20 -3 82 -31q54 -26 90 -26q45 0 51 72q3 37 24 37q17 0 27 -15t6 -35q-9 -38 -62.5 -73.5t-109.5 -35.5q-46 0 -110 39q-60 37 -94 37t-43 -33 q-2 -10 -17.5 -18.5t-25.5 -8.5q-17 0 -14 18z" />
<glyph unicode="&#xa4;" d="M91 313q0 77 44 132l-43 45q2 15 16 29t31 19l38 -51q54 40 119 40q67 0 119 -40l39 51q17 -5 31 -19t15 -29l-42 -45q43 -56 43 -132t-43 -132l42 -45q-1 -15 -15 -29t-31 -19l-39 51q-52 -40 -119 -40q-65 0 -119 40l-38 -51q-17 5 -31 19t-16 29l43 45q-44 55 -44 132 zM148 313q0 -71 44.5 -119.5t103.5 -48.5t103.5 49t44.5 119q0 69 -44.5 118.5t-103.5 49.5q-60 0 -104 -49.5t-44 -118.5z" />
<glyph unicode="&#xa5;" d="M74.5 228q2.5 11 9.5 15h152l24 81h-152q-3 6 -1 17t9 15h138l-54 164q-16 47 -25.5 62t-32.5 22l-21 6q-4 5 -3 12t7 9q51 -3 103 -3q61 0 97 3q6 -4 6 -10.5t-5 -10.5l-43 -9q-22 -4 -25 -14t5 -37l37 -128q12 -45 20 -53q7 5 42 44l100 116q48 56 34 68q-4 3 -11 5 l-30 8q-9 13 4 21q57 -3 98 -3q34 0 79 3q13 -10 3 -21l-28 -7q-20 -5 -43.5 -22.5t-35.5 -30t-36 -38.5l-144 -156h148q4 -7 2 -17.5t-10 -14.5h-161l-26 -81h154q4 -7 1.5 -17.5t-10.5 -14.5h-156l-29 -98q-16 -51 -11 -68t43 -22l29 -4q9 -12 -3 -22q-61 3 -118 3 q-65 0 -118 -3q-5 4 -4.5 11t6.5 11l26 4q41 6 55.5 21.5t30.5 71.5l27 95h-153q-3 6 -0.5 17z" />
<glyph unicode="&#xa6;" horiz-adv-x="260" d="M140 -175v350h59v-350h-59zM140 325v350h59v-350h-59z" />
<glyph unicode="&#xa7;" horiz-adv-x="460" d="M7 -55q0 14 12.5 17.5t23.5 -6.5q49 -38 94 -38q38 0 64 21.5t26 62.5q0 62 -52 187q-53 124 -53 182q0 65 52 138.5t127 125.5q90 62 136 62q28 0 49.5 -19t21.5 -46q0 -39 -27 -39q-7 0 -14 15q-24 42 -64 42q-41 0 -66 -23.5t-25 -61.5q0 -64 46 -176 q4 -11 13.5 -34.5t13 -32t10.5 -26.5t9.5 -26t7 -21.5t5.5 -22.5t2.5 -20t1.5 -22q0 -56 -30 -101t-91 -101q-125 -115 -206 -115q-36 0 -61.5 22t-25.5 56zM182 415q0 -73 46 -181q52 -123 53 -160q2 -34 -3 -69l2 -2q28 26 52.5 68t24.5 89q0 57 -39 153q-56 138 -59 166 q-4 52 7 89l-1 2q-29 -26 -56 -70t-27 -85z" />
<glyph unicode="&#xa8;" horiz-adv-x="360" d="M186 551q0 23 14.5 38.5t33.5 15.5q17 0 27 -11.5t10 -26.5q0 -25 -14.5 -39.5t-33.5 -14.5q-17 0 -27 10.5t-10 27.5zM341 551q0 23 14.5 38.5t33.5 15.5q17 0 27 -11.5t10 -26.5q0 -25 -14.5 -39.5t-33.5 -14.5q-17 0 -27 10.5t-10 27.5z" />
<glyph unicode="&#xa9;" horiz-adv-x="825" d="M121 330q0 145 100.5 245.5t249.5 100.5t249.5 -100.5t100.5 -245.5t-100.5 -245.5t-249.5 -100.5t-249.5 100.5t-100.5 245.5zM178 331q0 -130 84.5 -219t208.5 -89t208.5 89t84.5 219q0 129 -84.5 217.5t-208.5 88.5t-208.5 -88.5t-84.5 -217.5zM281 328q0 89 64 145 t160 56q24 0 50.5 -3.5t46.5 -8t24 -4.5q3 -17 6.5 -48.5t5.5 -44.5q-3 -5 -10 -6t-11 3q-27 85 -118 85q-68 0 -105.5 -47.5t-37.5 -120.5q0 -79 41 -127t108 -48q81 0 123 95q12 10 20 -3q-2 -20 -10 -50.5t-17 -45.5q-73 -23 -122 -23q-104 0 -161 58t-57 138z" />
<glyph unicode="&#xaa;" horiz-adv-x="364" d="M69 280q0 16 17 55.5t51 82.5q51 65 102 92q40 20 75 20q23 0 34 -19l22 46q10 4 24 0t19 -11q-62 -135 -104 -248q-6 -17 6 -17q23 0 78 48q12 0 12 -12q-24 -30 -62 -53.5t-73 -23.5q-11 0 -16.5 6.5t-5.5 12.5q0 7 8 28l22 57l-1 -1l-2 2q-39 -42 -88 -73.5t-78 -31.5 q-19 0 -29.5 12t-10.5 28zM140 293q0 -13 11 -13q19 0 71 46q33 28 64.5 74t40.5 78q-10 25 -36 25q-24 0 -55 -27q-37 -30 -66.5 -87.5t-29.5 -95.5z" />
<glyph unicode="&#xab;" horiz-adv-x="400" d="M79 190q-10 15 6 31q26 26 77 76t75 74q12 2 14 -13l-100 -140q-9 -11 -5 -24l40 -145q-2 -6 -8 -9t-11 -1q-52 94 -88 151zM219 190q-10 15 6 31q26 26 77 76t75 74q12 2 14 -13l-100 -140q-9 -11 -5 -24l40 -145q-2 -6 -8 -9t-11 -1q-52 94 -88 151z" />
<glyph unicode="&#xac;" horiz-adv-x="560" d="M89 256v49h434v-255h-59v206h-375z" />
<glyph unicode="&#xae;" horiz-adv-x="310" d="M150 550q0 53 38 90t92 37t92 -37t38 -90t-38 -90t-92 -37t-92 37t-38 90zM181 550q0 -43 29 -74t70 -31t70 31t29 74q0 44 -29 74.5t-70 30.5t-70 -30.5t-29 -74.5zM221.5 495q-0.5 4 1.5 5l4 1q8 2 9.5 5.5t1.5 15.5v57q0 19 -11 20h-4q-2 3 -1.5 6.5t2.5 4.5 q42 2 56 2q50 0 50 -34q0 -19 -18 -28q-3 -1 0 -7q16 -34 25 -40q7 -5 9 -6q2 0 2 -3t-2 -4q-5 -1 -14 -1q-24 0 -37 21q-1 2 -14 25q-3 6 -9 6t-6 -5v-14q0 -12 2 -16t12 -5l3 -1q1 -1 1 -5t-1 -5q-5 0 -14.5 0.5t-15.5 0.5t-15.5 -0.5t-13.5 -0.5q-2 1 -2.5 5zM266 560 q0 -5 2 -6t10 -1q20 0 20 20q0 25 -19 25q-13 0 -13 -8v-30z" />
<glyph unicode="&#xaf;" horiz-adv-x="360" d="M216 537q0 14 8 23h185q7 -9 7 -23t-7 -23h-185q-8 9 -8 23z" />
<glyph unicode="&#xb0;" horiz-adv-x="400" d="M167 511q0 57 39 93t95 36t95 -36t39 -93q0 -59 -38.5 -94t-95.5 -35t-95.5 35t-38.5 94zM223 511q0 -42 22 -68t56 -26t56 26t22 68t-22 68t-56 26t-56 -26t-22 -68z" />
<glyph unicode="&#xb1;" horiz-adv-x="560" d="M118 0v49h385v-49h-385zM118 249v49h164v158h59v-158h162v-49h-162v-165h-59v165h-164z" />
<glyph unicode="&#xb2;" horiz-adv-x="360" d="M76 328q51 31 125 90q2 1 22 17.5t25.5 21t24 20.5t25.5 24t20 24t18 27.5t10 26.5t5 29q0 27 -18 44.5t-47 17.5q-47 0 -94 -58q-5 -2 -10 1t-6 9q21 39 58.5 62.5t79.5 23.5q49 0 79 -25.5t30 -68.5q0 -40 -28.5 -73t-86.5 -76l-50 -37q-66 -50 -66 -60q0 -5 18 -5h62 q38 0 57 6.5t34 28.5q4 3 12 2t10 -5q-17 -27 -43 -82q-32 2 -102 2h-86q-51 0 -75 -2q-9 6 -3 15z" />
<glyph unicode="&#xb3;" horiz-adv-x="360" d="M87 317q0 12 9 21t22 9q20 0 34 -27q9 -18 30 -18q61 0 106 44t45 103q0 31 -19.5 50t-50.5 19q-34 0 -71 -29q-20 9 -8 31q3 1 23 8t35.5 13t37.5 17t37 21.5t26 25t11 29.5q0 20 -14 30.5t-34 10.5q-25 0 -51.5 -17t-45.5 -42q-15 -2 -15 13q21 34 58 56.5t79 22.5 q39 0 63.5 -19.5t24.5 -49.5q0 -52 -97 -84q-8 -7 6 -10q32 -8 55.5 -30.5t23.5 -57.5q0 -55 -41 -98t-97 -63t-110 -20q-34 0 -53.5 10.5t-18.5 30.5z" />
<glyph unicode="&#xb4;" horiz-adv-x="360" d="M289 471l94 143q13 21 24 20q13 0 28 -15t13 -26q0 -10 -17 -24l-126 -111q-6 0 -11 4t-5 9z" />
<glyph unicode="&#xb5;" horiz-adv-x="496" d="M-37 -238l207 552q11 29 0 29q-13 0 -43 -23t-52 -46q-7 -1 -12.5 3.5t-4.5 11.5q21 33 80.5 76t92.5 43q11 0 22.5 -9t7.5 -21l-112 -292q-13 -34 7 -34q23 0 106 83q26 26 49 54.5t44 63t32 53t31 56.5t21 40q15 3 30.5 -3t18.5 -15q-2 -5 -23.5 -61t-48 -126 t-45.5 -123q-10 -25 4 -25q13 0 44.5 26t53.5 52q17 4 18 -14q-21 -39 -79 -83t-96 -44q-12 0 -20.5 11.5t-4.5 23.5l63 171l-2 1q-59 -72 -131.5 -139.5t-100.5 -67.5q-10 0 -16 5q-6 1 -10 -4.5t-8 -17.5l-15 -42q-14 -38 -14 -91q0 -43 -7 -64q-6 -17 -26.5 -29 t-45.5 -12q-26 0 -15 31z" />
<glyph unicode="&#xb6;" d="M77 -149q0 21 11.5 35t25.5 19q16 0 29.5 -9.5t12.5 -20.5q-16 -14 -16 -32q0 -13 8.5 -20.5t20.5 -7.5q57 0 100 143l44 145q5 21 2 28.5t-16 8.5q-25 2 -54 12.5t-57 30t-46.5 52t-18.5 72.5q0 51 24 96t65 74q91 63 242 63q99 0 122 -5q5 -3 4 -11.5t-6 -10.5l-42 -7 q-42 -7 -51.5 -15t-20.5 -46l-139 -468q-9 -32 -16 -52t-21.5 -49.5t-30 -47t-40 -30.5t-53.5 -13q-37 0 -60 18t-23 48z" />
<glyph unicode="&#xb7;" horiz-adv-x="250" d="M95 199q0 26 17.5 44t39.5 18q21 0 32.5 -13.5t11.5 -31.5q0 -29 -17 -46.5t-40 -17.5q-21 0 -32.5 12.5t-11.5 34.5z" />
<glyph unicode="&#xb8;" horiz-adv-x="360" d="M55 -185q0 8 7 16t18 8q10 0 24 -14q15 -15 21 -15q10 0 19 7.5t9 23.5q0 38 -53 62v4l68 93h33l-36 -49q-11 -13 5 -26q37 -30 37 -65q0 -31 -32 -54t-70 -23q-50 0 -50 32z" />
<glyph unicode="&#xb9;" horiz-adv-x="360" d="M132 322.5q0 7.5 3 9.5l18 2q30 4 39.5 15t21.5 51l58 195q9 32 8 38q1 6 -4.5 9t-16.5 5l-30 5q-8 10 2 17q79 12 126 35q9 2 11 -6q-19 -53 -24 -71l-67 -228q-12 -38 -9 -50t29 -15l19 -2q4 -3 3 -10t-6 -9q-52 2 -95 2q-47 0 -83 -2q-3 2 -3 9.5z" />
<glyph unicode="&#xba;" horiz-adv-x="328" d="M88 334q2 38 24 82.5t56 74.5q56 49 116 49q44 0 65.5 -24.5t19.5 -65.5q-2 -34 -22.5 -79t-59.5 -82q-51 -49 -114 -49q-39 0 -63.5 25t-21.5 69zM145 307q-1 -17 8.5 -29t25.5 -12q34 0 63 39q30 40 48 87t20 77q2 45 -34 45q-29 0 -61 -39q-27 -33 -48 -86t-22 -82z " />
<glyph unicode="&#xbb;" horiz-adv-x="400" d="M51 52l100 140q9 11 5 24l-40 145q2 6 8 9t11 1q52 -94 88 -151q10 -15 -6 -31q-26 -26 -77 -76t-75 -74q-12 -2 -14 13zM191 52l100 140q9 11 5 24l-40 145q2 6 8 9t11 1q52 -94 88 -151q10 -15 -6 -31q-26 -26 -77 -76t-75 -74q-12 -2 -14 13z" />
<glyph unicode="&#xbc;" horiz-adv-x="820" d="M108 254.5q0 7.5 3 9.5l18 2q30 4 39.5 15t21.5 51l58 195q9 32 8 38q1 6 -4.5 9t-16.5 5l-30 5q-8 10 2 17q79 12 126 35q9 2 11 -6q-19 -53 -24 -71l-67 -228q-12 -38 -9 -50t29 -15l19 -2q4 -3 3 -10t-6 -9q-52 2 -95 2q-47 0 -83 -2q-3 2 -3 9.5zM158 -14 q274 325 557 668q10 0 19.5 -7t9.5 -18q-251 -297 -559 -669q-27 0 -27 26zM440 126q3 9 16 21l296 273q12 12 22 12q20 0 20 -5q0 -2 -4 -6l-286 -263q-9 -10 -6 -12.5t19 -2.5h93q13 0 17 2.5t7 13.5l33 111q2 9 9 12q22 11 43 11q9 0 10 -5t-3 -14l-35 -117 q-3 -9 -1.5 -11.5t11.5 -2.5h38q5 -4 2.5 -13.5t-9.5 -13.5h-34q-14 0 -17.5 -2.5t-5.5 -11.5l-10 -35q-8 -24 -6 -34.5t24 -13.5l24 -4q4 -3 2.5 -9t-5.5 -8q-68 2 -90 2q-34 0 -84 -2q-4 2 -3.5 8t4.5 9l24 4q24 4 34.5 12.5t17.5 35.5l9 33q4 10 1.5 13t-15.5 3h-156 q-9 0 -6 10z" />
<glyph unicode="&#xbd;" horiz-adv-x="820" d="M92 254.5q0 7.5 3 9.5l18 2q30 4 39.5 15t21.5 51l58 195q9 32 8 38q1 6 -4.5 9t-16.5 5l-30 5q-8 10 2 17q79 12 126 35q9 2 11 -6q-19 -53 -24 -71l-67 -228q-12 -38 -9 -50t29 -15l19 -2q4 -3 3 -10t-6 -9q-52 2 -95 2q-47 0 -83 -2q-3 2 -3 9.5zM138 -14 q274 325 557 668q10 0 19.5 -7t9.5 -18q-251 -297 -559 -669q-27 0 -27 26zM448 13q51 31 125 90q2 1 22 17.5t25.5 21t24 20.5t25.5 24t20 24t18 27.5t10 26.5t5 29q0 27 -18 44.5t-47 17.5q-47 0 -94 -58q-5 -2 -10 1t-6 9q21 39 58.5 62.5t79.5 23.5q49 0 79 -25.5 t30 -68.5q0 -40 -28.5 -73t-86.5 -76l-50 -37q-66 -50 -66 -60q0 -5 18 -5h62q38 0 57 6.5t34 28.5q4 3 12 2t10 -5q-17 -27 -43 -82q-32 2 -102 2h-86q-51 0 -75 -2q-9 6 -3 15z" />
<glyph unicode="&#xbe;" horiz-adv-x="820" d="M78 249q0 12 9 21t22 9q20 0 34 -27q9 -18 30 -18q61 0 106 44t45 103q0 31 -19.5 50t-50.5 19q-34 0 -71 -29q-20 9 -8 31q3 1 23 8t35.5 13t37.5 17t37 21.5t26 25t11 29.5q0 20 -14 30.5t-34 10.5q-25 0 -51.5 -17t-45.5 -42q-15 -2 -15 13q21 34 58 56.5t79 22.5 q39 0 63.5 -19.5t24.5 -49.5q0 -52 -97 -84q-9 -4 2 -8l4 -2q32 -8 55.5 -30.5t23.5 -57.5q0 -55 -41 -98t-97 -63t-110 -20q-72 0 -72 41zM192 -14q274 325 557 668q10 0 19.5 -7t9.5 -18q-251 -297 -559 -669q-27 0 -27 26zM464 126q3 9 16 21l296 273q12 12 22 12 q20 0 20 -5q0 -2 -4 -6l-286 -263q-9 -10 -6 -12.5t19 -2.5h93q13 0 17 2.5t7 13.5l33 111q2 9 9 12q22 11 43 11q9 0 10 -5t-3 -14l-35 -117q-3 -9 -1.5 -11.5t11.5 -2.5h38q5 -4 2.5 -13.5t-9.5 -13.5h-34q-14 0 -17.5 -2.5t-5.5 -11.5l-10 -35q-8 -24 -6 -34.5t24 -13.5 l24 -4q4 -3 2.5 -9t-5.5 -8q-68 2 -90 2q-34 0 -84 -2q-4 2 -3.5 8t4.5 9l24 4q24 4 34.5 12.5t17.5 35.5l9 33q4 10 1.5 13t-15.5 3h-156q-9 0 -6 10z" />
<glyph unicode="&#xbf;" horiz-adv-x="300" d="M-23 -124q0 89 103 146l67 37q46 26 46 65q0 23 -9 48q6 11 16 5q44 -57 31 -106q-12 -45 -78 -81l-62 -35q-41 -23 -61 -43.5t-20 -47.5q0 -32 21 -51.5t49 -19.5q23 0 45 11l22 11q7 0 13 -7.5t6 -20.5q0 -21 -20.5 -37t-51.5 -16q-44 0 -80.5 44t-36.5 98zM173 332 q0 26 17.5 44t39.5 18q21 0 32.5 -13.5t11.5 -31.5q0 -29 -17 -46.5t-40 -17.5q-21 0 -32.5 12.5t-11.5 34.5z" />
<glyph unicode="&#xc0;" horiz-adv-x="596" d="M-54 -3q-10 13 2 25l27 3q40 4 72 42q36 44 165 225l176 248q53 74 60 103q15 2 32.5 10.5t29.5 15.5l11 7q12 0 12 -8q0 -7 -1.5 -24.5t-4 -51.5t-4.5 -71l-20 -378q-2 -33 -2.5 -47.5t1 -30.5t3 -20.5t9.5 -10t15 -6.5t23 -3l26 -3q4 -5 2.5 -13.5t-6.5 -11.5 q-46 3 -113 3q-70 0 -115 -3q-7 3 -7.5 12.5t6.5 12.5l31 3q30 3 39 16q8 13 11 62l9 134q2 17 -1.5 21.5t-19.5 4.5h-144q-23 0 -30 -4.5t-21 -26.5l-73 -114q-45 -71 -45 -75q0 -11 23 -15l37 -6q6 -5 5 -13.5t-7 -11.5q-47 3 -102 3q-57 0 -111 -3zM273.5 306 q3.5 -3 19.5 -3h126q13 0 16 3.5t4 16.5l16 219q2 26 -2 26q-5 0 -38 -49l-139 -201q-6 -9 -2.5 -12zM375 782q-6 12 6 35q10 19 23 19q10 0 23 -12l122 -98q2 -6 -1 -12t-8 -8l-144 61q-16 7 -21 15z" />
<glyph unicode="&#xc1;" horiz-adv-x="596" d="M-54 -3q-10 13 2 25l27 3q40 4 72 42q36 44 165 225l176 248q53 74 60 103q15 2 32.5 10.5t29.5 15.5l11 7q12 0 12 -8q0 -7 -1.5 -24.5t-4 -51.5t-4.5 -71l-20 -378q-2 -33 -2.5 -47.5t1 -30.5t3 -20.5t9.5 -10t15 -6.5t23 -3l26 -3q4 -5 2.5 -13.5t-6.5 -11.5 q-46 3 -113 3q-70 0 -115 -3q-7 3 -7.5 12.5t6.5 12.5l31 3q30 3 39 16q8 13 11 62l9 134q2 17 -1.5 21.5t-19.5 4.5h-144q-23 0 -30 -4.5t-21 -26.5l-73 -114q-45 -71 -45 -75q0 -11 23 -15l37 -6q6 -5 5 -13.5t-7 -11.5q-47 3 -102 3q-57 0 -111 -3zM273.5 306 q3.5 -3 19.5 -3h126q13 0 16 3.5t4 16.5l16 219q2 26 -2 26q-5 0 -38 -49l-139 -201q-6 -9 -2.5 -12zM463 726l122 98q13 12 23 12q13 0 23 -19q12 -23 6 -35q-5 -8 -21 -15l-144 -61q-5 2 -8 8t-1 12z" />
<glyph unicode="&#xc2;" horiz-adv-x="596" d="M-54 -3q-10 13 2 25l27 3q40 4 72 42q36 44 165 225l176 248q53 74 60 103q15 2 32.5 10.5t29.5 15.5l11 7q12 0 12 -8q0 -7 -1.5 -24.5t-4 -51.5t-4.5 -71l-20 -378q-2 -33 -2.5 -47.5t1 -30.5t3 -20.5t9.5 -10t15 -6.5t23 -3l26 -3q4 -5 2.5 -13.5t-6.5 -11.5 q-46 3 -113 3q-70 0 -115 -3q-7 3 -7.5 12.5t6.5 12.5l31 3q30 3 39 16q8 13 11 62l9 134q2 17 -1.5 21.5t-19.5 4.5h-144q-23 0 -30 -4.5t-21 -26.5l-73 -114q-45 -71 -45 -75q0 -11 23 -15l37 -6q6 -5 5 -13.5t-7 -11.5q-47 3 -102 3q-57 0 -111 -3zM273.5 306 q3.5 -3 19.5 -3h126q13 0 16 3.5t4 16.5l16 219q2 26 -2 26q-5 0 -38 -49l-139 -201q-6 -9 -2.5 -12zM378 718l142 109q12 9 21 9q12 0 17 -9l88 -109q0 -6 -5.5 -11.5t-10.5 -5.5l-87 62q-8 8 -15 8q-6 0 -16 -6l-125 -64q-5 0 -8 5.5t-1 11.5z" />
<glyph unicode="&#xc3;" horiz-adv-x="596" d="M-54 -3q-10 13 2 25l27 3q40 4 72 42q36 44 165 225l176 248q53 74 60 103q15 2 32.5 10.5t29.5 15.5l11 7q12 0 12 -8q0 -7 -1.5 -24.5t-4 -51.5t-4.5 -71l-20 -378q-2 -33 -2.5 -47.5t1 -30.5t3 -20.5t9.5 -10t15 -6.5t23 -3l26 -3q4 -5 2.5 -13.5t-6.5 -11.5 q-46 3 -113 3q-70 0 -115 -3q-7 3 -7.5 12.5t6.5 12.5l31 3q30 3 39 16q8 13 11 62l9 134q2 17 -1.5 21.5t-19.5 4.5h-144q-23 0 -30 -4.5t-21 -26.5l-73 -114q-45 -71 -45 -75q0 -11 23 -15l37 -6q6 -5 5 -13.5t-7 -11.5q-47 3 -102 3q-57 0 -111 -3zM273.5 306 q3.5 -3 19.5 -3h126q13 0 16 3.5t4 16.5l16 219q2 26 -2 26q-5 0 -38 -49l-139 -201q-6 -9 -2.5 -12zM405 697q3 15 13.5 40t20.5 34q17 19 50 19h50q28 0 40.5 6.5t29.5 30.5q11 6 16 -4q-11 -43 -35 -67q-16 -15 -45 -15h-49q-29 0 -45.5 -11t-30.5 -37q-10 -6 -15 4z" />
<glyph unicode="&#xc4;" horiz-adv-x="596" d="M-54 -3q-10 13 2 25l27 3q40 4 72 42q36 44 165 225l176 248q53 74 60 103q15 2 32.5 10.5t29.5 15.5l11 7q12 0 12 -8q0 -7 -1.5 -24.5t-4 -51.5t-4.5 -71l-20 -378q-2 -33 -2.5 -47.5t1 -30.5t3 -20.5t9.5 -10t15 -6.5t23 -3l26 -3q4 -5 2.5 -13.5t-6.5 -11.5 q-46 3 -113 3q-70 0 -115 -3q-7 3 -7.5 12.5t6.5 12.5l31 3q30 3 39 16q8 13 11 62l9 134q2 17 -1.5 21.5t-19.5 4.5h-144q-23 0 -30 -4.5t-21 -26.5l-73 -114q-45 -71 -45 -75q0 -11 23 -15l37 -6q6 -5 5 -13.5t-7 -11.5q-47 3 -102 3q-57 0 -111 -3zM273.5 306 q3.5 -3 19.5 -3h126q13 0 16 3.5t4 16.5l16 219q2 26 -2 26q-5 0 -38 -49l-139 -201q-6 -9 -2.5 -12zM386 742q0 23 14 38t33 15q17 0 27 -11.5t10 -26.5q0 -24 -14.5 -38t-33.5 -14q-17 0 -26.5 10t-9.5 27zM560 742q0 23 14 38t33 15q17 0 27 -11.5t10 -26.5 q0 -24 -14 -38t-34 -14q-17 0 -26.5 10t-9.5 27z" />
<glyph unicode="&#xc5;" horiz-adv-x="596" d="M-54 -3q-10 13 2 25l27 3q40 4 72 42q36 44 165 225l176 248q53 74 60 103q15 2 32.5 10.5t29.5 15.5l11 7q12 0 12 -8q0 -7 -1.5 -24.5t-4 -51.5t-4.5 -71l-20 -378q-2 -33 -2.5 -47.5t1 -30.5t3 -20.5t9.5 -10t15 -6.5t23 -3l26 -3q4 -5 2.5 -13.5t-6.5 -11.5 q-46 3 -113 3q-70 0 -115 -3q-7 3 -7.5 12.5t6.5 12.5l31 3q30 3 39 16q8 13 11 62l9 134q2 17 -1.5 21.5t-19.5 4.5h-144q-23 0 -30 -4.5t-21 -26.5l-73 -114q-45 -71 -45 -75q0 -11 23 -15l37 -6q6 -5 5 -13.5t-7 -11.5q-47 3 -102 3q-57 0 -111 -3zM273.5 306 q3.5 -3 19.5 -3h126q13 0 16 3.5t4 16.5l16 219q2 26 -2 26q-5 0 -38 -49l-139 -201q-6 -9 -2.5 -12zM423 787q0 33 24.5 57t60.5 24t60.5 -24t24.5 -57t-24 -57t-61 -24t-61 24t-24 57zM463 787q0 -23 13 -38t32 -15q20 0 32.5 15t12.5 38t-13 37.5t-32 14.5t-32 -15 t-13 -37z" />
<glyph unicode="&#xc6;" horiz-adv-x="842" d="M-73 11q0 9 5 13l22 3q27 4 49 20t61 60q249 286 398 472q24 30 24 38.5t-22 11.5l-57 9q-5 3 -3.5 12.5t8.5 12.5q62 -3 125 -3h251q111 0 141 3q-12 -30 -41 -133q-3 -6 -13 -5.5t-12 6.5q7 38 1 59.5t-36 29.5q-34 9 -106 9h-59q-20 0 -26 -5t-13 -29l-63 -205 q-7 -21 -5 -25t23 -4h50q72 0 96.5 8.5t41.5 40.5l16 30q3 5 13.5 4.5t11.5 -6.5q-19 -45 -34 -97q-14 -45 -26 -97q-5 -6 -13.5 -5.5t-11.5 6.5v28q0 37 -19.5 45t-83.5 8h-50q-21 0 -26.5 -4t-12.5 -25l-42 -135q-15 -50 -18.5 -68.5t1.5 -41.5q10 -21 111 -21 q89 0 128.5 17t84.5 87q16 10 23 -6q-8 -27 -29.5 -70.5t-39.5 -61.5q-17 1 -54.5 1.5t-56.5 0.5q-20 0 -59.5 0.5t-58.5 0.5h-118q-53 0 -119 -3q-6 4 -6 12.5t5 12.5l35 6q37 6 52 24t38 92l49 158q5 16 0 20t-27 4h-103q-17 0 -26 -5t-26 -26q-115 -139 -182 -226 q-27 -34 0 -38l43 -7q5 -5 4 -14.5t-6 -12.5q-50 3 -108 3q-44 0 -94 -3q-5 5 -5 14zM336 364q2 -3 22 -3h78q26 0 35 5t15 25l61 200q9 30 7 38h-2q-4 -2 -8.5 -7.5t-11 -13.5t-9.5 -11q-114 -138 -178 -218q-11 -12 -9 -15z" />
<glyph unicode="&#xc7;" horiz-adv-x="646" d="M102 253q0 84 39.5 163.5t103.5 137.5t151.5 90t184.5 32q84 0 164 -32q-30 -74 -45 -134q-3 -6 -14 -5.5t-13 6.5q15 68 -9.5 101t-99.5 33q-142 0 -256 -112q-45 -45 -81.5 -127t-36.5 -172q0 -107 49.5 -163t144.5 -56q130 0 215 140q19 8 24 -7q-20 -61 -65 -141 q-13 0 -79 -11q-70 -12 -97 -12q-11 0 -15 1l-19 -24q-12 -16 1 -26q39 -32 39 -61q0 -34 -31 -57.5t-69 -23.5q-50 0 -50 32q0 8 7 16t18 8q10 0 24 -14q15 -15 21 -15q10 0 19 7.5t9 23.5q0 38 -53 62v4l52 70q-100 11 -166.5 74.5t-66.5 191.5z" />
<glyph unicode="&#xc8;" horiz-adv-x="566" d="M2 9.5q0 8.5 5 12.5l35 3q36 3 51 23t39 96l116 372q23 70 20 90t-42 28l-20 4q-5 6 -3.5 14t9.5 11q36 -2 53 -2q18 -1 58 -1h189q111 0 141 3q-12 -30 -41 -133q-3 -6 -13 -5.5t-12 6.5q7 38 1 59.5t-36 29.5q-34 9 -106 9h-59q-19 0 -25.5 -5.5t-13.5 -28.5l-64 -205 q-7 -21 -5 -25t23 -4h50q72 0 96.5 8.5t41.5 40.5l16 30q3 5 13.5 4.5t11.5 -6.5q-19 -45 -34 -97q-14 -45 -26 -97q-5 -6 -13.5 -5.5t-11.5 6.5v28q0 37 -19.5 45t-83.5 8h-50q-21 0 -26.5 -4t-12.5 -25l-41 -135q-15 -50 -18.5 -68.5t1.5 -41.5q10 -21 111 -21 q89 0 128.5 17t84.5 87q16 10 23 -6q-8 -27 -29.5 -70.5t-39.5 -61.5q-17 1 -54.5 1.5t-56.5 0.5q-20 0 -59.5 0.5t-58.5 0.5h-118q-53 0 -119 -3q-6 4 -6 12.5zM320 782q-6 12 6 35q10 19 23 19q9 0 23 -12l122 -98q2 -6 -1 -12t-8 -8l-144 61q-17 7 -21 15z" />
<glyph unicode="&#xc9;" horiz-adv-x="566" d="M2 9.5q0 8.5 5 12.5l35 3q36 3 51 23t39 96l116 372q23 70 20 90t-42 28l-20 4q-5 6 -3.5 14t9.5 11q36 -2 53 -2q18 -1 58 -1h189q111 0 141 3q-12 -30 -41 -133q-3 -6 -13 -5.5t-12 6.5q7 38 1 59.5t-36 29.5q-34 9 -106 9h-59q-19 0 -25.5 -5.5t-13.5 -28.5l-64 -205 q-7 -21 -5 -25t23 -4h50q72 0 96.5 8.5t41.5 40.5l16 30q3 5 13.5 4.5t11.5 -6.5q-19 -45 -34 -97q-14 -45 -26 -97q-5 -6 -13.5 -5.5t-11.5 6.5v28q0 37 -19.5 45t-83.5 8h-50q-21 0 -26.5 -4t-12.5 -25l-41 -135q-15 -50 -18.5 -68.5t1.5 -41.5q10 -21 111 -21 q89 0 128.5 17t84.5 87q16 10 23 -6q-8 -27 -29.5 -70.5t-39.5 -61.5q-17 1 -54.5 1.5t-56.5 0.5q-20 0 -59.5 0.5t-58.5 0.5h-118q-53 0 -119 -3q-6 4 -6 12.5zM413 726l122 98q13 12 23 12q13 0 23 -19q12 -23 6 -35q-5 -8 -21 -15l-144 -61q-5 2 -8 8t-1 12z" />
<glyph unicode="&#xca;" horiz-adv-x="566" d="M2 9.5q0 8.5 5 12.5l35 3q36 3 51 23t39 96l116 372q23 70 20 90t-42 28l-20 4q-5 6 -3.5 14t9.5 11q36 -2 53 -2q18 -1 58 -1h189q111 0 141 3q-12 -30 -41 -133q-3 -6 -13 -5.5t-12 6.5q7 38 1 59.5t-36 29.5q-34 9 -106 9h-59q-19 0 -25.5 -5.5t-13.5 -28.5l-64 -205 q-7 -21 -5 -25t23 -4h50q72 0 96.5 8.5t41.5 40.5l16 30q3 5 13.5 4.5t11.5 -6.5q-19 -45 -34 -97q-14 -45 -26 -97q-5 -6 -13.5 -5.5t-11.5 6.5v28q0 37 -19.5 45t-83.5 8h-50q-21 0 -26.5 -4t-12.5 -25l-41 -135q-15 -50 -18.5 -68.5t1.5 -41.5q10 -21 111 -21 q89 0 128.5 17t84.5 87q16 10 23 -6q-8 -27 -29.5 -70.5t-39.5 -61.5q-17 1 -54.5 1.5t-56.5 0.5q-20 0 -59.5 0.5t-58.5 0.5h-118q-53 0 -119 -3q-6 4 -6 12.5zM333 718l142 109q12 9 21 9q12 0 17 -9l88 -109q0 -6 -5.5 -11.5t-10.5 -5.5l-87 62q-8 8 -15 8q-5 0 -16 -6 l-125 -64q-5 0 -8 5.5t-1 11.5z" />
<glyph unicode="&#xcb;" horiz-adv-x="566" d="M2 9.5q0 8.5 5 12.5l35 3q36 3 51 23t39 96l116 372q23 70 20 90t-42 28l-20 4q-5 6 -3.5 14t9.5 11q36 -2 53 -2q18 -1 58 -1h189q111 0 141 3q-12 -30 -41 -133q-3 -6 -13 -5.5t-12 6.5q7 38 1 59.5t-36 29.5q-34 9 -106 9h-59q-19 0 -25.5 -5.5t-13.5 -28.5l-64 -205 q-7 -21 -5 -25t23 -4h50q72 0 96.5 8.5t41.5 40.5l16 30q3 5 13.5 4.5t11.5 -6.5q-19 -45 -34 -97q-14 -45 -26 -97q-5 -6 -13.5 -5.5t-11.5 6.5v28q0 37 -19.5 45t-83.5 8h-50q-21 0 -26.5 -4t-12.5 -25l-41 -135q-15 -50 -18.5 -68.5t1.5 -41.5q10 -21 111 -21 q89 0 128.5 17t84.5 87q16 10 23 -6q-8 -27 -29.5 -70.5t-39.5 -61.5q-17 1 -54.5 1.5t-56.5 0.5q-20 0 -59.5 0.5t-58.5 0.5h-118q-53 0 -119 -3q-6 4 -6 12.5zM351 742q0 23 14 38t33 15q16 0 26.5 -11.5t10.5 -26.5q0 -24 -14.5 -38t-33.5 -14q-17 0 -26.5 10t-9.5 27z M525 742q0 23 14 38t33 15q16 0 26.5 -11.5t10.5 -26.5q0 -24 -14 -38t-34 -14q-17 0 -26.5 10t-9.5 27z" />
<glyph unicode="&#xcc;" horiz-adv-x="341" d="M7 9.5q0 8.5 5 12.5l31 3q36 4 51 23.5t39 95.5l117 372q13 40 17.5 57.5t2.5 32.5t-11.5 19.5t-31.5 8.5l-24 4q-5 6 -3.5 14t9.5 11q60 -3 116 -3q48 0 120 3q6 -3 6 -12t-6 -13l-27 -4q-42 -7 -55.5 -24.5t-37.5 -93.5l-117 -372q-23 -70 -20.5 -92.5t39.5 -26.5 l31 -3q4 -5 2.5 -13.5t-6.5 -11.5q-74 3 -126 3q-55 0 -115 -3q-6 4 -6 12.5zM208 782q-6 12 6 35q10 19 23 19q9 0 23 -12l122 -98q2 -6 -1 -12t-8 -8l-144 61q-17 7 -21 15z" />
<glyph unicode="&#xcd;" horiz-adv-x="341" d="M7 9.5q0 8.5 5 12.5l31 3q36 4 51 23.5t39 95.5l117 372q13 40 17.5 57.5t2.5 32.5t-11.5 19.5t-31.5 8.5l-24 4q-5 6 -3.5 14t9.5 11q60 -3 116 -3q48 0 120 3q6 -3 6 -12t-6 -13l-27 -4q-42 -7 -55.5 -24.5t-37.5 -93.5l-117 -372q-23 -70 -20.5 -92.5t39.5 -26.5 l31 -3q4 -5 2.5 -13.5t-6.5 -11.5q-74 3 -126 3q-55 0 -115 -3q-6 4 -6 12.5zM301 726l122 98q13 12 23 12q13 0 23 -19q12 -23 6 -35q-5 -8 -21 -15l-144 -61q-5 2 -8 8t-1 12z" />
<glyph unicode="&#xce;" horiz-adv-x="341" d="M7 9.5q0 8.5 5 12.5l31 3q36 4 51 23.5t39 95.5l117 372q13 40 17.5 57.5t2.5 32.5t-11.5 19.5t-31.5 8.5l-24 4q-5 6 -3.5 14t9.5 11q60 -3 116 -3q48 0 120 3q6 -3 6 -12t-6 -13l-27 -4q-42 -7 -55.5 -24.5t-37.5 -93.5l-117 -372q-23 -70 -20.5 -92.5t39.5 -26.5 l31 -3q4 -5 2.5 -13.5t-6.5 -11.5q-74 3 -126 3q-55 0 -115 -3q-6 4 -6 12.5zM212 718l142 109q12 9 21 9q12 0 17 -9l88 -109q0 -6 -5.5 -11.5t-10.5 -5.5l-87 62q-8 8 -15 8q-6 0 -16 -6l-125 -64q-5 0 -8 5.5t-1 11.5z" />
<glyph unicode="&#xcf;" horiz-adv-x="341" d="M7 9.5q0 8.5 5 12.5l31 3q36 4 51 23.5t39 95.5l117 372q13 40 17.5 57.5t2.5 32.5t-11.5 19.5t-31.5 8.5l-24 4q-5 6 -3.5 14t9.5 11q60 -3 116 -3q48 0 120 3q6 -3 6 -12t-6 -13l-27 -4q-42 -7 -55.5 -24.5t-37.5 -93.5l-117 -372q-23 -70 -20.5 -92.5t39.5 -26.5 l31 -3q4 -5 2.5 -13.5t-6.5 -11.5q-74 3 -126 3q-55 0 -115 -3q-6 4 -6 12.5zM228 742q0 23 14 38t33 15q17 0 27 -11.5t10 -26.5q0 -24 -14.5 -38t-33.5 -14q-17 0 -26.5 10t-9.5 27zM402 742q0 23 14 38t33 15q17 0 27 -11.5t10 -26.5q0 -24 -14 -38t-34 -14 q-17 0 -26.5 10t-9.5 27z" />
<glyph unicode="&#xd0;" horiz-adv-x="745" d="M14 9.5q0 8.5 5 12.5l26 3q35 4 50 24t38 95l56 182h-107q-6 24 8 35h110l58 188q13 47 9.5 59.5t-26.5 15.5l-40 5q-5 3 -5 11.5t5 12.5q75 10 186 10q83 0 147.5 -16.5t104 -43t64.5 -63t34.5 -73t9.5 -77.5q0 -95 -42.5 -174t-115.5 -129q-132 -90 -334 -90 q-11 0 -51.5 1.5t-73.5 1.5q-58 0 -110 -3q-6 4 -6 12.5zM198 114q-14 -45 6 -63.5t85 -18.5q82 0 148.5 26.5t106.5 66t67 88.5t37 91.5t10 78.5t-3 63.5t-18.5 64.5t-42 61.5t-78 42t-122.5 17.5q-23 0 -31 -7t-16 -32l-72 -232h146q10 -23 -9 -35h-148z" />
<glyph unicode="&#xd1;" horiz-adv-x="739" d="M1 8q-1 8 4 14l25 3q31 3 49 17q23 17 76 191l79 256q33 106 33 119q0 17 -26 22l-40 8q-6 5 -4.5 14t9.5 11q8 -1 23.5 -1.5t23.5 -0.5q7 0 25.5 -0.5t29.5 -0.5h62v-14q0 -23 49 -145l101 -249q41 -98 49 -113q8 0 17 28l79 251q48 152 48 185q0 15 -4.5 20.5 t-20.5 8.5l-39 6q-4 7 -2 14.5t8 10.5q53 -3 113 -3q52 0 95 3q4 -3 4.5 -11.5t-3.5 -13.5l-23 -4q-41 -7 -52 -18q-26 -26 -82 -201l-72 -224q-34 -105 -63 -206q-8 -8 -24 -6q-28 87 -93 244l-79 192q-10 24 -24.5 62t-25 63t-17.5 40q-5 0 -32 -88l-78 -260 q-13 -43 -42 -166q-4 -16 2.5 -24.5t16 -11.5t30.5 -5l23 -3q4 -5 3 -13t-6 -12q-45 3 -114 3q-58 0 -105 -3q-5 3 -6 11zM446 697q3 15 13.5 40t20.5 34q17 19 50 19h50q28 0 40.5 6.5t29.5 30.5q11 6 16 -4q-11 -43 -35 -67q-16 -15 -45 -15h-49q-29 0 -45.5 -11 t-30.5 -37q-10 -6 -15 4z" />
<glyph unicode="&#xd2;" horiz-adv-x="730" d="M102 245q2 96 42.5 185.5t117.5 154.5q107 91 244 91q105 0 174 -71t63 -203q-4 -85 -40.5 -169.5t-94.5 -139.5q-115 -109 -262 -109q-120 0 -183.5 78t-60.5 183zM186 207q-3 -81 36.5 -136.5t130.5 -55.5q92 0 167 80q64 69 100 166t39 185q4 94 -38.5 146.5 t-118.5 52.5q-80 0 -150 -60q-62 -52 -112 -155t-54 -223zM402 782q-6 12 6 35q10 19 23 19q9 0 23 -12l122 -98q2 -6 -1 -12t-8 -8l-144 61q-17 7 -21 15z" />
<glyph unicode="&#xd3;" horiz-adv-x="730" d="M102 245q2 96 42.5 185.5t117.5 154.5q107 91 244 91q105 0 174 -71t63 -203q-4 -85 -40.5 -169.5t-94.5 -139.5q-115 -109 -262 -109q-120 0 -183.5 78t-60.5 183zM186 207q-3 -81 36.5 -136.5t130.5 -55.5q92 0 167 80q64 69 100 166t39 185q4 94 -38.5 146.5 t-118.5 52.5q-80 0 -150 -60q-62 -52 -112 -155t-54 -223zM480 726l122 98q14 12 23 12q13 0 23 -19q12 -23 6 -35q-4 -8 -21 -15l-144 -61q-5 2 -8 8t-1 12z" />
<glyph unicode="&#xd4;" horiz-adv-x="730" d="M102 245q2 96 42.5 185.5t117.5 154.5q107 91 244 91q105 0 174 -71t63 -203q-4 -85 -40.5 -169.5t-94.5 -139.5q-115 -109 -262 -109q-120 0 -183.5 78t-60.5 183zM186 207q-3 -81 36.5 -136.5t130.5 -55.5q92 0 167 80q64 69 100 166t39 185q4 94 -38.5 146.5 t-118.5 52.5q-80 0 -150 -60q-62 -52 -112 -155t-54 -223zM368 718l142 109q12 9 21 9q12 0 17 -9l88 -109q0 -6 -5.5 -11.5t-10.5 -5.5l-87 62q-8 8 -15 8q-6 0 -16 -6l-125 -64q-5 0 -8 5.5t-1 11.5z" />
<glyph unicode="&#xd5;" horiz-adv-x="730" d="M102 245q2 96 42.5 185.5t117.5 154.5q107 91 244 91q105 0 174 -71t63 -203q-4 -85 -40.5 -169.5t-94.5 -139.5q-115 -109 -262 -109q-120 0 -183.5 78t-60.5 183zM186 207q-3 -81 36.5 -136.5t130.5 -55.5q92 0 167 80q64 69 100 166t39 185q4 94 -38.5 146.5 t-118.5 52.5q-80 0 -150 -60q-62 -52 -112 -155t-54 -223zM413 697q3 15 13.5 40t20.5 34q17 19 50 19h50q28 0 40.5 6.5t29.5 30.5q11 6 16 -4q-11 -43 -35 -67q-16 -15 -45 -15h-49q-29 0 -45.5 -11t-30.5 -37q-10 -6 -15 4z" />
<glyph unicode="&#xd6;" horiz-adv-x="730" d="M102 245q2 96 42.5 185.5t117.5 154.5q107 91 244 91q105 0 174 -71t63 -203q-4 -85 -40.5 -169.5t-94.5 -139.5q-115 -109 -262 -109q-120 0 -183.5 78t-60.5 183zM186 207q-3 -81 36.5 -136.5t130.5 -55.5q92 0 167 80q64 69 100 166t39 185q4 94 -38.5 146.5 t-118.5 52.5q-80 0 -150 -60q-62 -52 -112 -155t-54 -223zM392 742q0 23 14 38t33 15q17 0 27 -11.5t10 -26.5q0 -24 -14.5 -38t-33.5 -14q-17 0 -26.5 10t-9.5 27zM566 742q0 23 14 38t33 15q17 0 27 -11.5t10 -26.5q0 -24 -14 -38t-34 -14q-17 0 -26.5 10t-9.5 27z" />
<glyph unicode="&#xd7;" horiz-adv-x="560" d="M125 50l147 149l-147 147l37 39l148 -148l149 150l37 -38l-148 -150l148 -149l-37 -39l-149 150l-148 -150z" />
<glyph unicode="&#xd8;" horiz-adv-x="730" d="M66 -16l86 93q-53 72 -50 168q2 96 42.5 185.5t117.5 154.5q107 91 244 91q89 0 153 -52l68 76q9 0 17 -8.5t9 -17.5l-68 -75q64 -72 58 -197q-4 -83 -40 -167.5t-95 -141.5q-115 -109 -262 -109q-106 0 -170 64l-85 -92q-10 1 -17.5 9.5t-7.5 18.5zM186 205 q-2 -45 10 -81l429 463q-44 58 -123 58q-80 0 -150 -60q-62 -52 -112 -155t-54 -225zM211 86q39 -71 137 -71q99 0 173 79q129 141 138 366q2 56 -16 94z" />
<glyph unicode="&#xd9;" horiz-adv-x="734" d="M159 266l78 250q16 52 19 72.5t-5.5 31t-36.5 15.5l-25 4q-5 4 -4 12.5t8 11.5q63 -3 117 -3q50 0 123 3q5 -3 5 -11.5t-6 -12.5l-28 -4q-41 -6 -54.5 -24t-37.5 -95l-72 -231q-82 -265 130 -265q167 0 247 248l46 141q30 93 40 155q8 33 2 49.5t-40 21.5l-28 4 q-5 5 -3.5 13t7.5 11q73 -3 107 -3q50 0 108 3q6 -4 6 -12t-6 -12l-23 -4q-36 -6 -49.5 -19.5t-29.5 -54.5q-10 -27 -49 -152l-46 -147q-47 -148 -117 -209q-78 -69 -189 -69q-137 0 -187 72t-7 210zM414 782q-6 12 6 35q10 19 23 19q9 0 23 -12l122 -98q2 -6 -1 -12t-8 -8 l-144 61q-17 7 -21 15z" />
<glyph unicode="&#xda;" horiz-adv-x="734" d="M159 266l78 250q16 52 19 72.5t-5.5 31t-36.5 15.5l-25 4q-5 4 -4 12.5t8 11.5q63 -3 117 -3q50 0 123 3q5 -3 5 -11.5t-6 -12.5l-28 -4q-41 -6 -54.5 -24t-37.5 -95l-72 -231q-82 -265 130 -265q167 0 247 248l46 141q30 93 40 155q8 33 2 49.5t-40 21.5l-28 4 q-5 5 -3.5 13t7.5 11q73 -3 107 -3q50 0 108 3q6 -4 6 -12t-6 -12l-23 -4q-36 -6 -49.5 -19.5t-29.5 -54.5q-10 -27 -49 -152l-46 -147q-47 -148 -117 -209q-78 -69 -189 -69q-137 0 -187 72t-7 210zM477 726l122 98q13 12 23 12q13 0 23 -19q12 -23 6 -35q-5 -8 -21 -15 l-144 -61q-5 2 -8 8t-1 12z" />
<glyph unicode="&#xdb;" horiz-adv-x="734" d="M159 266l78 250q16 52 19 72.5t-5.5 31t-36.5 15.5l-25 4q-5 4 -4 12.5t8 11.5q63 -3 117 -3q50 0 123 3q5 -3 5 -11.5t-6 -12.5l-28 -4q-41 -6 -54.5 -24t-37.5 -95l-72 -231q-82 -265 130 -265q167 0 247 248l46 141q30 93 40 155q8 33 2 49.5t-40 21.5l-28 4 q-5 5 -3.5 13t7.5 11q73 -3 107 -3q50 0 108 3q6 -4 6 -12t-6 -12l-23 -4q-36 -6 -49.5 -19.5t-29.5 -54.5q-10 -27 -49 -152l-46 -147q-47 -148 -117 -209q-78 -69 -189 -69q-137 0 -187 72t-7 210zM410 718l142 109q12 9 21 9q12 0 17 -9l88 -109q0 -6 -5.5 -11.5 t-10.5 -5.5l-87 62q-8 8 -15 8q-6 0 -16 -6l-125 -64q-5 0 -8 5.5t-1 11.5z" />
<glyph unicode="&#xdc;" horiz-adv-x="734" d="M159 266l78 250q16 52 19 72.5t-5.5 31t-36.5 15.5l-25 4q-5 4 -4 12.5t8 11.5q63 -3 117 -3q50 0 123 3q5 -3 5 -11.5t-6 -12.5l-28 -4q-41 -6 -54.5 -24t-37.5 -95l-72 -231q-82 -265 130 -265q167 0 247 248l46 141q30 93 40 155q8 33 2 49.5t-40 21.5l-28 4 q-5 5 -3.5 13t7.5 11q73 -3 107 -3q50 0 108 3q6 -4 6 -12t-6 -12l-23 -4q-36 -6 -49.5 -19.5t-29.5 -54.5q-10 -27 -49 -152l-46 -147q-47 -148 -117 -209q-78 -69 -189 -69q-137 0 -187 72t-7 210zM430 742q0 23 14 38t33 15q17 0 27 -11.5t10 -26.5q0 -24 -14.5 -38 t-33.5 -14q-17 0 -26.5 10t-9.5 27zM604 742q0 23 14 38t33 15q17 0 27 -11.5t10 -26.5q0 -24 -14 -38t-34 -14q-17 0 -26.5 10t-9.5 27z" />
<glyph unicode="&#xdd;" horiz-adv-x="564" d="M123 9.5q0 8.5 5 12.5l36 3q35 3 49.5 22.5t40.5 96.5l20 59q14 40 15.5 60.5t-8.5 67.5l-50 217q-11 49 -21 65.5t-36 20.5l-25 4q-4 5 -3 13.5t6 11.5q56 -3 106 -3q59 0 107 3q5 -4 5 -12t-5 -13l-29 -4q-28 -4 -36 -15t-1 -40l51 -235q4 -19 9.5 -19t20.5 18l123 148 q96 118 96 126q0 12 -29 17l-25 4q-5 4 -4.5 12.5t6.5 12.5q59 -3 104 -3q41 0 90 3q5 -3 5 -12t-5 -13l-21 -4q-40 -8 -56 -23q-41 -37 -98 -103l-114 -134q-53 -62 -69 -87.5t-34 -82.5l-19 -60q-17 -54 -20.5 -76t4.5 -31.5t35 -11.5l36 -3q5 -4 3.5 -13.5t-6.5 -11.5 q-84 3 -134 3q-52 0 -119 -3q-6 4 -6 12.5zM412 726l122 98q14 12 23 12q13 0 23 -19q12 -23 6 -35q-4 -8 -21 -15l-144 -61q-5 2 -8 8t-1 12z" />
<glyph unicode="&#xde;" horiz-adv-x="560" d="M8 9.5q0 8.5 6 12.5l29 3q36 4 50.5 23.5t38.5 95.5l117 372q13 40 17.5 57.5t2.5 32.5t-11.5 19.5t-31.5 8.5l-24 4q-12 17 6 25q60 -3 116 -3q62 0 120 3q5 -3 5 -12t-5 -13l-22 -4q-45 -8 -59.5 -25.5t-36.5 -90.5h36q118 0 171 -44q49 -40 49 -107q0 -53 -28 -93.5 t-71 -61.5t-88.5 -30.5t-86.5 -6.5q-6 2 -7 9t4 11q43 8 75 19q49 18 83 60t34 96q0 117 -131 117q-35 0 -46 -6t-17 -26l-96 -311q-23 -70 -20.5 -93.5t39.5 -25.5l45 -3q5 -5 3.5 -13.5t-6.5 -11.5q-96 3 -141 3q-56 0 -113 -3q-6 4 -6 12.5z" />
<glyph unicode="&#xdf;" horiz-adv-x="465" d="M-141 -215q0 26 24 40q11 6 25 -14q10 -15 27.5 -27t34.5 -12q22 0 38 27q23 39 55 223q43 246 93 386q61 170 190 256q76 51 168 51q43 0 75.5 -27t32.5 -64q0 -26 -22.5 -52.5t-44.5 -41t-64.5 -38t-50.5 -28.5q-71 -43 -71 -104q0 -35 31 -112q31 -78 31 -113 q0 -61 -46 -104q-18 -18 -44.5 -31.5t-40.5 -13.5q-28 0 -45.5 18.5t-17.5 36.5t8 29q9 13 20 2q35 -35 63 -35q18 0 34.5 14.5t16.5 40.5q0 17 -37 101q-38 86 -38 131q0 53 35.5 92.5t127.5 100.5q39 26 59 55t20 45q0 30 -21.5 45.5t-57.5 15.5q-51 0 -100.5 -43.5 t-84.5 -104.5t-60 -133q-37 -104 -76.5 -297.5t-59.5 -243.5q-21 -52 -64 -88.5t-94 -36.5q-35 0 -52 18t-17 36z" />
<glyph unicode="&#xe0;" horiz-adv-x="444" d="M20 42q0 24 22 79t66 115q68 93 132 129q51 29 90 29q12 0 24 -6q13 -6 20 -21l28 64q13 6 28.5 0.5t20.5 -15.5q-85 -210 -134 -349q-8 -23 7 -23q27 0 103 67q14 0 14 -13q-34 -45 -81.5 -78.5t-86.5 -33.5q-15 0 -22 9t-7 18q0 10 10 39l33 90l-3 1q-52 -65 -118 -111 t-102 -46q-20 0 -32 17t-12 39zM103 58q0 -19 15 -19q26 0 97 65q101 94 134 216q-13 36 -50 36q-28 0 -71 -39q-47 -42 -86 -123.5t-39 -135.5zM234 604q0 12 17 23q18 13 31 13q12 0 19 -22l52 -155q0 -5 -6.5 -8.5t-11.5 -2.5l-87 124q-14 20 -14 28z" />
<glyph unicode="&#xe1;" horiz-adv-x="444" d="M20 42q0 24 22 79t66 115q68 93 132 129q51 29 90 29q12 0 24 -6q13 -6 20 -21l28 64q13 6 28.5 0.5t20.5 -15.5q-85 -210 -134 -349q-8 -23 7 -23q27 0 103 67q14 0 14 -13q-34 -45 -81.5 -78.5t-86.5 -33.5q-15 0 -22 9t-7 18q0 10 10 39l33 90l-3 1q-52 -65 -118 -111 t-102 -46q-20 0 -32 17t-12 39zM103 58q0 -19 15 -19q26 0 97 65q101 94 134 216q-13 36 -50 36q-28 0 -71 -39q-47 -42 -86 -123.5t-39 -135.5zM331 471l94 143q13 21 24 20q13 0 28 -15t13 -26q0 -10 -17 -24l-126 -111q-6 0 -11 4t-5 9z" />
<glyph unicode="&#xe2;" horiz-adv-x="444" d="M20 42q0 24 22 79t66 115q68 93 132 129q51 29 90 29q12 0 24 -6q13 -6 20 -21l28 64q13 6 28.5 0.5t20.5 -15.5q-85 -210 -134 -349q-8 -23 7 -23q27 0 103 67q14 0 14 -13q-34 -45 -81.5 -78.5t-86.5 -33.5q-15 0 -22 9t-7 18q0 10 10 39l33 90l-3 1q-52 -65 -118 -111 t-102 -46q-20 0 -32 17t-12 39zM103 58q0 -19 15 -19q26 0 97 65q101 94 134 216q-13 36 -50 36q-28 0 -71 -39q-47 -42 -86 -123.5t-39 -135.5zM229 471l122 164q12 15 21 15q12 0 17 -19l38 -162q-6 -13 -21 -10l-42 92q-6 13 -9 13q-5 0 -16 -11l-93 -96q-6 -1 -11.5 3 t-5.5 11z" />
<glyph unicode="&#xe3;" horiz-adv-x="444" d="M20 42q0 24 22 79t66 115q68 93 132 129q51 29 90 29q12 0 24 -6q13 -6 20 -21l28 64q13 6 28.5 0.5t20.5 -15.5q-85 -210 -134 -349q-8 -23 7 -23q27 0 103 67q14 0 14 -13q-34 -45 -81.5 -78.5t-86.5 -33.5q-15 0 -22 9t-7 18q0 10 10 39l33 90l-3 1q-52 -65 -118 -111 t-102 -46q-20 0 -32 17t-12 39zM103 58q0 -19 15 -19q26 0 97 65q101 94 134 216q-13 36 -50 36q-28 0 -71 -39q-47 -42 -86 -123.5t-39 -135.5zM243 473q3 15 13.5 40t20.5 34q18 21 50 21h50q29 0 41.5 6t28.5 29q11 6 16 -4q-11 -43 -35 -67q-16 -15 -45 -15h-49 q-29 0 -45.5 -11t-30.5 -37q-10 -6 -15 4z" />
<glyph unicode="&#xe4;" horiz-adv-x="444" d="M20 42q0 24 22 79t66 115q68 93 132 129q51 29 90 29q12 0 24 -6q13 -6 20 -21l28 64q13 6 28.5 0.5t20.5 -15.5q-85 -210 -134 -349q-8 -23 7 -23q27 0 103 67q14 0 14 -13q-34 -45 -81.5 -78.5t-86.5 -33.5q-15 0 -22 9t-7 18q0 10 10 39l33 90l-3 1q-52 -65 -118 -111 t-102 -46q-20 0 -32 17t-12 39zM103 58q0 -19 15 -19q26 0 97 65q101 94 134 216q-13 36 -50 36q-28 0 -71 -39q-47 -42 -86 -123.5t-39 -135.5zM228 547q0 23 14.5 38.5t33.5 15.5q17 0 27 -11.5t10 -26.5q0 -25 -14.5 -39.5t-33.5 -14.5q-17 0 -27 10.5t-10 27.5zM383 547 q0 23 14.5 38.5t33.5 15.5q17 0 27 -11.5t10 -26.5q0 -25 -14.5 -39.5t-33.5 -14.5q-17 0 -27 10.5t-10 27.5z" />
<glyph unicode="&#xe5;" horiz-adv-x="444" d="M20 42q0 24 22 79t66 115q68 93 132 129q51 29 90 29q12 0 24 -6q13 -6 20 -21l28 64q13 6 28.5 0.5t20.5 -15.5q-85 -210 -134 -349q-8 -23 7 -23q27 0 103 67q14 0 14 -13q-34 -45 -81.5 -78.5t-86.5 -33.5q-15 0 -22 9t-7 18q0 10 10 39l33 90l-3 1q-52 -65 -118 -111 t-102 -46q-20 0 -32 17t-12 39zM103 58q0 -19 15 -19q26 0 97 65q101 94 134 216q-13 36 -50 36q-28 0 -71 -39q-47 -42 -86 -123.5t-39 -135.5zM265 557q0 33 24.5 57t60.5 24t60.5 -24t24.5 -57t-24 -57t-61 -24t-61 24t-24 57zM305 557q0 -23 13 -38t32 -15q20 0 32.5 15 t12.5 38t-13 37.5t-32 14.5t-32 -15t-13 -37z" />
<glyph unicode="&#xe6;" horiz-adv-x="478" d="M20 39q0 37 28.5 89.5t60.5 89.5q63 71 170 136q3 2 21 13.5t26 15.5t23.5 11.5t30 10.5t29.5 3q37 0 55.5 -19.5t18.5 -43.5q0 -44 -44 -89.5t-146 -124.5q0 -49 18.5 -71t43.5 -22q16 0 32 10.5t23 18.5t23 28q17 5 20 -12q-31 -54 -69.5 -75.5t-64.5 -21.5 q-66 0 -87 86q-41 -38 -86 -62t-71 -24q-21 0 -38 13t-17 40zM99 68q0 -28 22 -28q42 0 105 63q-5 109 44 210l-2 2q-68 -39 -118.5 -118.5t-50.5 -128.5zM291 163q58 53 92.5 104t34.5 79q0 32 -32 32q-40 0 -67.5 -69.5t-27.5 -145.5z" />
<glyph unicode="&#xe7;" horiz-adv-x="338" d="M24 -185q0 8 7 16t18 8q10 0 24 -14q15 -15 21 -15q10 0 19 7.5t9 23.5q0 38 -53 62v4l58 80q-3 -1 -7 -1q-32 0 -53.5 26t-21.5 80q0 55 33 129t94 129q64 58 130 58q36 0 55 -17t19 -42q0 -26 -17.5 -36.5t-31.5 -10.5q-17 0 -20 18q0 2 -1 10.5t-1.5 11.5t-2 10 t-4 9.5t-6 6.5t-8.5 5.5t-12 1.5q-39 0 -84 -67q-26 -39 -45.5 -95.5t-21.5 -111.5q-3 -65 43 -65q42 0 108 61q7 1 11 -4t2 -13q-50 -65 -119 -86l-32 -43q-11 -13 5 -26q37 -30 37 -65q0 -31 -32 -54t-70 -23q-50 0 -50 32z" />
<glyph unicode="&#xe8;" horiz-adv-x="346" d="M44 91q0 57 37.5 134.5t111.5 134.5q62 48 120 48q28 0 45.5 -19t17.5 -41q0 -54 -63 -94t-180 -72q-14 -34 -14 -89q0 -25 13.5 -41t34.5 -16q25 0 46 12.5t59 45.5q7 0 11 -5t2 -12q-74 -91 -160 -91q-41 0 -61 31.5t-20 73.5zM143 212q48 15 76.5 31t57.5 43 q20 19 29.5 38.5t9.5 29.5q0 23 -23 23q-32 0 -76 -48q-46 -50 -74 -117zM204 607q0 12 17 23q18 13 31 13q12 0 19 -22l51 -157q0 -6 -6.5 -9t-11.5 -2l-86 126q-14 20 -14 28z" />
<glyph unicode="&#xe9;" horiz-adv-x="346" d="M44 91q0 57 37.5 134.5t111.5 134.5q62 48 120 48q28 0 45.5 -19t17.5 -41q0 -54 -63 -94t-180 -72q-14 -34 -14 -89q0 -25 13.5 -41t34.5 -16q25 0 46 12.5t59 45.5q7 0 11 -5t2 -12q-74 -91 -160 -91q-41 0 -61 31.5t-20 73.5zM143 212q48 15 76.5 31t57.5 43 q20 19 29.5 38.5t9.5 29.5q0 23 -23 23q-32 0 -76 -48q-46 -50 -74 -117zM261 469l94 143q13 21 24 20q13 0 28 -15t13 -26q0 -10 -17 -24l-126 -111q-6 0 -11 4t-5 9z" />
<glyph unicode="&#xea;" horiz-adv-x="346" d="M44 91q0 57 37.5 134.5t111.5 134.5q62 48 120 48q28 0 45.5 -19t17.5 -41q0 -54 -63 -94t-180 -72q-14 -34 -14 -89q0 -25 13.5 -41t34.5 -16q25 0 46 12.5t59 45.5q7 0 11 -5t2 -12q-74 -91 -160 -91q-41 0 -61 31.5t-20 73.5zM143 212q48 15 76.5 31t57.5 43 q20 19 29.5 38.5t9.5 29.5q0 23 -23 23q-32 0 -76 -48q-46 -50 -74 -117zM192 471l122 164q12 15 21 15q12 0 17 -19l38 -162q-6 -13 -21 -10l-42 92q-6 13 -9 13q-5 0 -16 -11l-93 -96q-6 -1 -11.5 3t-5.5 11z" />
<glyph unicode="&#xeb;" horiz-adv-x="346" d="M44 91q0 57 37.5 134.5t111.5 134.5q62 48 120 48q28 0 45.5 -19t17.5 -41q0 -54 -63 -94t-180 -72q-14 -34 -14 -89q0 -25 13.5 -41t34.5 -16q25 0 46 12.5t59 45.5q7 0 11 -5t2 -12q-74 -91 -160 -91q-41 0 -61 31.5t-20 73.5zM143 212q48 15 76.5 31t57.5 43 q20 19 29.5 38.5t9.5 29.5q0 23 -23 23q-32 0 -76 -48q-46 -50 -74 -117zM180 546q0 23 14.5 38.5t33.5 15.5q17 0 27 -11.5t10 -26.5q0 -25 -14.5 -39.5t-33.5 -14.5q-17 0 -27 10.5t-10 27.5zM335 546q0 23 14.5 38.5t33.5 15.5q17 0 27 -11.5t10 -26.5q0 -25 -14.5 -39.5 t-33.5 -14.5q-17 0 -27 10.5t-10 27.5z" />
<glyph unicode="&#xec;" horiz-adv-x="278" d="M52 22l127 303q9 19 -2 19q-18 0 -83 -53q-7 1 -11 6t-2 11q38 44 87.5 72t77.5 28q6 0 16 -10q9 -8 -6 -44l-119 -284q-9 -22 3 -22q13 0 46 23t58 51q15 -2 15 -17q-15 -28 -78 -73.5t-109 -45.5q-8 0 -16 9q-11 12 -4 27zM156 604q0 12 17 23q18 13 31 13q12 0 19 -22 l46 -157q0 -5 -6.5 -8.5t-11.5 -2.5l-81 126q-14 20 -14 28z" />
<glyph unicode="&#xed;" horiz-adv-x="278" d="M52 22l127 303q9 19 -2 19q-18 0 -83 -53q-7 1 -11 6t-2 11q38 44 87.5 72t77.5 28q6 0 16 -10q9 -8 -6 -44l-119 -284q-9 -22 3 -22q13 0 46 23t58 51q15 -2 15 -17q-15 -28 -78 -73.5t-109 -45.5q-8 0 -16 9q-11 12 -4 27zM217 468l94 143q13 21 24 20q13 0 28 -15 t13 -26q0 -10 -17 -24l-126 -111q-6 0 -11 4t-5 9z" />
<glyph unicode="&#xee;" horiz-adv-x="278" d="M52 22l127 303q9 19 -2 19q-18 0 -83 -53q-7 1 -11 6t-2 11q38 44 87.5 72t77.5 28q6 0 16 -10q9 -8 -6 -44l-119 -284q-9 -22 3 -22q13 0 46 23t58 51q15 -2 15 -17q-15 -28 -78 -73.5t-109 -45.5q-8 0 -16 9q-11 12 -4 27zM137 468l122 164q12 15 21 15q12 0 17 -19 l38 -162q-6 -13 -21 -10l-42 92q-6 13 -9 13q-5 0 -16 -11l-93 -96q-6 -1 -11.5 3t-5.5 11z" />
<glyph unicode="&#xef;" horiz-adv-x="278" d="M52 22l127 303q9 19 -2 19q-18 0 -83 -53q-7 1 -11 6t-2 11q38 44 87.5 72t77.5 28q6 0 16 -10q9 -8 -6 -44l-119 -284q-9 -22 3 -22q13 0 46 23t58 51q15 -2 15 -17q-15 -28 -78 -73.5t-109 -45.5q-8 0 -16 9q-11 12 -4 27zM150 546q0 23 14.5 38.5t33.5 15.5 q17 0 27 -11.5t10 -26.5q0 -25 -14.5 -39.5t-33.5 -14.5q-17 0 -27 10.5t-10 27.5zM305 546q0 23 14.5 38.5t33.5 15.5q17 0 27 -11.5t10 -26.5q0 -25 -14.5 -39.5t-33.5 -14.5q-17 0 -27 10.5t-10 27.5z" />
<glyph unicode="&#xf0;" horiz-adv-x="404" d="M47 119q3 50 32.5 113.5t76.5 110.5q66 65 133 65q24 0 46 -11q5 63 -20 131l-125 -63q-8 5 -11 15t1 17l124 63q-15 46 -44.5 85.5t-69.5 52.5q-3 12 9 17q106 -27 156 -131l127 64q10 -4 13 -13.5t-2 -18.5l-123 -62q39 -94 36 -192q-2 -86 -32 -168t-85 -139 q-67 -69 -142 -69q-49 0 -76.5 35t-23.5 98zM114 80q-2 -27 9 -45.5t32 -18.5q40 0 79 52q32 43 62.5 123t32.5 121q4 66 -36 66q-43 0 -79 -48q-41 -55 -69 -130.5t-31 -119.5z" />
<glyph unicode="&#xf1;" horiz-adv-x="501" d="M60 12q49 127 116 315q9 23 -3 23q-34 0 -91 -50q-14 0 -12 15q29 40 70.5 66.5t78.5 26.5q18 0 25.5 -12t0.5 -29l-68 -175l3 -2q60 91 126.5 154.5t118.5 63.5q56 0 56 -54q0 -24 -16 -70q-8 -22 -30.5 -75t-42 -98.5t-20.5 -47.5q-8 -19 2 -19q13 0 43 21t51 47 q16 2 16 -14q-28 -47 -79 -79.5t-93 -32.5q-7 0 -15.5 8t-8.5 17t24 66q8 18 38 93.5t43 103.5q21 47 21 73q0 24 -16 24q-18 0 -57.5 -34t-80.5 -85q-25 -31 -52.5 -75.5t-44 -74t-56.5 -104.5q-7 -12 -18 -12q-8 0 -15 1.5t-12.5 8t-1.5 16.5zM253 478q3 15 13.5 40 t20.5 34q18 21 50 21h50q29 0 41.5 6t28.5 29q11 6 16 -4q-11 -43 -35 -67q-16 -15 -45 -15h-49q-29 0 -45.5 -11t-30.5 -37q-10 -6 -15 4z" />
<glyph unicode="&#xf2;" horiz-adv-x="406" d="M47 119q3 51 32 114.5t77 109.5q68 65 138 65q52 0 78.5 -35t23.5 -91q-3 -49 -29 -112t-77 -115q-67 -69 -143 -69q-49 0 -76.5 35t-23.5 98zM114 80q-2 -27 9 -45.5t32 -18.5q40 0 79 52q32 43 61.5 123t31.5 121q2 66 -40 66q-37 0 -73 -48q-41 -55 -69 -130.5 t-31 -119.5zM215 604q0 12 17 23q18 13 31 13q12 0 19 -22l49 -155q0 -5 -6.5 -8.5t-11.5 -2.5l-84 124q-14 20 -14 28z" />
<glyph unicode="&#xf3;" horiz-adv-x="406" d="M47 119q3 51 32 114.5t77 109.5q68 65 138 65q52 0 78.5 -35t23.5 -91q-3 -49 -29 -112t-77 -115q-67 -69 -143 -69q-49 0 -76.5 35t-23.5 98zM114 80q-2 -27 9 -45.5t32 -18.5q40 0 79 52q32 43 61.5 123t31.5 121q2 66 -40 66q-37 0 -73 -48q-41 -55 -69 -130.5 t-31 -119.5zM273 465l94 143q13 21 24 20q13 0 28 -15t13 -26q0 -10 -17 -24l-126 -111q-6 0 -11 4t-5 9z" />
<glyph unicode="&#xf4;" horiz-adv-x="406" d="M47 119q3 51 32 114.5t77 109.5q68 65 138 65q52 0 78.5 -35t23.5 -91q-3 -49 -29 -112t-77 -115q-67 -69 -143 -69q-49 0 -76.5 35t-23.5 98zM114 80q-2 -27 9 -45.5t32 -18.5q40 0 79 52q32 43 61.5 123t31.5 121q2 66 -40 66q-37 0 -73 -48q-41 -55 -69 -130.5 t-31 -119.5zM196 471l122 164q12 15 21 15q12 0 17 -19l38 -162q-6 -13 -21 -10l-39 97q-5 13 -9 13q-5 0 -16 -11l-96 -101q-6 -1 -11.5 3t-5.5 11z" />
<glyph unicode="&#xf5;" horiz-adv-x="406" d="M47 119q3 51 32 114.5t77 109.5q68 65 138 65q52 0 78.5 -35t23.5 -91q-3 -49 -29 -112t-77 -115q-67 -69 -143 -69q-49 0 -76.5 35t-23.5 98zM114 80q-2 -27 9 -45.5t32 -18.5q40 0 79 52q32 43 61.5 123t31.5 121q2 66 -40 66q-37 0 -73 -48q-41 -55 -69 -130.5 t-31 -119.5zM217 478q3 15 13.5 40t20.5 34q18 21 50 21h50q29 0 41.5 6t28.5 29q11 6 16 -4q-11 -43 -35 -67q-16 -15 -45 -15h-49q-29 0 -45.5 -11t-30.5 -37q-10 -6 -15 4z" />
<glyph unicode="&#xf6;" horiz-adv-x="406" d="M47 119q3 51 32 114.5t77 109.5q68 65 138 65q52 0 78.5 -35t23.5 -91q-3 -49 -29 -112t-77 -115q-67 -69 -143 -69q-49 0 -76.5 35t-23.5 98zM114 80q-2 -27 9 -45.5t32 -18.5q40 0 79 52q32 43 61.5 123t31.5 121q2 66 -40 66q-37 0 -73 -48q-41 -55 -69 -130.5 t-31 -119.5zM208 547q0 23 14.5 38.5t33.5 15.5q17 0 27 -11.5t10 -26.5q0 -25 -14.5 -39.5t-33.5 -14.5q-17 0 -27 10.5t-10 27.5zM363 547q0 23 14.5 38.5t33.5 15.5q17 0 27 -11.5t10 -26.5q0 -25 -14.5 -39.5t-33.5 -14.5q-17 0 -27 10.5t-10 27.5z" />
<glyph unicode="&#xf7;" horiz-adv-x="560" d="M118 181v49h385v-49h-385zM263 84q0 18 13 31t32 13q17 0 30.5 -13t13.5 -31t-13 -31.5t-31 -13.5q-19 0 -32 13t-13 32zM263 328q0 18 13 31t32 13q17 0 30.5 -13t13.5 -31t-13 -31.5t-31 -13.5q-19 0 -32 13t-13 32z" />
<glyph unicode="&#xf8;" horiz-adv-x="406" d="M47 119q3 50 32.5 113.5t76.5 110.5q68 65 139 65q25 0 40 -7l31 47q21 4 26 -13l-32 -50q39 -31 36 -103q-3 -49 -28.5 -112t-76.5 -115q-67 -69 -143 -69q-22 0 -43 8l-30 -47q-7 -3 -15 2t-10 13l31 48q-40 35 -34 109zM107 80q0 -14 4 -24l2 -2l201 315q-8 9 -27 9 q-39 0 -78 -49q-43 -54 -72.5 -130t-29.5 -119zM127 27q13 -11 29 -11q45 0 85 52q33 43 63.5 123t30.5 121q0 11 -3 26h-4z" />
<glyph unicode="&#xf9;" horiz-adv-x="496" d="M58 289q21 33 80.5 76t92.5 43q11 0 22.5 -9t7.5 -21l-112 -292q-13 -34 7 -34q22 0 107 83q26 26 49 55t43.5 62t32.5 54t29.5 55t21.5 41q15 3 30.5 -3t18.5 -15q-2 -5 -23.5 -61t-48 -126t-45.5 -123q-10 -25 4 -25q13 0 44.5 26t53.5 52q17 4 18 -14q-21 -39 -79 -83 t-96 -44q-12 0 -20.5 11.5t-4.5 23.5l68 183l-2 1q-64 -80 -138.5 -149.5t-111.5 -69.5q-29 0 -36 26t7 59l92 243q11 29 0 29q-13 0 -43 -23t-52 -46q-7 -1 -12.5 3.5t-4.5 11.5zM256 604q0 12 17 23q18 13 31 13q12 0 19 -22l51 -156q0 -6 -6.5 -9t-11.5 -2l-86 125 q-14 20 -14 28z" />
<glyph unicode="&#xfa;" horiz-adv-x="496" d="M58 289q21 33 80.5 76t92.5 43q11 0 22.5 -9t7.5 -21l-112 -292q-13 -34 7 -34q22 0 107 83q26 26 49 55t43.5 62t32.5 54t29.5 55t21.5 41q15 3 30.5 -3t18.5 -15q-2 -5 -23.5 -61t-48 -126t-45.5 -123q-10 -25 4 -25q13 0 44.5 26t53.5 52q17 4 18 -14q-21 -39 -79 -83 t-96 -44q-12 0 -20.5 11.5t-4.5 23.5l68 183l-2 1q-64 -80 -138.5 -149.5t-111.5 -69.5q-29 0 -36 26t7 59l92 243q11 29 0 29q-13 0 -43 -23t-52 -46q-7 -1 -12.5 3.5t-4.5 11.5zM322 465l94 143q13 21 24 20q13 0 28 -15t13 -26q0 -10 -17 -24l-126 -111q-6 0 -11 4t-5 9z " />
<glyph unicode="&#xfb;" horiz-adv-x="496" d="M58 289q21 33 80.5 76t92.5 43q11 0 22.5 -9t7.5 -21l-112 -292q-13 -34 7 -34q22 0 107 83q26 26 49 55t43.5 62t32.5 54t29.5 55t21.5 41q15 3 30.5 -3t18.5 -15q-2 -5 -23.5 -61t-48 -126t-45.5 -123q-10 -25 4 -25q13 0 44.5 26t53.5 52q17 4 18 -14q-21 -39 -79 -83 t-96 -44q-12 0 -20.5 11.5t-4.5 23.5l68 183l-2 1q-64 -80 -138.5 -149.5t-111.5 -69.5q-29 0 -36 26t7 59l92 243q11 29 0 29q-13 0 -43 -23t-52 -46q-7 -1 -12.5 3.5t-4.5 11.5zM252 474l122 164q12 15 21 15q12 0 17 -19l38 -162q-6 -13 -21 -10l-42 92q-6 13 -9 13 q-5 0 -16 -11l-93 -96q-6 -1 -11.5 3t-5.5 11z" />
<glyph unicode="&#xfc;" horiz-adv-x="496" d="M58 289q21 33 80.5 76t92.5 43q11 0 22.5 -9t7.5 -21l-112 -292q-13 -34 7 -34q22 0 107 83q26 26 49 55t43.5 62t32.5 54t29.5 55t21.5 41q15 3 30.5 -3t18.5 -15q-2 -5 -23.5 -61t-48 -126t-45.5 -123q-10 -25 4 -25q13 0 44.5 26t53.5 52q17 4 18 -14q-21 -39 -79 -83 t-96 -44q-12 0 -20.5 11.5t-4.5 23.5l68 183l-2 1q-64 -80 -138.5 -149.5t-111.5 -69.5q-29 0 -36 26t7 59l92 243q11 29 0 29q-13 0 -43 -23t-52 -46q-7 -1 -12.5 3.5t-4.5 11.5zM244 546q0 23 14.5 38.5t33.5 15.5q17 0 27 -11.5t10 -26.5q0 -25 -14.5 -39.5t-33.5 -14.5 q-17 0 -27 10.5t-10 27.5zM399 546q0 23 14.5 38.5t33.5 15.5q17 0 27 -11.5t10 -26.5q0 -25 -14.5 -39.5t-33.5 -14.5q-17 0 -27 10.5t-10 27.5z" />
<glyph unicode="&#xfd;" horiz-adv-x="366" d="M-100 -223q0 19 11.5 31t28.5 12q16 0 27 -16q11 -18 28 -18q21 0 55 28q21 18 48 61t40 89q22 79 20 228q-3 150 -38 150q-7 0 -14 -5t-15 -18t-13.5 -22.5t-15.5 -30.5q-15 -4 -19 13q17 54 48 91.5t66 37.5q56 0 61 -170q2 -120 -15 -220h4q47 70 84 172 q14 39 25 99.5t12 85.5q2 31 24 31q14 0 28 -9q9 -6 9 -20q1 -29 -28 -117.5t-88 -187.5q-3 -5 -17.5 -29.5t-18 -31t-16.5 -27.5t-19 -30t-19 -27.5t-23 -31t-23.5 -29.5t-28.5 -34q-88 -101 -156 -101q-23 0 -37.5 13.5t-14.5 32.5zM243 465l94 143q13 21 24 20 q13 0 28 -15t13 -26q0 -10 -17 -24l-126 -111q-6 0 -11 4t-5 9z" />
<glyph unicode="&#xfe;" horiz-adv-x="448" d="M-101 -247l22 4q8 1 15 3.5t12.5 4t10.5 5.5t8 5.5t7 7t5.5 7t4.5 9.5t3.5 9.5t4 11t4.5 11.5l186 522q-43 -12 -101 -41q-6 1 -9 6.5t-1 12.5q48 34 124 56l49 137q17 53 16.5 67t-13.5 20l-18 8q-4 3 -4 8.5t4 7.5q63 25 126 30l5 -6q-5 -15 -12.5 -34t-21.5 -56 t-30 -82l-35 -95q3 0 15 1t23 1q29 0 56.5 -7.5t53.5 -35t26 -71.5q0 -126 -132 -237q-28 -24 -64.5 -38t-53.5 -16.5t-25 -2.5q-10 0 -31 6q-11 -3 -16 -18l-41 -118q-20 -58 -18.5 -72.5t26.5 -18.5l41 -6q11 -15 -4 -22q-17 0 -218 -6q-13 11 0 22zM149 70q-6 -16 1 -27 q14 -23 37 -23q18 0 51 19t61 62q59 91 59 188q0 36 -22.5 55.5t-56.5 19.5q-12 0 -26 -2z" />
<glyph unicode="&#xff;" horiz-adv-x="366" d="M-100 -223q0 19 11.5 31t28.5 12q16 0 27 -16q11 -18 28 -18q21 0 55 28q21 18 48 61t40 89q22 79 20 228q-3 150 -38 150q-7 0 -14 -5t-15 -18t-13.5 -22.5t-15.5 -30.5q-15 -4 -19 13q17 54 48 91.5t66 37.5q56 0 61 -170q2 -120 -15 -220h4q47 70 84 172 q14 39 25 99.5t12 85.5q2 31 24 31q14 0 28 -9q9 -6 9 -20q1 -29 -28 -117.5t-88 -187.5q-3 -5 -17.5 -29.5t-18 -31t-16.5 -27.5t-19 -30t-19 -27.5t-23 -31t-23.5 -29.5t-28.5 -34q-88 -101 -156 -101q-23 0 -37.5 13.5t-14.5 32.5zM158 546q0 23 14.5 38.5t33.5 15.5 q17 0 27 -11.5t10 -26.5q0 -25 -14.5 -39.5t-33.5 -14.5q-17 0 -27 10.5t-10 27.5zM313 546q0 23 14.5 38.5t33.5 15.5q17 0 27 -11.5t10 -26.5q0 -25 -14.5 -39.5t-33.5 -14.5q-17 0 -27 10.5t-10 27.5z" />
<glyph unicode="&#x152;" horiz-adv-x="979" d="M105 279q5 85 51.5 166.5t125.5 134.5q126 84 304 84q39 0 101 -2t90 -2h148q111 0 141 3q-12 -30 -41 -133q-3 -6 -13 -5.5t-12 6.5q7 38 1 59.5t-36 29.5q-34 9 -106 9h-60q-19 0 -25 -5.5t-13 -28.5l-64 -205q-7 -21 -5 -25t23 -4h50q72 0 96.5 8.5t41.5 40.5l16 30 q3 5 13.5 4.5t11.5 -6.5q-19 -45 -34 -97q-14 -45 -26 -97q-5 -6 -13.5 -5.5t-11.5 6.5v28q0 37 -19.5 45t-83.5 8h-50q-21 0 -26.5 -4t-12.5 -25l-41 -135q-15 -50 -18.5 -68.5t1.5 -41.5q6 -11 28.5 -16t82.5 -5q89 0 128.5 17t84.5 87q16 10 23 -6q-8 -27 -29.5 -70.5 t-39.5 -61.5q-17 1 -54.5 1.5t-56.5 0.5q-20 0 -59.5 0.5t-58.5 0.5h-61q-20 0 -54 -2.5t-45 -2.5q-32 -2 -94 -2q-147 0 -226.5 77t-72.5 209zM193 270q-7 -118 55.5 -182t167.5 -64q29 0 46.5 3.5t38 22.5t31.5 55l145 459q10 31 7 42t-20 16q-43 12 -99 12 q-89 0 -161 -34t-115.5 -89t-67.5 -116.5t-28 -124.5z" />
<glyph unicode="&#x153;" horiz-adv-x="578" d="M47 109q0 56 28 121.5t77 112.5q66 65 136 65q38 0 61 -24t29 -66q35 38 81 64t88 26q27 0 44 -19t17 -41q0 -54 -64 -94t-183 -72q-18 -36 -18 -86q0 -27 15.5 -43.5t40.5 -16.5t46 12.5t59 45.5q7 0 11 -5t2 -12q-74 -91 -160 -91q-61 0 -75 75q-70 -75 -136 -75 q-45 0 -72 33.5t-27 89.5zM115 80q-1 -28 9.5 -46t31.5 -18q40 0 77 52q31 43 59 122t30 122q2 66 -40 66q-37 0 -71 -48q-39 -55 -66.5 -130.5t-29.5 -119.5zM371 211q51 15 80 31.5t58 43.5q20 19 29.5 38.5t9.5 29.5q0 23 -22 23q-28 0 -75 -48q-48 -50 -80 -118z" />
<glyph unicode="&#x178;" horiz-adv-x="564" d="M123 9.5q0 8.5 5 12.5l36 3q35 3 49.5 22.5t40.5 96.5l20 59q14 40 15.5 60.5t-8.5 67.5l-50 217q-11 49 -21 65.5t-36 20.5l-25 4q-4 5 -3 13.5t6 11.5q56 -3 106 -3q59 0 107 3q5 -4 5 -12t-5 -13l-29 -4q-28 -4 -36 -15t-1 -40l51 -235q4 -19 9.5 -19t20.5 18l123 148 q96 118 96 126q0 12 -29 17l-25 4q-5 4 -4.5 12.5t6.5 12.5q59 -3 104 -3q41 0 90 3q5 -3 5 -12t-5 -13l-21 -4q-40 -8 -56 -23q-41 -37 -98 -103l-114 -134q-53 -62 -69 -87.5t-34 -82.5l-19 -60q-17 -54 -20.5 -76t4.5 -31.5t35 -11.5l36 -3q5 -4 3.5 -13.5t-6.5 -11.5 q-84 3 -134 3q-52 0 -119 -3q-6 4 -6 12.5zM344 742q0 23 14 38t33 15q17 0 27 -11.5t10 -26.5q0 -24 -14.5 -38t-33.5 -14q-17 0 -26.5 10t-9.5 27zM518 742q0 23 14 38t33 15q17 0 27 -11.5t10 -26.5q0 -24 -14 -38t-34 -14q-17 0 -26.5 10t-9.5 27z" />
<glyph unicode="&#x2c6;" horiz-adv-x="360" d="M230 471l122 164q12 15 21 15q12 0 17 -19l38 -162q-6 -13 -21 -10l-42 92q-6 13 -9 13q-5 0 -16 -11l-93 -96q-6 -1 -11.5 3t-5.5 11z" />
<glyph unicode="&#x2dc;" horiz-adv-x="360" d="M191 488q3 15 13.5 40t20.5 34q18 21 50 21h50q29 0 41.5 6t28.5 29q11 6 16 -4q-11 -43 -35 -67q-16 -15 -45 -15h-49q-29 0 -45.5 -11t-30.5 -37q-10 -6 -15 4z" />
<glyph unicode="&#x2000;" horiz-adv-x="434" />
<glyph unicode="&#x2001;" horiz-adv-x="868" />
<glyph unicode="&#x2002;" horiz-adv-x="434" />
<glyph unicode="&#x2003;" horiz-adv-x="868" />
<glyph unicode="&#x2004;" horiz-adv-x="289" />
<glyph unicode="&#x2005;" horiz-adv-x="217" />
<glyph unicode="&#x2006;" horiz-adv-x="144" />
<glyph unicode="&#x2007;" horiz-adv-x="144" />
<glyph unicode="&#x2008;" horiz-adv-x="108" />
<glyph unicode="&#x2009;" horiz-adv-x="173" />
<glyph unicode="&#x200a;" horiz-adv-x="48" />
<glyph unicode="&#x2010;" horiz-adv-x="320" d="M54.5 202q2.5 19 12.5 28l243 22q8 -10 5 -29t-13 -28l-243 -22q-7 10 -4.5 29z" />
<glyph unicode="&#x2011;" horiz-adv-x="320" d="M54.5 202q2.5 19 12.5 28l243 22q8 -10 5 -29t-13 -28l-243 -22q-7 10 -4.5 29z" />
<glyph unicode="&#x2012;" horiz-adv-x="320" d="M54.5 202q2.5 19 12.5 28l243 22q8 -10 5 -29t-13 -28l-243 -22q-7 10 -4.5 29z" />
<glyph unicode="&#x2013;" d="M0 181l16 49h516l-16 -49h-516z" />
<glyph unicode="&#x2014;" horiz-adv-x="1000" d="M0 181l16 49h1016l-16 -49h-1016z" />
<glyph unicode="&#x2018;" horiz-adv-x="208" d="M162 556q0 48 45.5 85.5t101.5 53.5q12 -6 6 -19q-89 -42 -89 -101q0 -27 32 -38q15 -6 15 -21t-12.5 -26t-29.5 -11q-32 0 -50.5 23.5t-18.5 53.5z" />
<glyph unicode="&#x2019;" horiz-adv-x="208" d="M169 489q89 42 89 101q0 27 -32 38q-15 6 -15 21t12.5 26t29.5 11q32 0 50.5 -23.5t18.5 -53.5q0 -48 -45.5 -85.5t-101.5 -53.5q-12 6 -6 19z" />
<glyph unicode="&#x201a;" horiz-adv-x="208" d="M-15 -83q89 42 89 101q0 27 -32 38q-15 6 -15 21t12.5 26t29.5 11q32 0 50.5 -23.5t18.5 -53.5q0 -48 -45.5 -85.5t-101.5 -53.5q-12 6 -6 19z" />
<glyph unicode="&#x201c;" horiz-adv-x="380" d="M168 556q0 48 45.5 85.5t101.5 53.5q12 -6 6 -19q-89 -42 -89 -101q0 -27 32 -38q15 -6 15 -21t-12.5 -26t-29.5 -11q-32 0 -50.5 23.5t-18.5 53.5zM330 556q0 48 45.5 85.5t101.5 53.5q12 -6 6 -19q-89 -42 -89 -101q0 -27 32 -38q15 -6 15 -21t-12.5 -26t-29.5 -11 q-32 0 -50.5 23.5t-18.5 53.5z" />
<glyph unicode="&#x201d;" horiz-adv-x="380" d="M173 489q89 42 89 101q0 27 -32 38q-15 6 -15 21t12.5 26t29.5 11q32 0 50.5 -23.5t18.5 -53.5q0 -48 -45.5 -85.5t-101.5 -53.5q-12 6 -6 19zM335 489q89 42 89 101q0 27 -32 38q-15 6 -15 21t12.5 26t29.5 11q32 0 50.5 -23.5t18.5 -53.5q0 -48 -45.5 -85.5 t-101.5 -53.5q-12 6 -6 19z" />
<glyph unicode="&#x201e;" horiz-adv-x="380" d="M-12 -83q89 42 89 101q0 27 -32 38q-15 6 -15 21t12.5 26t29.5 11q32 0 50.5 -23.5t18.5 -53.5q0 -48 -45.5 -85.5t-101.5 -53.5q-12 6 -6 19zM150 -83q89 42 89 101q0 27 -32 38q-15 6 -15 21t12.5 26t29.5 11q32 0 50.5 -23.5t18.5 -53.5q0 -48 -45.5 -85.5 t-101.5 -53.5q-12 6 -6 19z" />
<glyph unicode="&#x2022;" horiz-adv-x="390" d="M110 336q0 58 40.5 98.5t98.5 40.5t98.5 -40.5t40.5 -98.5t-40.5 -98t-98.5 -40t-98.5 40t-40.5 98z" />
<glyph unicode="&#x2026;" horiz-adv-x="1000" d="M83 33q0 26 17.5 44t39.5 18q21 0 32.5 -13.5t11.5 -31.5q0 -29 -17 -46.5t-40 -17.5q-21 0 -32.5 12.5t-11.5 34.5zM416 33q0 26 17.5 44t39.5 18q21 0 32.5 -13.5t11.5 -31.5q0 -29 -17 -46.5t-40 -17.5q-21 0 -32.5 12.5t-11.5 34.5zM749 33q0 26 17.5 44t39.5 18 q21 0 32.5 -13.5t11.5 -31.5q0 -29 -17 -46.5t-40 -17.5q-21 0 -32.5 12.5t-11.5 34.5z" />
<glyph unicode="&#x202f;" horiz-adv-x="173" />
<glyph unicode="&#x2039;" horiz-adv-x="260" d="M79 190q-10 15 6 31q26 26 77 76t75 74q12 2 14 -13l-100 -140q-9 -11 -5 -24l40 -145q-2 -6 -8 -9t-11 -1q-52 94 -88 151z" />
<glyph unicode="&#x203a;" horiz-adv-x="260" d="M51 52l100 140q9 11 5 24l-40 145q2 6 8 9t11 1q52 -94 88 -151q10 -15 -6 -31q-26 -26 -77 -76t-75 -74q-12 -2 -14 13z" />
<glyph unicode="&#x205f;" horiz-adv-x="217" />
<glyph unicode="&#x20ac;" d="M94.5 277.5q3.5 11.5 14.5 15.5h49q4 25 13 56h-55q-4 8 -0.5 19.5t14.5 15.5h52q30 79 91 139q117 117 300 117q65 0 142 -30q-26 -69 -41 -127q-3 -5 -13 -4.5t-12 5.5q14 63 -8 93t-84 30q-120 0 -215 -97q-46 -50 -73 -126h332q5 -4 0.5 -17.5t-14.5 -17.5h-329 q-10 -44 -11 -56h310q5 -4 0.5 -17.5t-14.5 -17.5h-300q-3 -20 -3 -35q0 -99 42 -151.5t114 -52.5q115 0 188 129q18 6 22 -7q-22 -64 -59 -133q-10 0 -72 -11q-53 -11 -86 -11q-43 0 -82 12.5t-75 39.5t-57 79t-21 123q0 11 2 18h-61q-4 8 -0.5 19.5z" />
<glyph unicode="&#x2122;" horiz-adv-x="550" d="M150 611q5 32 12 60h9q6 -8 10.5 -9.5t17.5 -1.5h115q17 0 28 11h8q-7 -28 -5 -63q-1 -2 -5 -2.5t-5 1.5q-2 13 -4.5 18.5t-10.5 10t-22 4.5h-21q-5 0 -6 -1.5t-1 -9.5v-101q0 -22 2.5 -29.5t13.5 -10.5l15 -2q2 -2 1.5 -7t-2.5 -6q-20 1 -48 1q-36 0 -52 -1q-7 3 -1 13 l14 2q17 2 17 43v98v6t-1 3.5t-3 1.5h-6h-17q-35 0 -43 -32q-8 -3 -10 3zM366.5 478.5q-0.5 4.5 1.5 7.5l5 1q21 2 23 21q8 78 8 119q0 17 -22 20l-7 1q-1 2 -1 7t2 6q10 -1 31 -1q27 0 42 1q0 -10 22 -51l25 -47q16 -28 17 -28q2 2 17 28l24 43q15 27 23 55q15 -1 30 -1 q25 0 36 1q4 -1 4.5 -6.5t-3.5 -6.5l-9 -1q-17 -2 -17 -22q0 -63 3 -109q1 -15 3 -20t9 -7l14 -3q2 -2 2 -7t-2 -6q-13 1 -46 1q-28 0 -41 -1q-2 2 -2.5 6.5t2.5 6.5l9 3q11 4 13 8t2 20l-2 89q0 9 -1 10q-1 0 -17 -30l-25 -49l-8 -16t-13.5 -28t-8.5 -20q-9 -3 -11 -1 q-7 20 -26 57l-25 50q-19 41 -21 42q-2 -3 -3 -47q-1 -17 -1 -61q0 -15 3.5 -19.5t15.5 -6.5l8 -1q4 -6 0 -13q-9 1 -43 1q-22 0 -37 -1q-2 1 -2.5 5.5z" />
</font>
</defs>
</svg>
